#TITLE:Crystal Energy;
#SUBTITLE:- Mai-Otome 2nd Opening;
#ARTIST:Minami Kuribayashi;
#TITLETRANSLIT:;
#SUBTITLETRANSLIT:;
#ARTISTTRANSLIT:;
#CREDIT:Jubo;
#BANNER:Mai-Otome-2ndOP-Banner.png;
#BACKGROUND:Mai-Otome-2ndOP-BG1.jpg;
#LYRICSPATH:Mai-OtomeOP2-lyrics.lrc;
#CDTITLE:Jubo.png;
#MUSIC:Mai-Otome - OP2 (Kuribayashi Minami -Crystal Energy).mp3;
#OFFSET:1.780;
#SAMPLESTART:46.080;
#SAMPLELENGTH:29.980;
#SELECTABLE:YES;
#BPMS:0.000=133.960;
#STOPS:16.000=0.140
,16.500=0.140
,17.000=0.140
,17.500=0.140
,39.000=1.300
,132.000=0.120
,132.500=0.100
,133.000=0.040
,133.500=0.136
;
#BGCHANGES:4.000=Mai-Otome - OP2 (Kuribayashi Minami -Crystal Energy) Video.avi=1.000=1=0=0,
192.000=Mai-Otome-2ndOP-BG2.jpg=1.000=1=0=0,
99999=-nosongbg-=1.000=0=0=0 // don't automatically add -songbackground-
;
// cache tags:
#FIRSTBEAT:4.000;
#LASTBEAT:193.000;
#SONGFILENAME:Songs/Otaku's Dream 1st Anime Mix/Jubo - Mai-Otome OP2/Mai-Otome 2nd OP.sm;
#HASMUSIC:1;
#HASBANNER:1;
#MUSICLENGTH:89.760;
// end cache tags

//---------------dance-single - ----------------
#NOTES:
     dance-single:
     :
     Challenge:
     9:
     0.731,0.753,0.746,0.512,0.345,346.000,67.000,46.000,0.000,0.000:
0000
0000
0000
0000
,
2002
3003
0000
0000
0010
0000
0000
0000
0001
0000
0000
0000
0100
0000
1000
0000
,
0202
0000
0000
0303
0000
0000
0001
0000
0100
0000
0010
0000
1000
0000
0100
0000
,
0022
0000
0000
0033
0001
0000
0010
0000
0100
0000
1000
0001
1000
0001
1000
0001
,
1001
0101
1001
0011
2002
3003
0220
0000
,
0000
0330
0000
0010
0000
0100
2002
0000
,
0000
3003
0000
1000
0000
0001
0100
0000
,
0010
0220
0000
0330
0000
0000
0011
0000
,
0110
0000
1100
0000
1010
0000
1000
0100
,
0010
0000
0001
0000
1000
0001
1000
0001
1000
0001
2002
0000
0000
0000
3003
0000
,
1001
0000
1000
0001
0000
0001
1000
0000
0001
1000
0000
1000
0001
0000
1000
0000
,
1001
0000
0001
1000
0000
1000
0001
0000
1000
0001
0000
0001
1000
0000
0001
0000
,
1001
0000
0010
0100
0000
0100
0010
0000
0100
0010
0000
0010
0100
0000
0010
0000
,
0110
0000
0100
0010
0000
0010
0100
0000
0010
0100
0000
0100
0010
0000
0100
0000
,
0110
0000
1000
0100
0000
0100
1000
0000
0100
1000
0000
1000
0100
0000
1000
0000
,
1100
0000
0100
1000
0000
1000
0100
0000
1000
0100
0000
0100
1000
0000
0100
0000
,
1100
0000
0001
0010
0000
0010
0001
0000
0010
0001
0000
0001
0010
0000
0001
0000
,
0011
0000
0001
0010
0000
0010
0001
0000
0010
0001
0000
0001
0010
0000
0001
0000
,
0011
0000
1000
0010
0001
0100
1000
0010
,
0001
0000
0100
0000
1001
0000
0010
0100
0010
0100
0010
0000
0110
0000
0010
0000
,
1001
1000
0010
0100
0001
0010
1000
0100
,
0001
0000
0010
0000
1001
0000
0010
0100
0010
0100
0010
0000
0110
0000
0100
0000
,
1001
0010
0001
0100
0010
1000
0001
0010
,
1000
0000
0100
0000
0110
0000
0001
1000
0001
1000
0001
0000
1001
0000
0010
0000
,
1001
0100
0010
0001
0001
0010
0100
1000
,
1000
0100
0010
0001
0022
0033
1001
0000
,
1100
0000
1010
0000
1001
0001
0101
0000
,
0011
0000
0101
0000
0101
0100
1100
0000
,
1100
0000
1010
0000
0011
0010
1010
0000
,
0011
0000
0101
0000
1010
1000
1100
0000
,
0001
0000
0000
0000
1000
0000
0000
0000
0010
0000
0000
0000
0100
0010
0100
0010
,
0100
0000
0000
0000
0100
0000
0000
0000
0001
0000
1000
0100
1000
0010
0100
0010
,
0001
0010
1000
1000
,
1010
0101
1100
0011
0100
1000
1100
0000
,
0010
0000
0001
0000
0011
0000
0000
0000
1000
0000
0010
0000
0022
0033
0000
0000
,
2002
3003
0000
0000
2020
3030
0000
0000
0202
0303
0000
0000
0220
0330
0000
0000
,
1100
0010
0100
0010
0001
1000
0100
0010
,
0022
0033
1000
0100
1000
0010
0100
0010
0001
0100
0001
0000
0200
0000
0300
0000
,
0010
0001
0020
0030
0100
1000
0100
0010
,
1000
0010
0100
0010
0001
2000
0002
0003
,
3020
0000
0030
0000
0200
0000
0000
0300
0010
0000
0001
0000
0002
0000
1000
0000
,
0010
0003
1000
0000
2000
0000
0010
0000
0001
0010
0001
0010
3001
0000
0000
0000
,
0020
0000
0030
0000
0002
0000
0003
0000
0100
0000
0010
0000
0002
0000
0000
0003
,
0100
1000
0020
0001
0001
1030
1000
0000
,
0010
0000
0100
0000
1000
0010
2020
3030
,
0000
0100
0010
0000
0010
0100
0001
0010
,
0100
0000
1000
0000
1000
0000
0100
0000
0010
0000
0001
0000
0100
0010
0100
0010
,
0100
0010
0100
0010
0001
1000
0001
1000
0001
1000
2002
0000
0000
0000
0000
0000
,
0000
3003
0000
0000
;

//---------------dance-single - ----------------
#NOTES:
     dance-single:
     :
     Hard:
     7:
     0.489,0.591,0.457,0.379,0.000,232.000,41.000,34.000,0.000,0.000:
0000
0000
0000
0000
,
1001
0100
0010
1000
,
2002
3003
0010
0100
,
1001
0000
0001
0010
0100
1000
0001
1000
,
1001
1010
1100
1001
0000
0000
0220
0000
,
0000
0000
0330
1000
0000
0001
0220
0000
,
0000
0000
0330
1000
0000
0100
0010
0000
,
0100
2000
0000
0000
3000
0000
0011
0000
,
0110
0000
1100
0000
1001
0100
0010
0100
,
0010
0001
1000
0001
1000
2002
0000
0000
,
3003
0000
0001
0000
0010
0000
1000
0100
,
2000
0100
0010
3001
,
0001
0000
0010
0000
0100
0000
1000
0001
,
0020
0000
0001
0030
1000
0000
0100
0010
,
0001
0000
1000
0000
0001
1000
0002
0000
,
0010
0000
0100
0000
1000
0000
0013
0100
,
1000
0010
0100
1000
,
0010
0000
0100
0001
2000
0000
0010
0000
,
3001
1000
0010
1000
,
1000
0100
0010
0001
1100
0000
1001
0000
,
0010
0001
0100
0010
,
0001
0010
0100
1000
0101
0000
1001
0000
,
0100
0010
0001
1000
,
1000
0100
0010
0001
1010
0000
1001
0000
,
0010
0100
0010
0220
0330
0000
0000
1000
,
0001
0000
1000
0000
0010
0000
0100
0000
0220
0330
0000
0000
2200
3300
0000
0000
,
2020
3030
0000
0000
2002
3003
0000
0000
0200
0000
0001
0000
0301
0000
0000
0000
,
0100
0000
0101
0000
0002
0100
0103
0000
,
0001
0000
0110
0000
0020
0100
0130
0000
,
1000
0000
0110
0000
0200
0010
0310
0000
,
0010
0000
1010
0000
0020
1000
1030
0000
,
1000
0001
1000
0001
1000
0010
0100
0001
,
0010
0100
1000
0000
0010
0100
0010
0000
,
1001
1010
1100
1001
0001
1000
0001
0000
,
1000
0001
1000
0000
0010
0001
1000
0100
,
0010
0100
0010
1000
,
0010
0000
0100
0001
1000
0000
0010
0000
,
2000
0100
3100
0001
,
0010
0000
0100
0000
0010
0001
1000
0000
,
0010
0000
0110
0001
1000
0000
0100
0000
,
1010
0000
0100
0000
0010
0001
0011
0000
,
0011
0011
1100
1010
,
0100
0010
0001
0200
,
0000
1000
2000
0000
0000
3300
0000
0000
,
0001
0010
0100
0200
,
0001
0300
1000
0000
0010
0000
0001
1000
,
0100
0010
0001
0010
0100
1000
0100
0010
,
0001
1000
0001
1000
0001
2002
0000
0000
,
0000
3003
0000
0000
;

//---------------dance-single - Copied from----------------
#NOTES:
     dance-single:
     Copied from:
     Medium:
     5:
     0.388,0.430,0.290,0.345,0.000,187.000,26.000,31.000,0.000,0.000:
0000
0000
0000
0000
,
0110
1000
1000
1000
,
0110
0001
0001
0001
,
0110
1000
1000
1000
,
1001
0110
0110
1001
0000
0000
0002
0000
,
0000
0000
0003
0010
0000
1000
2000
0000
,
0000
0000
3000
0001
0000
0100
0200
0000
,
0301
0002
0000
0000
0003
0000
2000
3000
,
0020
0030
0200
0300
0002
0003
0100
0100
,
0100
0010
0010
0010
0000
0220
0000
0000
,
0330
0001
0010
1000
,
0020
0000
0001
0000
0001
0000
0001
0030
,
1000
0010
0100
0010
,
2000
0000
0001
3000
0002
0000
1000
0003
,
0010
0100
0010
0001
,
2000
0000
0100
0000
0001
3000
0010
0000
,
1000
0000
2000
0000
0010
0000
0001
3000
,
0002
0000
0010
0000
0100
0000
0010
0003
,
1000
0010
0001
1000
,
0010
1000
0001
1001
,
0001
0100
0010
1000
,
0100
0010
0001
0100
,
0110
1000
0010
0100
,
0001
0010
0100
1001
,
1000
0010
0100
0001
,
0010
0100
2002
3003
,
0020
0031
0002
0103
,
2000
3001
0020
1030
,
0200
0310
0002
1003
,
0200
1300
0010
0001
,
1000
1000
0001
0010
,
0100
0100
1000
0010
,
0110
1000
1001
0010
,
1001
0110
0110
1001
0000
0000
0002
0000
,
0000
0003
2000
0000
0000
3000
0020
0000
,
0000
0030
0200
0000
0000
0000
0301
0000
,
0010
1000
0010
0100
,
0001
1000
0010
0100
,
0001
1000
0010
0100
,
0010
0001
1000
1010
,
0100
0000
0101
0000
0010
0000
0001
1000
,
0100
0010
0100
0001
0010
1000
0010
0000
,
1000
0001
1000
1010
,
0100
0101
0010
0110
,
1000
0100
1000
1010
,
0100
0010
0101
0001
,
0001
1000
1000
0010
,
0010
0000
0100
0000
0100
0220
0000
0000
,
0000
0330
0000
0000
;

//---------------dance-single - ----------------
#NOTES:
     dance-single:
     :
     Easy:
     3:
     0.279,0.349,0.123,0.390,0.000,129.000,11.000,35.000,0.000,0.000:
0000
0000
0000
0000
,
0220
0000
0000
0000
,
0330
0000
0000
0000
,
0220
0000
0000
0330
,
0000
0000
0000
0002
,
0000
0003
0000
2000
,
0000
3000
0000
0020
,
0000
0030
0000
2000
,
0000
3000
0000
0220
,
0000
0000
0000
0000
,
0330
0001
0001
1000
,
1000
0010
0010
0100
,
0100
0001
0001
1000
,
1000
0010
0010
0100
,
0100
0001
0001
0010
,
0010
0100
0100
1000
,
1000
0010
0010
0100
,
0100
0001
0001
2002
,
3003
1000
0010
0100
,
0001
0010
0100
0110
,
0100
0010
0001
0010
,
0100
0100
0010
0110
,
1000
0010
0100
0010
,
0001
1000
0010
0110
,
1000
0100
0010
0001
,
1000
0010
0100
1000
,
2000
3010
0020
0130
,
0200
0301
0002
0013
,
0020
0130
0200
1300
,
2000
3001
0002
0103
,
0020
1030
2000
3100
,
0200
0310
0020
0031
,
0002
0013
0020
0130
,
0000
0000
0000
0002
,
0000
0003
0020
0000
0000
0030
2000
0000
,
0000
3000
0200
0000
0000
0300
0002
0000
,
0000
0003
0200
0000
0000
0300
0020
0000
,
0000
0030
0010
0000
0010
0000
0110
0000
,
0000
0010
0000
1000
,
0000
0010
0000
0100
,
0000
1001
0000
0100
,
0100
0010
0010
0110
,
0000
1000
0000
0001
,
0000
0100
0000
0001
,
0000
0010
0000
1000
,
0000
0100
0000
0010
,
0000
0001
0000
0010
,
0000
0000
0100
0000
0000
0220
0000
0000
,
0000
0330
0000
0000
;

//---------------dance-single - ----------------
#NOTES:
     dance-single:
     :
     Beginner:
     1:
     0.119,0.161,0.033,0.145,0.000,59.000,3.000,13.000,0.000,0.000:
0000
0000
0000
0000
,
0020
0000
0000
0000
,
0030
0000
0000
0000
,
0020
0000
0000
0030
,
0000
0000
0000
2000
,
0000
0000
3000
0002
,
0000
0000
0003
0020
,
0000
0000
0030
0200
,
0000
0000
0300
0200
,
0000
0000
0000
0000
,
0300
0000
0000
0000
,
0010
0000
0000
0000
,
0010
0000
0000
0000
,
1000
0000
0000
0000
,
1000
0000
0000
0000
,
0100
0000
0000
0000
,
0100
0000
0000
0000
,
0001
0000
0001
0000
,
2002
0000
3003
0000
,
0010
0000
0010
0000
,
0000
0000
0000
0000
,
1000
0000
1000
0000
,
0000
0000
0000
0000
,
0010
0000
0010
0000
,
0000
0000
0000
0000
,
0100
0000
0100
0000
,
1000
0000
1000
0000
,
0001
0000
0001
0000
,
0100
0000
0100
0000
,
0010
0000
0010
0000
,
1000
0000
0000
0000
,
0001
0000
0000
0000
,
0100
0000
0001
0000
,
0000
0000
0000
0001
,
0000
0001
0000
0001
,
0000
0000
0000
0000
,
1000
0000
1000
0000
,
1000
0000
0000
0010
,
0000
0010
0000
0100
,
0000
0100
0000
2002
,
0000
0000
0000
0000
,
0000
0000
0000
3003
,
0000
1000
0000
0010
,
0000
0100
0000
0001
,
0000
0010
0000
0100
,
0000
1000
0000
0010
,
0000
0010
0000
0100
,
0000
0100
0220
0000
,
0000
0330
0000
0000
;
