#TITLE:Donkey Kong Country Theme;
#SUBTITLE:By Nicholas Mihaila;
#ARTIST:Nintendo;
#TITLETRANSLIT:;
#SUBTITLETRANSLIT:;
#ARTISTTRANSLIT:;
#CREDIT:;
#BANNER:DKC - Banner.gif;
#BACKGROUND:DKC - Background.gif;
#LYRICSPATH:;
#CDTITLE:cdtitle.gif;
#MUSIC:Techno - Nintendo - Donkey Kong Country Theme.mp3;
#OFFSET:0.000;
#SAMPLESTART:100.000;
#SAMPLELENGTH:12.000;
#SELECTABLE:YES;
#BPMS:0.000=134.119,125.000=67.060,137.500=66.940,138.000=69.139,138.063=71.239,138.125=73.339,138.188=75.539,138.250=77.639,138.313=79.739,138.375=81.839,138.438=83.939,138.500=86.039,138.563=88.139,138.625=90.239,138.688=92.339,138.750=94.439,138.813=96.639,138.875=98.739,138.938=100.839,139.000=102.939,139.063=105.039,139.125=107.139,139.188=109.239,139.250=111.339,139.313=113.438,139.375=115.538,139.438=117.538,139.500=119.738,139.563=121.838,139.625=123.938,139.688=126.038,139.750=128.138,139.813=130.238,139.875=132.198,139.938=134.438,140.000=134.118,141.000=133.998;
#STOPS:0.000=1.640
;
#BGCHANGES:;
// cache tags:
#FIRSTBEAT:1.000;
#LASTBEAT:248.375;
#SONGFILENAME:Songs/toune/Techno - DK Country Theme/Techno - Nintendo - Donkey Kong Country Theme.sm;
#HASMUSIC:1;
#HASBANNER:1;
#MUSICLENGTH:128.776;
// end cache tags

//---------------dance-single - ----------------
#NOTES:
     dance-single:
     :
     Hard:
     10:
     0.601,0.844,0.536,0.691,0.427,384.000,69.000,89.000,0.000,19.000:
0000
0000
0000
0000
0000
0000
0000
0000
0200
0000
0000
0300
0000
0000
0000
0000
0200
0000
0000
0300
0000
0000
0000
0000
1010
0000
0000
0000
0000
0000
0000
0000
,
1010
0000
0001
0010
0001
0100
0010
0000
,
0000
0000
1000
0100
1000
0010
0100
1000
,
0010
0000
1000
0000
0001
0010
0100
1000
0001
0010
0100
1000
0011
0000
0000
0000
,
0011
0000
0000
0000
0000
0000
0000
0000
0020
0000
0000
0030
0000
0000
0000
0000
0020
0000
0000
0030
0000
0000
0000
0000
1001
0000
0000
0000
0000
0000
0000
0000
,
1001
0000
0000
0000
1000
0100
1000
0010
1000
0001
1000
0010
1000
0100
1000
0010
,
1000
0000
0001
0000
1000
0000
0010
0000
2000
0000
0000
3000
0000
0000
0000
0000
2000
0000
0000
3000
0000
0000
0000
0000
1010
0000
0000
0000
0000
0000
0000
0000
,
1010
0000
0000
0000
1000
0100
0010
0001
1000
0100
0010
0001
1100
0000
0000
0000
,
1100
0000
0000
0000
0000
0000
0000
0000
0002
0000
0000
0003
0000
0000
0000
0000
0002
0000
0000
0003
0000
0000
0000
0000
1010
0000
0000
0000
0000
0000
0000
0000
,
1010
0000
0000
0000
0001
0010
0100
1000
0100
0010
0001
0010
0100
1000
0100
0010
,
0001
0000
0010
0000
0100
0000
1000
0000
0200
0000
0000
0300
0000
0000
0000
0000
0200
0000
0000
0300
0000
0000
0000
0000
1001
0000
0000
0000
0000
0000
0000
0000
,
1001
0000
0000
0010
1100
0010
0001
0100
,
1001
0010
0100
1000
0101
1000
0010
0001
,
0110
0001
0010
0001
1100
0010
0100
1000
,
0101
1000
0100
0001
1010
0100
0001
0010
,
1001
0000
0100
0000
1000
0000
0001
0000
0110
0000
1000
0100
0010
0001
0010
0100
,
1000
0100
0011
0000
0000
0000
0000
0000
0000
0000
0001
0010
0100
1000
0001
0010
,
0100
1000
0110
0000
0000
0000
0000
0000
0000
0000
0001
0010
0100
1000
0100
0010
,
0001
0010
1100
0000
0000
0000
0000
0000
0000
0000
1000
0100
0010
0001
1000
0100
,
0010
0001
0110
0000
2002
0000
3003
0000
2002
0000
3103
0010
0100
0001
0100
0010
,
0100
0000
1010
0000
2002
0000
3003
0000
2002
0000
3013
0100
0010
1000
0010
0100
,
0010
0000
0101
0000
2200
0000
3300
0000
2200
0000
3301
0010
0100
1000
0011
0000
,
1000
0100
0010
0001
0220
0000
0000
0000
0000
0000
0000
0000
0000
0000
0000
0000
,
1331
0000
2002
0000
0000
3200
0000
0000
,
1003
0000
2300
0000
0000
0020
0000
0000
,
3001
0032
0000
0000
,
0000
0000
0000
0000
0000
0013
0100
0000
,
0100
2000
0000
0000
0000
0000
0000
0000
,
3100
0010
0002
0000
0013
0002
0000
0000
,
0013
0200
0000
0000
0000
0000
0000
0000
,
0000
0000
0000
0000
,
0000
0000
0000
0000
0000
0000
0000
0000
2302
0000
0000
0000
0000
0000
0000
0000
0203
0000
0000
0000
3310
0000
0002
0000
0000
0000
1000
0000
1000
0000
0000
0013
,
0000
0200
0000
0000
0000
0310
0000
0002
0000
0000
1000
0000
1000
0000
0000
0000
0010
0000
0100
0000
1000
0000
0100
0000
0010
0000
0100
0000
1000
0000
0100
0000
,
0010
0000
0100
0000
1000
0000
0100
0000
0010
0000
0100
0000
1000
0000
0103
0000
0200
0000
0000
0000
0310
0000
2000
0000
0000
0000
0001
0000
0001
0000
0000
3010
,
0000
0200
0000
0000
0000
0310
0000
2000
0000
0000
0001
0000
0001
0000
0000
0000
0000
0000
0000
0000
0000
0000
0000
0000
0000
0000
0000
0000
0000
0000
0000
0000
,
3101
0000
0000
0000
0010
1000
0000
1000
0101
0000
0000
0000
1000
0000
0000
0000
,
1100
0000
0000
0000
0001
0010
0000
0010
1100
0000
0000
0000
0010
0000
0000
0000
,
1010
0000
0000
0000
0100
0001
0000
0001
1010
0000
0000
0000
0010
0000
0000
0000
,
2200
3300
0220
0330
0022
0033
1000
0000
,
2200
0000
3300
0000
0010
0100
0000
0100
2002
0000
3003
0000
0010
0000
0000
0000
,
1000
0000
0001
0010
0001
0100
0001
0010
0001
0100
1001
0000
0000
0000
0000
0000
,
0000
0000
1000
0100
0010
0001
1000
0100
0010
0001
1100
0000
0000
0000
0000
0000
,
0000
0000
0001
0010
0100
1000
0100
0010
0001
0010
0101
0000
0000
0000
0000
0000
,
0000
0000
0001
0010
0100
1000
0001
0010
0100
1000
0110
0000
2002
0000
3003
0000
,
2002
0000
3013
0100
0010
0100
0010
0100
0010
0000
0100
0000
2002
0000
3003
0000
,
2002
0000
3103
0010
0100
0010
0100
0010
0100
0000
0010
0000
0202
0000
0303
0000
,
0202
0000
1303
0100
0010
0001
1100
0000
0001
0010
0100
1000
0220
0000
0000
0000
,
0000
0000
1331
2002
,
0000
0023
0000
0000
3001
0000
0032
0000
,
0000
0200
0000
0000
1003
0000
2300
0000
,
0000
0000
0000
0000
,
0000
3100
0010
0000
0010
0002
0000
0000
,
0000
0000
0000
0000
0013
0100
2000
0000
,
3100
2000
0000
0000
3100
0000
0020
0000
,
0000
0200
0000
0000
0000
0000
0000
0000
1330
0001
1000
0001
0200
0000
0000
0000
,
0000
0000
0000
0000
,
0000
0000
0300
0000
1000
0100
0020
0000
,
0130
0000
0020
0000
0000
0000
0000
0000
0130
0000
0000
0002
0000
0000
0000
0000
,
0000
0000
0000
0000
,
0000
0000
0000
0000
0000
0000
0000
0000
0000
0000
0000
0000
0000
0000
0000
0000
0000
0000
0000
0000
0000
0000
0000
0000
2003
0000
0000
3000
0000
0000
0000
0000
,
2000
0000
0000
3000
0000
0000
0000
0000
0110
0000
0000
0000
0000
0000
0000
0000
0110
0000
0000
0000
0000
0000
0000
0000
0002
0000
0000
0003
0000
0000
0000
0000
,
0002
0000
0000
0003
0000
0000
0000
0000
1010
0000
0000
0000
0000
0000
0000
0000
1010
0000
0000
0000
0000
0000
0000
0000
0200
0000
0000
0300
0000
0000
0000
0000
,
0200
0000
0000
0300
0000
0000
0000
0000
0000
0000
0000
0000
0000
0000
0000
0000
0000
0000
0000
0000
0000
0000
0000
0000
0000
0000
0000
0000
0000
0000
0000
0000
;
