#TITLE:Theme(Heavy);
#SUBTITLE:;
#ARTIST:SilverFang;
#TITLETRANSLIT:;
#SUBTITLETRANSLIT:;
#ARTISTTRANSLIT:;
#CREDIT:;
#BANNER:SilverFang Banner.jpg;
#BACKGROUND:SilverFang BG.jpg;
#LYRICSPATH:;
#CDTITLE:!IzzyTitle.png;
#MUSIC:SilverFang - Theme(Heavy).mp3;
#OFFSET:0.000;
#SAMPLESTART:37.007;
#SAMPLELENGTH:12.000;
#SELECTABLE:YES;
#BPMS:0.000=162.130;
#STOPS:;
#BGCHANGES:;
// cache tags:
#FIRSTBEAT:4.000;
#LASTBEAT:423.500;
#SONGFILENAME:Songs/Bemani.se Megapack/(Izzy) SilverFang - Theme (Heavy)/SilverFang - Theme (Heavy).sm;
#HASMUSIC:1;
#HASBANNER:1;
#MUSICLENGTH:159.616;
// end cache tags

//---------------dance-single - ----------------
#NOTES:
     dance-single:
     :
     Hard:
     10:
     1.000,1.000,0.827,0.175,1.000,994.000,132.000,28.000,0.000,0.000:  // measure 1
0000
0000
0000
0000
,  // measure 2
0110
1100
0011
0100
,  // measure 3
0010
0000
0000
0000
0000
0000
1001
0000
0000
0000
1000
0100
1000
0000
0000
0000
,  // measure 4
0110
0011
1100
0010
,  // measure 5
0100
0000
0100
0000
0000
0001
0100
0010
,  // measure 6
0110
0000
1100
0000
1100
0000
0001
0200
,  // measure 7
0000
0000
0000
0000
0300
1100
0110
0000
,  // measure 8
0110
0000
1000
0000
0001
0000
0010
0220
,  // measure 9
0000
0000
0000
0000
0330
1001
1001
0000
,  // measure 10
0011
0000
1100
0000
0110
0000
1000
0002
,  // measure 11
0000
0003
0001
0000
1000
0000
0100
0220
,  // measure 12
0000
0000
0000
0000
0300
0000
1000
1000
,  // measure 13
0000
1030
0000
0000
0000
0000
0000
0000
,  // measure 14
0110
0000
0011
0000
0011
0000
1000
0020
,  // measure 15
0000
0000
0000
0000
0030
0011
0110
0000
,  // measure 16
0110
0000
0001
0000
1000
0000
0100
0220
,  // measure 17
0000
0000
0000
0000
0330
1001
1001
0000
,  // measure 18
0011
0000
1100
1100
0000
0000
0010
0011
,  // measure 19
0100
0011
1000
0011
0000
0000
1000
1000
,  // measure 20
1000
0000
0000
0001
0001
0001
0001
0002
,  // measure 21
1000
1000
1000
1003
,  // measure 22
0000
0110
0110
0110
0000
0110
0110
0000
,  // measure 23
1000
0100
1000
0001
0010
0001
1000
0010
1000
0010
0100
0001
0100
0001
1000
0001
,  // measure 24
1000
0010
0100
0010
1000
0001
1000
0100
1000
0001
0100
0001
1000
0010
1000
0100
,  // measure 25
1000
0100
0010
0001
0100
0010
1000
0100
0010
0001
1000
0100
1000
0001
0010
0001
,  // measure 26
0100
0010
0100
0001
0010
0001
1000
0100
1000
0010
0100
0010
0100
0001
1000
0001
,  // measure 27
1000
0100
0010
0001
0010
0100
1000
0100
0010
0100
1000
0100
0010
0001
0010
0100
,  // measure 28
0010
0001
0010
0100
1000
0100
1000
0001
0010
0001
0100
0010
0100
0010
0100
0010
,  // measure 29
1000
0100
0010
0001
1000
0100
0010
0001
0100
0010
0100
0010
1000
0100
1000
0001
,  // measure 30
0010
0100
1000
0010
0100
0001
0010
0100
1000
0100
0010
0001
0010
0001
0010
0001
,  // measure 31
1000
0100
1000
0001
0010
0001
1000
0010
1000
0010
0100
0001
0100
0001
1000
0001
,  // measure 32
1000
0010
0100
0010
1000
0001
1000
0100
1000
0001
0100
0001
1000
0010
1000
0100
,  // measure 33
1000
0100
0010
0001
0100
0010
1000
0100
0010
0001
1000
0100
1000
0001
0010
0001
,  // measure 34
0100
0010
0100
0001
0010
0001
1000
0100
1000
0010
0100
0010
0100
0001
1000
0001
,  // measure 35
1000
0100
0010
0001
0010
0100
1000
0100
0010
0100
1000
0100
0010
0001
0010
0100
,  // measure 36
0010
0001
0010
0100
1000
0100
1000
0001
0010
0001
0100
0010
0100
0010
0100
0010
,  // measure 37
1000
0100
0010
0001
1000
0100
0010
0001
0100
0010
0100
0010
1000
0100
1000
0001
,  // measure 38
0010
0100
1000
0010
0100
0001
0010
0100
1000
0100
0010
0001
0010
0100
1000
0100
,  // measure 39
0022
0000
0000
0000
0000
0000
0000
0000
0000
0000
0000
0000
0000
0000
0000
0033
,  // measure 40
2200
0000
0000
0000
0000
0000
0000
0000
0000
0000
0000
0000
0000
0000
0000
3300
,  // measure 41
0022
0000
0000
0000
0000
0000
0000
0000
0000
0000
0000
0000
0000
0000
0000
0033
,  // measure 42
2200
0000
0000
0000
0000
0000
0000
0000
0000
0000
0000
0000
0000
0000
0000
3300
,  // measure 43
0110
1100
0011
0100
,  // measure 44
0010
0000
0000
0000
0000
0000
1001
0000
0000
0000
1000
0100
1000
0000
0000
0000
,  // measure 45
0110
0011
1100
0010
,  // measure 46
0100
0000
0000
0100
0000
0011
0101
1010
,  // measure 47
0110
0011
1100
0010
,  // measure 48
0100
0000
0000
0000
0000
0000
1001
0000
0000
0000
0001
0010
0001
0000
0000
0000
,  // measure 49
0110
0000
1100
1100
0000
0110
0000
0000
,  // measure 50
0110
0000
1100
1100
0000
0110
0000
0000
,  // measure 51
1001
0000
0011
0011
0000
1001
0000
0000
,  // measure 52
0000
1001
1001
1001
0000
0000
0000
0000
,  // measure 53
1100
0000
0000
0000
0100
0000
0000
0000
0010
0000
0000
0000
0001
1000
0001
0000
,  // measure 54
0000
0000
0000
0000
0000
1100
1100
0000
,  // measure 55
0110
0000
0110
0000
0011
0011
0000
1100
,  // measure 56
0000
0000
0000
0000
0000
0110
0110
0000
,  // measure 57
1100
0000
0000
0000
0100
0000
0000
0000
0010
0000
0000
0000
0001
1000
0001
0000
,  // measure 58
0000
0000
0000
0000
1100
0000
0000
0000
0001
1000
0001
0000
0000
0000
1001
0000
,  // measure 59
0000
0000
0000
0000
0010
0110
0100
1001
,  // measure 60
0000
0000
0110
0000
0001
0010
0100
1000
0100
0010
0001
0010
0100
1000
0100
1000
,  // measure 61
0110
0000
1100
0000
1100
0000
0001
0200
,  // measure 62
0000
0000
0000
0000
0300
1100
0110
0000
,  // measure 63
0110
0000
1000
0000
0001
0000
0010
0220
,  // measure 64
0000
0000
0000
0000
0330
1001
1001
0000
,  // measure 65
0011
0000
1100
0000
0110
0000
1001
1010
,  // measure 66
0101
0110
0000
0000
0000
0000
0110
0110
,  // measure 67
0220
0000
0330
0110
1100
0011
1010
0002
,  // measure 68
1000
1000
1000
1003
,  // measure 69
0000
0110
0110
0110
0000
0110
0110
0000
,  // measure 70
1000
0100
1000
0001
0010
0001
1000
0010
1000
0010
0100
0001
0100
0001
1000
0001
,  // measure 71
1000
0010
0100
0010
1000
0001
1000
0100
1000
0001
0100
0001
1000
0010
1000
0100
,  // measure 72
1000
0100
0010
0001
0100
0010
1000
0100
0010
0001
1000
0100
1000
0001
0010
0001
,  // measure 73
0100
0010
0100
0001
0010
0001
1000
0100
1000
0010
0100
0010
0100
0001
1000
0001
,  // measure 74
1000
0100
0010
0001
0010
0100
1000
0100
0010
0100
1000
0100
0010
0001
0010
0100
,  // measure 75
0010
0001
0010
0100
1000
0100
1000
0001
0010
0001
0100
0010
0100
0010
0100
0010
,  // measure 76
1000
0100
0010
0001
1000
0100
0010
0001
0100
0010
0100
0010
1000
0100
1000
0001
,  // measure 77
0010
0100
1000
0010
0100
0001
0010
0100
1000
0100
0010
0001
0010
0001
0010
0001
,  // measure 78
1000
0100
1000
0001
0010
0001
1000
0010
1000
0010
0100
0001
0100
0001
1000
0001
,  // measure 79
1000
0010
0100
0010
1000
0001
1000
0100
1000
0001
0100
0001
1000
0010
1000
0100
,  // measure 80
1000
0100
0010
0001
0100
0010
1000
0100
0010
0001
1000
0100
1000
0001
0010
0001
,  // measure 81
0100
0010
0100
0001
0010
0001
1000
0100
1000
0010
0100
0010
0100
0001
1000
0001
,  // measure 82
1000
0100
0010
0001
0010
0100
1000
0100
0010
0100
1000
0100
0010
0001
0010
0100
,  // measure 83
0010
0001
0010
0100
1000
0100
1000
0001
0010
0001
0100
0010
0100
0010
0100
0010
,  // measure 84
1000
0100
0010
0001
1000
0100
0010
0001
0100
0010
0100
0010
1000
0100
1000
0001
,  // measure 85
0010
0100
1000
0010
0100
0001
0010
0100
1000
0100
0010
0001
0010
0100
1000
0100
,  // measure 86
0022
0000
0000
0000
0000
0000
0000
0000
0000
0000
0000
0000
0000
0000
0000
0033
,  // measure 87
0000
1100
1100
1100
0000
0110
0110
0000
,  // measure 88
1000
0100
1000
0001
0010
0001
1000
0010
1000
0010
0100
0001
0100
0001
1000
0001
,  // measure 89
1000
0010
0100
0010
1000
0001
1000
0100
1000
0001
0100
0001
1000
0010
1000
0100
,  // measure 90
1000
0100
0010
0001
0100
0010
1000
0100
0010
0001
1000
0100
1000
0001
0010
0001
,  // measure 91
0100
0010
0100
0001
0010
0001
1000
0100
1000
0010
0100
0010
0100
0001
1000
0001
,  // measure 92
1000
0100
0010
0001
0010
0100
1000
0100
0010
0100
1000
0100
0010
0001
0010
0100
,  // measure 93
0010
0001
0010
0100
1000
0100
1000
0001
0010
0001
0100
0010
0100
0010
0100
0010
,  // measure 94
1000
0100
0010
0001
1000
0100
0010
0001
0100
0010
0100
0010
1000
0100
1000
0001
,  // measure 95
0010
0100
1000
0010
0100
0001
0010
0100
1000
0100
0010
0001
0010
0001
0010
0001
,  // measure 96
1000
0100
1000
0001
0010
0001
1000
0010
1000
0010
0100
0001
0100
0001
1000
0001
,  // measure 97
1000
0010
0100
0010
1000
0001
1000
0100
1000
0001
0100
0001
1000
0010
1000
0100
,  // measure 98
1000
0100
0010
0001
0100
0010
1000
0100
0010
0001
1000
0100
1000
0001
0010
0001
,  // measure 99
0100
0010
0100
0001
0010
0001
1000
0100
1000
0010
0100
0010
0100
0001
1000
0001
,  // measure 100
1000
0100
0010
0001
0010
0100
1000
0100
0010
0100
1000
0100
0010
0001
0010
0100
,  // measure 101
0010
0001
0010
0100
1000
0100
1000
0001
0010
0001
0100
0010
0100
0010
0100
0010
,  // measure 102
1000
0100
0010
0001
1000
0100
0010
0001
0100
0010
0100
0010
1000
0100
1000
0001
,  // measure 103
0010
0100
1000
0010
0100
0001
0010
0100
1000
0100
0010
0001
0010
0100
1000
0100
,  // measure 104
2002
0000
0000
0000
,  // measure 105
0000
0000
0000
0000
0000
0000
0000
3003
,  // measure 106
1001
1100
0011
0110
1010
0101
0110
1001
;
