#TITLE:Cyber Peacock(Megaman X4);
#SUBTITLE:;
#ARTIST:Capcom Sound Team;
#TITLETRANSLIT:;
#SUBTITLETRANSLIT:;
#ARTISTTRANSLIT:;
#CREDIT:Megaman X4(Capaom);
#BANNER:Cyber Peacock-banner.jpg;
#BACKGROUND:Cyber Peacock-bg.jpg;
#LYRICSPATH:;
#CDTITLE:PhoenixW-cdtitle.JPG;
#MUSIC:09 - X4 - CYBER KUJACKER STAGE.mp3;
#OFFSET:-0.773;
#SAMPLESTART:36.068;
#SAMPLELENGTH:12.000;
#SELECTABLE:YES;
#BPMS:0.000=169.997;
#STOPS:;
#BGCHANGES:;
// cache tags:
#FIRSTBEAT:7.500;
#LASTBEAT:410.000;
#SONGFILENAME:Songs/keyboard/09 - X4 - CYBER KUJACKER STAGE/09 - X4 - CYBER KUJACKER STAGE.sm;
#HASMUSIC:1;
#HASBANNER:1;
#MUSICLENGTH:152.092;
// end cache tags

//---------------dance-single - ----------------
#NOTES:
     dance-single:
     :
     Challenge:
     10:
     0.760,1.000,1.000,0.697,0.533,536.000,167.000,106.000,0.000,33.000:
0000
0000
0000
0000
,
0000
0000
0000
0000
0000
0000
0000
0000
0000
0000
0000
0000
0000
0000
1000
0100
,
0010
0001
1000
0010
0100
0001
1000
0100
0001
0010
0100
1000
0010
0001
1000
0100
,
0010
0001
1000
0010
0100
0001
1000
0010
0100
0001
1000
0100
0010
0001
0100
1000
,
0001
0100
0010
1000
0100
0001
1000
0100
0010
0001
0000
0000
1000
0100
1000
0100
,
1000
0010
0100
0001
0010
0100
1000
0010
0001
0100
0001
0000
0000
0000
0001
0010
,
0100
1000
0001
0100
0010
1000
0001
0010
1000
0100
0010
0001
0100
1000
0001
0010
,
0100
1000
0001
0100
0010
1000
0001
0100
0010
1000
0001
0010
0100
1000
0010
0001
,
1000
0010
0100
0001
0010
1000
0001
0010
0100
1000
0000
0000
0001
0010
0001
0010
,
0001
0100
0010
1000
0100
0010
0001
0100
1000
0010
1000
0000
0000
0000
1000
0001
,
0010
0100
1000
0000
0001
0010
1000
0010
0100
1000
0010
0100
0001
0010
0100
0000
,
1010
1001
0110
0101
,
0000
0000
1001
0000
0000
0000
0000
1001
0000
1001
0000
0000
0000
0000
0000
0000
,
1100
0110
1001
0011
,
0000
0000
1001
0000
0000
0000
0000
0110
0000
0110
0000
0000
0000
0000
0000
0000
,
1010
0011
0101
1100
,
0000
1001
0000
0000
0110
0110
0000
0000
,
0000
0000
0000
0000
0100
1001
0000
0000
,
0000
0000
0000
1001
1001
0000
0000
0000
,
2000
0000
0000
0000
3010
0100
0002
0000
,
0000
0203
0000
0000
0000
0000
0320
0000
,
0000
2030
0000
0000
3001
0010
0200
0000
,
0000
2300
0000
0000
0000
0000
0000
0000
,
3002
0000
0000
1003
0001
0200
0000
0000
,
2300
0000
0000
3200
,
0000
0000
0302
0000
1000
0000
0000
0000
0000
0000
0000
0010
0000
0000
0000
0100
,
0000
0000
0000
1000
0000
0000
0000
0013
0000
0000
0000
0000
0000
0000
0000
0000
,
0101
0011
0101
0011
,
0000
0000
1001
0000
0000
0110
0000
0110
0000
0000
0000
0000
0000
0000
0000
0000
,
1100
1010
1100
1010
,
0000
0000
0110
0000
0000
1001
0000
1001
0000
0000
0000
0000
0000
0000
0000
0011
,
0000
0000
0000
1010
0000
0000
0000
1100
0000
0000
0000
0101
0000
0000
0000
0000
,
0000
1001
0000
0000
0000
0000
1001
0000
0110
0000
0000
0000
0000
0000
0000
0000
,
0000
0000
0000
0000
0100
1001
0000
0000
,
0000
0000
0000
0000
0000
0110
0000
0110
0000
0000
0000
0000
0000
0000
0000
0000
,
0020
0000
0000
1030
0100
0002
0000
0000
,
0023
0000
0000
0000
0000
0230
0000
0000
,
2300
0000
0000
3001
0100
0020
0000
0000
,
0032
0000
0000
0000
0000
0000
0000
2003
,
0000
0000
0000
3100
0010
0002
0000
0000
,
2003
0000
0000
0000
0000
3200
0000
0000
,
0320
0100
0000
0000
0000
0001
0000
0100
,
0000
1000
0000
0130
0000
1001
0000
0000
,
0000
0001
0000
0000
0000
1000
0000
0100
,
0000
0000
0001
0000
0000
0000
0010
0000
0000
0000
0001
0000
1100
0000
0000
0110
,
0000
0000
0011
0000
2002
0000
0000
0000
3203
0000
0000
0000
0000
0300
0110
0000
,
0000
1010
2200
0000
3300
0120
0000
0132
,
0000
2013
0000
3110
2002
0000
0000
3113
,
0000
1000
0100
0010
0001
1010
0000
1001
,
0000
0000
0101
0000
2002
0000
0000
0000
3003
0110
0000
0000
0000
0000
1010
0000
,
0000
0101
2200
0000
0000
3301
0010
0100
,
1001
0000
1001
0000
0100
0020
0000
0000
,
0000
0000
0000
0000
0000
0000
0000
0000
0000
0000
0030
0101
0000
0000
1001
0000
,
0000
1100
0220
0000
0332
0000
0000
1013
,
0000
1001
0022
0000
0033
2010
0000
3120
,
0000
0231
0000
1301
2200
0000
0000
3311
,
0000
2000
0000
3020
0000
0132
0000
0213
,
0000
1301
2020
0000
0000
3131
0000
0110
,
0000
1100
0011
0000
2002
0000
0000
0000
,
0000
0000
0000
0000
3003
0010
0000
0000
0220
0000
0000
0000
0000
0000
0000
0000
,
0000
0000
0000
0000
0000
0000
0000
0000
0330
0000
1000
0010
0100
0001
1000
0100
,
0010
0001
0100
1000
0001
0010
0100
1000
0010
0001
1000
0010
0100
0001
0010
0100
,
1000
0001
0100
0010
1000
0001
0100
1000
0010
0100
0001
0010
0100
1000
0010
0001
,
0100
0010
1000
0100
0010
0001
1000
0000
0001
0010
0001
0010
0001
1000
0100
0010
,
0001
0100
0010
1000
0001
0100
0010
1000
0100
0001
0100
0000
0000
0000
0010
0001
,
1000
0010
0100
0001
1000
0100
0001
0010
1000
0001
0010
0100
1000
0010
0100
0001
,
1000
0100
0010
0001
1000
0010
0001
1000
0100
0010
0001
0100
0010
1000
0001
0100
,
1000
0001
0010
0100
1000
0000
0010
1000
0010
1000
0010
0100
0001
0010
0100
1000
,
0010
0100
0001
0010
0100
1000
0010
0000
0100
0001
0100
0000
0000
0000
1010
0000
,
0000
1100
0000
1010
0000
1100
0000
0000
,
1001
0000
0000
0110
0000
0110
0000
0000
0000
0000
0000
0000
0000
0000
0011
0000
,
0000
0101
0000
0011
0000
0101
0000
0000
,
0110
0000
0000
1001
0000
1001
0000
0000
0000
0000
0000
0000
0000
1100
0000
0000
,
0000
0101
0000
0000
0000
0011
0000
0000
0000
1010
0000
0000
0000
0000
0000
1001
,
0000
0000
1001
0110
0000
0000
0000
0000
,
0000
0000
0000
0010
1001
0000
0000
0000
,
0000
0000
0000
0110
0000
0110
0000
0000
0000
0000
0000
0000
0000
0000
0200
0000
,
0000
0000
0301
0010
2000
0000
0000
3200
,
0000
0000
0000
0000
0320
0000
0000
0032
,
0000
0000
1003
0010
0200
0000
0000
2300
,
0000
0000
0000
3002
,
0000
0000
0013
0100
2000
0000
0000
3002
,
0000
0000
0000
0000
0023
0000
0000
0230
,
0010
0000
1000
0010
,
0001
0310
1001
0000
,
1000
0000
0001
0010
,
1000
0000
0000
0000
0100
0000
0000
0000
1000
0000
0011
0000
0000
0110
0000
0000
,
1100
0000
2002
0000
0000
0000
3023
0000
0000
0000
0000
0030
0110
0000
0000
0000
,
0101
0022
0000
0033
0210
0000
2310
0000
,
3102
0000
0113
2002
0000
0000
3113
0000
,
0001
0010
0100
1000
0101
0000
1001
0000
,
1010
0000
2002
0000
0000
0000
3003
0110
0000
0000
0000
0000
0101
0000
0000
0000
,
1010
0022
0000
0000
1033
0100
0010
1001
,
0000
1001
0000
0010
0200
0000
0000
0000
,
0000
0000
0000
0000
0000
0000
0000
0000
0300
1010
0000
0000
1001
0000
0000
0000
,
0011
0220
0000
2330
0000
0000
3101
0000
,
1001
2200
0000
3300
0102
0000
0213
0000
,
1320
0000
1031
0022
0000
0000
1133
0000
,
0002
0203
2310
3120
,
1031
0202
0000
0000
1313
0000
0110
0000
,
0011
1100
0000
2002
0000
0000
0000
0000
,
0000
0000
3003
0100
0000
0000
0220
0000
0000
0000
0000
0000
0000
0000
0000
0000
,
0000
0000
1331
0000
;

//---------------dance-single - Copied from----------------
#NOTES:
     dance-single:
     Copied from:
     Hard:
     10:
     0.722,1.000,1.000,0.697,0.398,496.000,167.000,106.000,0.000,33.000:
0000
0000
0000
0000
,
0000
0000
0000
0000
0000
0000
0000
0000
0000
0000
0000
0000
0000
0000
1000
0100
,
0010
0001
1000
0010
0100
0001
1000
0100
0001
0010
0100
1000
0010
0001
1000
0100
,
0010
0001
1000
0010
0100
0001
1000
0010
0100
0001
1000
0100
0010
0001
0100
1000
,
0001
0100
0010
1000
0100
0001
1000
0100
0010
0001
0000
0000
1000
0100
1000
0100
,
1000
0010
0100
0001
0010
0100
1000
0010
0001
0100
0001
0000
0000
0000
0001
0010
,
0100
1000
0001
0100
0010
1000
0001
0010
1000
0100
0010
0001
0100
1000
0001
0010
,
0100
1000
0001
0100
0010
1000
0001
0100
0010
1000
0001
0010
0100
1000
0010
0001
,
1000
0010
0100
0001
0010
1000
0001
0010
0100
1000
0000
0000
0001
0010
0001
0010
,
0001
0100
0010
1000
0100
0010
0001
0100
1000
0010
1000
0000
0000
0000
1000
0001
,
0010
0100
1000
0000
0001
0010
1000
0010
0100
1000
0010
0100
0001
0010
0100
0000
,
1010
1001
0110
0101
,
0000
0000
1001
0000
0000
0000
0000
1001
0000
1001
0000
0000
0000
0000
0000
0000
,
1100
0110
1001
0011
,
0000
0000
1001
0000
0000
0000
0000
0110
0000
0110
0000
0000
0000
0000
0000
0000
,
1010
0011
0101
1100
,
0000
1001
0000
0000
0110
0110
0000
0000
,
0000
0000
0000
0000
0100
1001
0000
0000
,
0000
0000
0000
1001
1001
0000
0000
0000
,
2000
0000
0000
0000
3010
0100
0002
0000
,
0000
0203
0000
0000
0000
0000
0320
0000
,
0000
2030
0000
0000
3001
0010
0200
0000
,
0000
2300
0000
0000
0000
0000
0000
0000
,
3002
0000
0000
1003
0001
0200
0000
0000
,
2300
0000
0000
3200
,
0000
0000
0302
0000
1000
0000
0000
0000
0000
0000
0000
0010
0000
0000
0000
0100
,
0000
0000
0000
1000
0000
0000
0000
0013
0000
0000
0000
0000
0000
0000
0000
0000
,
0101
0011
0101
0011
,
0000
0000
1001
0000
0000
0110
0000
0110
0000
0000
0000
0000
0000
0000
0000
0000
,
1100
1010
1100
1010
,
0000
0000
0110
0000
0000
1001
0000
1001
0000
0000
0000
0000
0000
0000
0000
0011
,
0000
0000
0000
1010
0000
0000
0000
1100
0000
0000
0000
0101
0000
0000
0000
0000
,
0000
1001
0000
0000
0000
0000
1001
0000
0110
0000
0000
0000
0000
0000
0000
0000
,
0000
0000
0000
0000
0100
1001
0000
0000
,
0000
0000
0000
0000
0000
0110
0000
0110
0000
0000
0000
0000
0000
0000
0000
0000
,
0020
0000
0000
1030
0100
0002
0000
0000
,
0023
0000
0000
0000
0000
0230
0000
0000
,
2300
0000
0000
3001
0100
0020
0000
0000
,
0032
0000
0000
0000
0000
0000
0000
2003
,
0000
0000
0000
3100
0010
0002
0000
0000
,
2003
0000
0000
0000
0000
3200
0000
0000
,
0320
0100
0000
0000
0000
0001
0000
0100
,
0000
1000
0000
0130
0000
1001
0000
0000
,
0000
0001
0000
0000
0000
1000
0000
0100
,
0000
0000
0001
0000
0000
0000
0010
0000
0000
0000
0001
0000
1100
0000
0000
0110
,
0000
0000
0011
0000
2002
0000
0000
0000
3203
0000
0000
0000
0000
0300
0110
0000
,
0000
1010
2200
0000
3300
0120
0000
0132
,
0000
2013
0000
3110
2002
0000
0000
3113
,
0000
1000
0100
0010
0001
1010
0000
1001
,
0000
0000
0101
0000
2002
0000
0000
0000
3003
0110
0000
0000
0000
0000
1010
0000
,
0000
0101
2200
0000
0000
3301
0010
0100
,
1001
0000
1001
0000
0100
0020
0000
0000
,
0000
0000
0000
0000
0000
0000
0000
0000
0000
0000
0030
0101
0000
0000
1001
0000
,
0000
1100
0220
0000
0332
0000
0000
1013
,
0000
1001
0022
0000
0033
2010
0000
3120
,
0000
0231
0000
1301
2200
0000
0000
3311
,
0000
2000
0000
3020
0000
0132
0000
0213
,
0000
1301
2020
0000
0000
3131
0000
0110
,
0000
1100
0011
0000
2002
0000
0000
0000
,
0000
0000
0000
0000
3003
0010
0000
0000
0220
0000
0000
0000
0000
0000
0000
0000
,
0000
0000
0000
0000
0330
1000
0100
1000
,
0100
1000
0100
0010
0001
0100
0010
1000
,
0010
1000
0010
1000
0100
0010
0001
1000
,
0001
0000
0100
0000
1000
0000
0100
0000
0001
0010
0001
0010
0001
1000
0100
0010
,
0001
0100
0010
1000
0001
0100
0010
1000
0100
0001
0100
0000
0010
0000
0001
0000
,
0010
0100
1000
0100
0010
0001
1000
0100
,
0010
0100
1000
0100
0010
0001
0100
0010
,
0100
0000
1000
0000
0100
0000
0010
1000
0010
1000
0010
0100
0001
0010
0100
1000
,
0010
0100
0001
0010
0100
1000
0010
0000
0100
0001
0100
0000
0000
0000
1010
0000
,
0000
1100
0000
1010
0000
1100
0000
0000
,
1001
0000
0000
0110
0000
0110
0000
0000
0000
0000
0000
0000
0000
0000
0011
0000
,
0000
0101
0000
0011
0000
0101
0000
0000
,
0110
0000
0000
1001
0000
1001
0000
0000
0000
0000
0000
0000
0000
1100
0000
0000
,
0000
0101
0000
0000
0000
0011
0000
0000
0000
1010
0000
0000
0000
0000
0000
1001
,
0000
0000
1001
0110
0000
0000
0000
0000
,
0000
0000
0000
0010
1001
0000
0000
0000
,
0000
0000
0000
0110
0000
0110
0000
0000
0000
0000
0000
0000
0000
0000
0200
0000
,
0000
0000
0301
0010
2000
0000
0000
3200
,
0000
0000
0000
0000
0320
0000
0000
0032
,
0000
0000
1003
0010
0200
0000
0000
2300
,
0000
0000
0000
3002
,
0000
0000
0013
0100
2000
0000
0000
3002
,
0000
0000
0000
0000
0023
0000
0000
0230
,
0010
0000
1000
0010
,
0001
0310
1001
0000
,
1000
0000
0001
0010
,
1000
0000
0000
0000
0100
0000
0000
0000
1000
0000
0011
0000
0000
0110
0000
0000
,
1100
0000
2002
0000
0000
0000
3023
0000
0000
0000
0000
0030
0110
0000
0000
0000
,
0101
0022
0000
0033
0210
0000
2310
0000
,
3102
0000
0113
2002
0000
0000
3113
0000
,
0001
0010
0100
1000
0101
0000
1001
0000
,
1010
0000
2002
0000
0000
0000
3003
0110
0000
0000
0000
0000
0101
0000
0000
0000
,
1010
0022
0000
0000
1033
0100
0010
1001
,
0000
1001
0000
0010
0200
0000
0000
0000
,
0000
0000
0000
0000
0000
0000
0000
0000
0300
1010
0000
0000
1001
0000
0000
0000
,
0011
0220
0000
2330
0000
0000
3101
0000
,
1001
2200
0000
3300
0102
0000
0213
0000
,
1320
0000
1031
0022
0000
0000
1133
0000
,
0002
0203
2310
3120
,
1031
0202
0000
0000
1313
0000
0110
0000
,
0011
1100
0000
2002
0000
0000
0000
0000
,
0000
0000
3003
0100
0000
0000
0220
0000
0000
0000
0000
0000
0000
0000
0000
0000
,
0000
0000
1331
0000
;

//---------------dance-single - Copied from Copied f----------------
#NOTES:
     dance-single:
     Copied from Copied f:
     Medium:
     8:
     0.627,0.809,0.848,0.697,0.171,432.000,129.000,106.000,0.000,17.000:
0000
0000
0000
0000
,
0000
0000
0000
0000
0000
0000
0000
1000
,
0001
1000
0001
1000
0001
0010
0100
1000
,
0001
1000
0001
1000
0001
0100
0010
1000
,
0100
0000
1000
0000
0001
0000
0010
0000
0001
0000
1000
0000
0001
0010
0001
0010
,
0001
0100
0010
1000
0100
0010
0001
0100
1000
0010
1000
0000
0100
0000
0010
0000
,
0100
0010
0100
0010
0001
1000
0010
0100
,
0010
0100
0010
0100
1000
0010
0100
0001
,
0100
0000
0010
0000
1000
0000
0010
0000
0100
0000
0001
0000
1000
0100
1000
0100
,
1000
0010
0100
0001
0010
0100
1000
0010
0001
0100
0001
0000
1000
0000
0100
0000
,
0001
0100
1000
0010
0100
0001
1000
0100
,
1010
1001
0110
0101
,
0000
0000
1001
0000
0000
0000
0000
0100
0000
0100
0000
0000
0000
0000
0000
0000
,
1100
0110
1001
0011
,
0000
0000
1001
0000
0000
0000
0000
0010
0000
0010
0000
0000
0000
0000
0000
0000
,
1010
0011
0101
1100
,
0000
1001
0000
0000
0110
0110
0000
0000
,
0000
0000
0000
0000
0100
1001
0000
0000
,
0000
0000
0000
0001
0001
0000
0000
0000
,
2000
0000
0000
0000
3010
0100
0002
0000
,
0000
0203
0000
0000
0000
0000
0320
0000
,
0000
2030
0000
0000
3001
0010
0200
0000
,
0000
2300
0000
0000
0000
0000
0000
0000
,
3002
0000
0000
1003
0001
0200
0000
0000
,
2300
0000
0000
3200
,
0000
0000
0302
0000
1000
0000
0000
0000
0000
0000
0000
0010
0000
0000
0000
0100
,
0000
0000
0000
1000
0000
0000
0000
0013
0000
0000
0000
0000
0000
0000
0000
0000
,
0101
0011
0101
0011
,
0000
0000
1001
0000
0000
0010
0000
0010
0000
0000
0000
0000
0000
0000
0000
0000
,
1100
1010
1100
1010
,
0000
0000
0110
0000
0000
0001
0000
0001
0000
0000
0000
0000
0000
0000
0000
0011
,
0000
0000
0000
1010
0000
0000
0000
1100
0000
0000
0000
0101
0000
0000
0000
0000
,
0000
1001
0000
0000
0000
0000
1001
0000
0110
0000
0000
0000
0000
0000
0000
0000
,
0000
0000
0000
0000
0100
1001
0000
0000
,
0000
0000
0000
0000
0000
1000
0000
1000
0000
0000
0000
0000
0000
0000
0000
0000
,
0200
0000
0000
0310
0100
0002
0000
0000
,
0023
0000
0000
0000
0000
0230
0000
0000
,
2300
0000
0000
3001
0100
0020
0000
0000
,
0032
0000
0000
0000
0000
0000
0000
2003
,
0000
0000
0000
3100
0010
0002
0000
0000
,
2003
0000
0000
0000
0000
3200
0000
0000
,
0320
0100
0000
0000
0000
0001
0000
0100
,
0000
1000
0000
0130
0000
1001
0000
0000
,
0000
0001
0000
0000
0000
1000
0000
0100
,
0000
0000
0001
0000
0000
0000
0010
0000
0000
0000
0001
0000
1100
0000
0000
0110
,
0000
0000
0011
0000
2002
0000
0000
0000
3203
0000
0000
0000
0000
0300
0110
0000
,
0000
1010
2200
0000
3300
0020
0000
0032
,
0000
2003
0000
3010
2002
0000
0000
3113
,
0000
1000
0100
0010
0001
1010
0000
1001
,
0000
0000
0101
0000
2002
0000
0000
0000
3003
0110
0000
0000
0000
0000
1010
0000
,
0000
0101
2200
0000
0000
3301
0010
0100
,
1001
0000
1001
0000
0100
0020
0000
0000
,
0000
0000
0000
0000
0000
0000
0000
0000
0000
0000
0030
0101
0000
0000
1001
0000
,
0000
1100
0220
0000
0332
0000
0000
1013
,
0000
1001
0022
0000
0033
2000
0000
3020
,
0000
0230
0000
0301
2200
0000
0000
3311
,
0000
2000
0000
3020
0000
0032
0000
0203
,
0000
1301
2020
0000
0000
3131
0000
0110
,
0000
1100
0011
0000
2002
0000
0000
0000
,
0000
0000
0000
0000
3003
0010
0000
0000
0220
0000
0000
0000
0000
0000
0000
0000
,
0000
0000
0000
0000
0330
1000
0100
1000
,
0100
1000
0100
0010
0001
0100
0010
1000
,
0010
1000
0010
1000
0100
0010
0001
1000
,
0001
0100
1000
0100
0001
1000
0010
0100
,
0010
0100
0010
0100
0001
1000
0010
0001
,
0010
0100
1000
0100
0010
0001
1000
0100
,
0010
0100
1000
0100
0010
0001
0100
0010
,
0100
1000
0100
0010
0001
1000
0100
0010
,
0100
0001
0100
1000
0010
0100
0001
1010
,
0000
1100
0000
1010
0000
1100
0000
0000
,
1001
0000
0000
0010
0000
0010
0000
0000
0000
0000
0000
0000
0000
0000
0011
0000
,
0000
0101
0000
0011
0000
0101
0000
0000
,
0110
0000
0000
1000
0000
1000
0000
0000
0000
0000
0000
0000
0000
1100
0000
0000
,
0000
0101
0000
0000
0000
0011
0000
0000
0000
1010
0000
0000
0000
0000
0000
1001
,
0000
0000
1001
0110
0000
0000
0000
0000
,
0000
0000
0000
0010
1001
0000
0000
0000
,
0000
0000
0000
0100
0000
0100
0000
0000
0000
0000
0000
0000
0000
0000
0020
0000
,
0000
0000
0130
0010
2000
0000
0000
3200
,
0000
0000
0000
0000
0320
0000
0000
0032
,
0000
0000
1003
0010
0200
0000
0000
2300
,
0000
0000
0000
3002
,
0000
0000
0013
0100
2000
0000
0000
3002
,
0000
0000
0000
0000
0023
0000
0000
0230
,
0010
0000
1000
0010
,
0001
0310
1001
0000
,
1000
0000
0001
0010
,
1000
0000
0000
0000
0100
0000
0000
0000
1000
0000
0011
0000
0000
0110
0000
0000
,
1100
0000
2002
0000
0000
0000
3023
0000
0000
0000
0000
0030
0110
0000
0000
0000
,
0101
0022
0000
0033
0200
0000
2300
0000
,
3002
0000
0013
2002
0000
0000
3113
0000
,
0001
0010
0100
1000
0101
0000
1001
0000
,
1010
0000
2002
0000
0000
0000
3003
0110
0000
0000
0000
0000
0101
0000
0000
0000
,
1010
0022
0000
0000
1033
0100
0010
1001
,
0000
1001
0000
0010
0200
0000
0000
0000
,
0000
0000
0000
0000
0000
0000
0000
0000
0300
1010
0000
0000
1001
0000
0000
0000
,
0011
0220
0000
2330
0000
0000
3101
0000
,
1001
2200
0000
3300
0002
0000
0203
0000
,
0320
0000
1030
0022
0000
0000
1133
0000
,
0002
0203
2300
3020
,
1031
0202
0000
0000
1313
0000
0110
0000
,
0011
1100
0000
2002
0000
0000
0000
0000
,
0000
0000
3003
0100
0000
0000
0220
0000
0000
0000
0000
0000
0000
0000
0000
0000
,
0000
0000
1331
0000
;

//---------------dance-single - Copied from Copied f----------------
#NOTES:
     dance-single:
     Copied from Copied f:
     Easy:
     6:
     0.527,0.639,0.644,0.697,0.125,357.000,98.000,106.000,0.000,15.000:
0000
0000
0000
0000
,
0000
0000
0000
0000
0000
0000
0000
1000
,
0000
1000
0000
1000
0000
0010
0000
0100
,
0000
0100
0000
0100
0000
0001
0000
1000
,
0000
0010
0000
1000
0000
0001
1000
0100
,
1000
0010
1000
0001
1000
0100
0000
0010
,
0000
0010
0000
0010
0000
1000
0000
0100
,
0000
0100
0000
0100
0000
0010
0000
0001
,
0000
1000
0000
0001
0000
0100
0010
1000
,
0100
0010
0001
0100
0010
1000
0000
0100
,
0000
0010
0000
0100
0000
1000
0000
0001
,
1001
1001
0110
0110
,
0000
0000
1001
0000
0000
0000
0000
0100
0000
0100
0000
0000
0000
0000
0000
0000
,
1100
0110
1001
0011
,
0000
0000
1001
0000
0000
0000
0000
0010
0000
0010
0000
0000
0000
0000
0000
0000
,
1010
0011
0101
1100
,
0000
1001
0000
0000
0100
0110
0000
0000
,
0000
0000
0000
0000
1000
1001
0000
0000
,
0000
0000
0000
0001
0001
0000
0000
0000
,
2000
0000
0000
0000
3010
0100
0002
0000
,
0000
0203
0000
0000
0000
0000
0320
0000
,
0000
2030
0000
0000
3001
0010
0200
0000
,
0000
2300
0000
0000
0000
0000
0000
0000
,
3002
0000
0000
1003
0001
0200
0000
0000
,
2300
0000
0000
3200
,
0000
0000
0302
0000
1000
0000
0000
0000
0000
0000
0000
0010
0000
0000
0000
0100
,
0000
0000
0000
1000
0000
0000
0000
0013
0000
0000
0000
0000
0000
0000
0000
0000
,
0101
0101
0011
0011
,
0000
0000
1001
0000
0000
0010
0000
0010
0000
0000
0000
0000
0000
0000
0000
0000
,
1100
1100
1010
1010
,
0000
0000
0110
0000
0000
0001
0000
0001
0000
0000
0000
0000
0000
0000
0000
0011
,
0000
0000
0000
1010
0000
0000
0000
1100
0000
0000
0000
0101
0000
0000
0000
0000
,
0000
1001
0000
0000
0000
0000
0001
0000
0110
0000
0000
0000
0000
0000
0000
0000
,
0000
0000
0000
0000
0100
1001
0000
0000
,
0000
0000
0000
0000
0000
1000
0000
1000
0000
0000
0000
0000
0000
0000
0000
0000
,
0200
0000
0000
0310
0100
0002
0000
0000
,
0023
0000
0000
0000
0000
0230
0000
0000
,
2300
0000
0000
3100
0010
0002
0000
0000
,
0203
0000
0000
0000
0000
0000
0300
2000
,
0000
0000
0000
3100
0010
0002
0000
0000
,
2003
0000
0000
0000
0000
3200
0000
0000
,
0320
0100
0000
0000
0000
0001
0000
0100
,
0000
1000
0000
0130
0000
1001
0000
0000
,
0000
0001
0000
0000
0000
1000
0000
0100
,
0000
0000
0001
0000
0000
0000
0010
0000
0000
0000
0001
0000
0001
0000
0000
0110
,
0000
0000
1000
0000
2002
0000
0000
0000
3023
0000
0000
0000
0000
0030
0100
0000
,
0000
0001
0022
0000
0033
0200
0000
2300
,
0000
3002
0000
0103
2002
0000
0000
3103
,
0000
0001
0010
0100
1000
0001
0000
1001
,
0000
0000
1000
0000
2002
0000
0000
0000
3003
0110
0000
0000
0000
0000
0101
0000
,
0000
1000
0022
0000
0000
1033
0100
0010
,
1001
0000
1001
0000
0010
0200
0000
0000
,
0000
0000
0000
0000
0000
0000
0000
0000
0000
0000
0300
1000
0000
0000
1001
0000
,
0000
0001
0220
0000
2330
0000
0000
3001
,
0000
1000
2200
0000
3300
0002
0000
0203
,
0000
0320
0000
1030
0022
0000
0000
0133
,
0000
0002
0000
0203
0000
2300
0000
3020
,
0000
1031
0202
0000
0000
0313
0000
0110
,
0000
0011
1100
0000
2002
0000
0000
0000
,
0000
0000
0000
0000
3003
0100
0000
0000
0220
0000
0000
0000
0000
0000
0000
0000
,
0000
0000
0000
0000
0330
1000
0000
0100
,
0000
1000
0000
0010
0000
0100
0000
0001
,
0000
0100
0000
0010
0000
1000
0000
0100
,
0000
0010
0000
0100
0000
1000
0000
0001
,
0000
0100
0000
0010
0000
1000
0000
0001
,
0000
0100
0000
0100
0000
0010
0000
0100
,
0000
0100
0000
0001
0000
1000
0000
0010
,
0000
1000
0000
0100
0000
0010
0000
0001
,
0000
0001
0000
1000
0000
1000
0000
0101
,
0000
0101
0000
0011
0000
0011
0000
0000
,
1001
0000
0000
0010
0000
0010
0000
0000
0000
0000
0000
0000
0000
0000
1100
0000
,
0000
1100
0000
1010
0000
1010
0000
0000
,
0110
0000
0000
1000
0000
1000
0000
0000
0000
0000
0000
0000
0000
1100
0000
0000
,
0000
0101
0000
0000
0000
0011
0000
0000
0000
1010
0000
0000
0000
0000
0000
1001
,
0000
0000
1000
0110
0000
0000
0000
0000
,
0000
0000
0000
0010
1001
0000
0000
0000
,
0000
0000
0000
0100
0000
0100
0000
0000
0000
0000
0000
0000
0000
0000
0020
0000
,
0000
0000
0130
0010
2000
0000
0000
3200
,
0000
0000
0000
0000
0320
0000
0000
0032
,
0000
0000
1003
0010
0200
0000
0000
0320
,
0000
0000
0000
0000
0000
0030
0002
0000
,
0000
0000
0013
0100
2000
0000
0000
3002
,
0000
0000
0000
0000
0023
0000
0000
0230
,
0010
0000
1000
0010
,
0001
0310
1001
0000
,
0001
0000
1000
0100
,
0001
0000
0000
0000
0010
0000
0000
0000
0001
0000
1000
0000
0000
0110
0000
0000
,
0001
0000
2002
0000
0000
0000
3203
0000
0000
0000
0000
0300
0010
0000
0000
0000
,
1000
2200
0000
3300
0020
0000
0032
0000
,
2003
0000
3010
2002
0000
0000
3013
0000
,
1000
0100
0010
0001
1000
0000
1001
0000
,
0001
0000
2002
0000
0000
0000
3003
0110
0000
0000
0000
0000
1010
0000
0000
0000
,
0001
2200
0000
0000
3301
0010
0100
1001
,
0000
1001
0000
0100
0020
0000
0000
0000
,
0000
0000
0000
0000
0000
0000
0000
0000
0030
0001
0000
0000
1001
0000
0000
0000
,
1000
0220
0000
0332
0000
0000
1003
0000
,
0001
0022
0000
0033
2000
0000
3020
0000
,
0230
0000
0301
2200
0000
0000
3310
0000
,
2000
3020
0032
0203
,
1301
2020
0000
0000
3130
0000
0110
0000
,
1100
0011
0000
2002
0000
0000
0000
0000
,
0000
0000
3003
0010
0000
0000
0220
0000
0000
0000
0000
0000
0000
0000
0000
0000
,
0000
0000
0000
1331
0000
0000
0000
0000
;
