#TITLE:Surpassing Everything;
#SUBTITLE:Terranigma;
#ARTIST:Masanori Hikichi, Miyoko Kobayashi;
#TITLETRANSLIT:;
#SUBTITLETRANSLIT:;
#ARTISTTRANSLIT:;
#CREDIT:Kil;
#BANNER:Surpassing Everything.png;
#BACKGROUND:Surpassing Everything-bg.png;
#LYRICSPATH:;
#CDTITLE:!kil.png;
#MUSIC:Surpassing Everything.mp3;
#OFFSET:-0.507;
#SAMPLESTART:61.198;
#SAMPLELENGTH:30.000;
#SELECTABLE:YES;
#BPMS:0.000=103.160,1.000=95.820,8.000=95.740,22.000=88.740,23.000=88.540,25.000=87.000,27.000=73.400,28.000=138.501,40.000=140.301,43.000=139.591,44.000=138.821,46.000=139.231,52.000=138.871,56.000=120.011,56.500=117.531,57.000=116.491,57.500=115.871,58.000=114.251,58.500=107.811,59.000=100.151,59.500=100.231,59.750=110.051,60.000=115.251,96.500=131.871,98.000=140.731,99.000=141.571,100.000=144.691,112.000=143.951,133.000=144.291,156.000=144.011,164.000=143.191,168.000=143.871,184.000=148.271,186.000=144.091,240.000=145.571,241.000=164.711,242.750=149.831,244.000=144.131,252.000=144.411;
#STOPS:1.000=0.005
,8.000=0.010
,9.000=0.005
,11.000=0.005
,12.000=0.005
,16.000=0.013
,17.000=0.002
,18.500=0.005
,20.000=0.005
,22.000=0.005
,52.000=0.001
,52.500=0.001
,53.000=0.001
,53.500=0.001
,54.000=0.001
,54.500=0.001
,55.000=0.001
,55.500=0.001
,56.000=0.014
,56.500=0.002
,57.000=0.002
,57.500=0.004
,58.000=0.003
,58.500=0.003
,59.000=0.001
,76.000=0.006
,80.000=0.004
,82.000=0.002
,82.500=0.002
,83.000=0.002
,83.500=0.002
,88.000=0.003
,89.000=0.003
,90.000=0.007
,91.500=0.006
,92.000=0.010
,93.000=0.010
,94.000=0.004
,94.500=0.004
,94.750=0.004
,95.000=0.004
,96.000=0.002
,99.000=0.003
,99.250=0.003
,99.500=0.003
,99.750=0.003
,100.000=0.001
,104.000=0.001
,108.000=0.006
,109.000=0.002
,109.250=0.003
,109.500=0.003
,109.750=0.003
,110.000=0.001
,110.500=0.002
,112.000=0.003
,114.000=0.001
,114.500=0.001
,115.000=0.001
,115.500=0.001
,116.000=0.006
,131.000=0.003
,132.000=0.003
,163.000=0.005
,163.250=0.005
,163.500=0.004
,163.750=0.004
,164.000=0.008
,165.000=0.006
,166.000=0.006
,186.000=0.006
,194.000=0.006
,202.000=0.002
,232.000=0.005
,232.750=0.002
,233.000=0.002
,233.250=0.002
,233.500=0.004
,233.750=0.002
,234.000=0.001
,234.500=0.001
,234.750=0.001
,235.000=0.001
,235.250=0.001
,235.750=0.001
,236.000=0.003
,236.500=0.001
,236.750=0.001
,237.000=0.001
,237.250=0.001
,237.500=0.001
,237.750=0.001
,238.000=0.001
,238.250=0.001
,238.750=0.001
,239.250=0.001
,239.750=0.001
,240.250=0.001
,240.500=0.001
,241.000=0.001
,243.000=0.006
,243.250=0.006
,243.500=0.005
,243.750=0.004
,259.000=0.003
,259.250=0.002
,259.500=0.003
,259.750=0.002
,260.000=0.007
,279.333=0.005
,279.833=0.005
,280.000=0.005
,280.667=0.005
,281.000=0.005
,282.750=0.005
,283.500=0.005
,283.667=0.005
,283.833=0.005
,284.000=0.005
;
#BGCHANGES:;
// cache tags:
#FIRSTBEAT:0.000;
#LASTBEAT:314.000;
#SONGFILENAME:Songs/VGMP 2/Surpassing Everything (Kil)/Surpassing Everything.sm;
#HASMUSIC:1;
#HASBANNER:1;
#MUSICLENGTH:164.048;
// end cache tags

//---------------dance-single - ----------------
#NOTES:
     dance-single:
     :
     Hard:
     13:
     1.000,1.000,1.000,0.311,1.000,890.000,376.000,51.000,0.000,2.000:
1100
0000
0000
0101
0000
0000
0220
0000
0000
0000
0000
0000
0000
0000
0000
0000
0000
0000
0330
0000
0000
1000
0100
0010
,
0001
0000
0000
0000
0000
0000
0000
0000
0000
0000
0000
0000
0000
0000
0000
0000
0000
0000
0000
0000
0000
0000
0000
0000
0000
0000
0000
0000
0000
0000
0000
0000
0000
0000
0000
0000
0001
0000
0000
0000
0000
0000
0010
0000
0000
0000
0000
0000
0100
0000
0000
0000
0000
0000
0000
0000
0000
0000
0000
0000
0000
0000
0000
0000
0000
0000
0000
0000
0000
0000
0000
0000
0000
0000
0000
0000
0000
0000
0000
0000
0000
0000
0000
0000
0100
0000
0000
0000
0000
0000
0010
0000
0000
0000
0000
0000
0001
0000
0000
0000
0000
0000
0000
0000
0000
0000
0000
0000
0000
0000
0000
0000
0000
0000
0000
0000
0000
0000
0000
0000
0001
0000
0000
0000
0000
0000
0010
0000
0000
0000
0000
0000
0100
0000
0000
0000
0000
0000
0010
0000
0000
0000
0000
0000
0001
0000
0000
0000
0000
0000
0000
0000
0000
0000
0000
0000
0000
0000
0000
0000
0001
0000
0000
0000
0000
0000
0000
0000
0000
0000
0000
0000
0000
0000
0000
0000
0001
0000
0000
0000
0000
0000
0000
0000
0000
0000
0000
0000
0000
0000
0000
0000
,
2100
0000
0000
0000
0000
0000
0001
0000
0000
0000
0000
0000
0020
0000
0000
0000
3000
0000
0000
0000
0000
0000
0000
0000
0000
0000
0000
0000
0000
0000
0000
0000
0000
0030
0000
0000
0100
0000
0000
0100
0000
0000
0100
0000
0000
0100
0000
0000
,
1100
0000
0000
0000
0000
0000
0101
0000
0000
0000
0000
0000
0220
0000
0000
0000
0000
0000
0000
0000
0000
0330
0000
0000
2200
0000
0000
0000
0000
0000
0000
0000
0000
3300
0000
0000
0110
0000
0001
0000
0010
0000
0100
0000
1000
0000
0100
0000
,
2002
0000
0000
0000
0000
0000
0000
0000
3003
0000
0000
0000
0110
0000
0000
0000
0000
0000
1010
0000
0000
1010
0000
0000
0220
0000
0330
0000
0000
0000
1100
0000
0000
0000
0000
0000
0202
0000
0000
0000
0000
0000
0000
0000
0000
0303
0000
0000
,
2020
0000
0000
0000
0000
0000
0000
0000
0030
0000
0000
0000
0000
0000
0000
0000
0000
0000
0000
0000
0000
0000
0000
0000
3000
0000
0000
0000
0000
0000
0000
0000
0000
0000
0000
0000
1000
0000
0000
0000
0000
0000
0100
0000
0000
0000
0000
0000
0011
0000
0000
0000
0000
0000
0000
0000
0000
0000
0000
0000
0000
0000
0000
0000
0000
0000
0000
0000
0000
0000
0000
0000
0000
0000
0000
0000
0000
0000
0000
0000
0000
0000
0000
0000
0000
0000
0000
0000
0000
0000
0000
0000
0000
0000
0000
0000
1100
0000
0000
0000
0000
0000
0000
0000
0000
0000
0000
0000
0000
0000
0000
0000
0000
0000
0000
0000
0000
0000
0000
0000
0000
0000
0000
0000
0000
0000
0000
0000
0000
0000
0000
0000
0000
0000
0000
0000
0000
0000
0000
0000
0000
0000
0000
0000
0110
0000
0000
0000
0000
0000
0000
0000
0000
0000
0000
0000
0000
0000
0000
0000
0000
0000
0000
0000
0000
0000
0000
0000
0000
0000
0000
0000
0000
0000
0000
0000
0000
0000
0000
0000
0000
0000
0000
0000
0000
0000
0000
0000
0000
0000
0000
0000
,
1001
0000
0000
0000
0000
0000
0000
0000
0000
0000
0000
0000
0012
0000
0000
0000
0000
0000
0000
0000
0000
0000
0000
0000
0000
0000
0000
0000
0000
0000
0000
0000
0000
0000
0000
0000
1000
0000
0000
0000
0000
0000
0000
0003
0000
0000
0000
0000
,
1010
0100
0011
1000
0010
0100
0010
1000
0010
0100
0010
1000
0011
0100
0010
1000
,
0110
1001
0010
0100
0010
1000
0010
0100
0010
1000
0010
0100
0010
1000
0010
0100
,
1001
0100
0011
0100
1000
0100
0010
0100
1001
0100
0010
0100
1000
0100
1010
0100
,
1010
0000
0100
0000
0001
0000
1000
0100
0011
0000
0011
0000
0011
0000
0011
0000
0011
0000
0000
0000
1001
0000
0000
0000
0102
0000
0000
0000
0000
0000
0000
0000
,
1013
0100
0011
1000
0010
0100
0010
1000
0011
0100
0010
1000
0001
0100
0010
1000
,
0101
0010
1000
0001
0100
0010
1000
0001
0100
0010
1000
0001
0011
0100
0001
1000
,
0110
1000
0001
0100
0001
1000
0001
0100
0001
1000
0001
0100
0001
1000
0001
0100
,
1000
0100
1000
0001
0100
1000
0100
0010
,
1001
0100
0010
0001
0100
1000
0010
1000
0001
0100
0010
0001
0100
1000
0010
0100
,
0001
0100
0010
0001
0100
1000
0010
0100
1001
0100
0110
0001
1010
1000
0101
0010
,
0001
0100
1000
0001
0100
1000
0100
0010
0001
1000
0100
0001
1000
0010
0100
1000
,
0001
0100
1000
0001
0100
1000
0100
1000
0011
0100
0110
1000
1001
0010
0110
1000
,
1001
0100
0010
0001
0100
1000
0010
1000
0001
0100
0010
0001
0100
1000
0010
0100
,
0001
0100
0010
0001
0100
1000
0010
0100
1001
0100
0110
0001
1010
1000
0101
0010
,
1000
0100
1000
0001
0100
1000
0100
0010
0001
1000
0100
0001
1000
0010
0100
1000
,
0011
0000
0000
0100
0000
0000
1000
0000
0000
0100
0000
0000
0011
0000
0000
0100
0000
0000
1000
0000
0000
0100
0000
0000
0011
0000
0000
0000
0000
0000
1000
0000
0100
0000
0001
0000
0010
0000
0100
0000
1000
0000
0001
0000
0010
0000
1000
0000
,
0110
0000
0000
0110
0000
0000
1100
0011
0011
0011
0000
0000
,
1001
0210
0000
0000
0000
0000
0000
0300
,
1100
0010
0201
0000
0010
0000
0301
0000
0010
0000
0100
0000
1000
0000
0100
0000
,
1000
0010
0200
0000
0010
0000
0301
0000
0010
0000
0100
0000
0002
0000
0100
0003
,
1000
0010
0201
0000
1301
1001
1001
1001
0110
0000
1100
0000
0001
0000
0100
0000
,
1000
0011
0200
0000
0010
0000
0301
0000
1010
0001
0100
0000
0011
0100
0001
1000
,
0110
1000
0011
0000
0100
0000
1010
0000
0100
0000
1001
0000
1010
0000
0100
0000
,
1001
0000
0100
0011
1000
0000
0010
0000
1100
0000
0110
0000
1000
0000
0110
0100
,
1100
0011
0100
1010
0100
0011
0110
1000
,
0011
0000
0100
0011
1100
0000
0001
0000
1010
0000
1001
0000
1010
0000
1100
0000
,
1100
0011
1100
0000
1000
0000
0010
0101
1010
0000
1000
0000
1100
0011
0100
0000
,
1100
0010
0100
0010
1001
0100
0010
0101
1010
0100
0010
0001
1100
0010
0100
0011
,
1100
0000
0000
0001
0000
0000
0100
0000
0000
0010
0000
0000
1001
0000
0000
0100
0000
0000
1000
0000
0000
0100
0000
0000
1010
0000
0000
0001
0000
0000
0101
0000
0000
0010
0000
0000
1100
0000
0000
0010
0000
0000
1000
0000
0100
0001
0000
0000
,
1010
0000
0000
0000
0000
0000
0000
0000
0000
0000
0000
0000
0100
0000
0000
0000
0000
0000
0000
0000
0000
0000
0000
0000
1000
0000
0000
0000
0000
0000
0000
0000
0000
0000
0000
0000
0110
0000
0000
0000
0000
0000
0000
0000
0000
0000
0000
0000
1001
0000
0000
0000
0000
0000
0000
0000
0000
0000
0000
0000
0000
0000
0000
0000
0110
0000
0000
0000
0000
0000
0000
0000
0001
0000
0000
0000
0000
0000
0000
0000
0000
0110
0000
0000
0000
0000
0000
0000
0000
0000
0000
0000
0000
0000
0000
0000
1000
0000
0000
0000
0000
0000
0000
0000
0000
0000
0000
0000
0011
0000
0000
0000
0000
0000
0000
0000
0000
0000
0000
0000
0100
0000
0000
0000
0000
0000
0000
0000
0000
0000
0000
0000
1010
0000
0000
0000
0000
0000
0000
0000
0000
0000
0000
0000
1001
0000
0000
0000
0000
0000
0000
0000
0000
0000
0000
0000
0010
0000
0000
0000
0000
0000
0000
0000
0000
0000
0000
0000
1010
0000
0000
0000
0000
0000
0000
0000
0000
0000
0000
0000
0101
0000
0000
0000
0000
0000
0000
0000
0000
0000
0000
0000
,
1000
0011
1100
0000
1000
0000
1010
0101
1010
0000
1000
0000
1100
0011
0100
0000
,
1100
0010
0100
0010
1001
0100
0010
0101
1010
0100
1001
0010
1100
0001
0100
0011
,
1100
0000
0000
0001
0000
0000
0100
0000
0000
0010
0000
0000
1001
0000
0000
0100
0000
0000
1010
0000
0000
0100
0000
0000
1010
0000
0000
0001
0000
0000
0101
0000
0000
0010
0000
0000
1100
0000
0000
0010
0000
0000
1000
0000
0100
0001
0000
0000
,
1010
0000
0000
0000
0000
0000
0000
0000
0000
0000
0000
0000
0100
0000
0000
0000
0000
0000
0000
0000
0000
0000
0000
0000
1000
0000
0000
0000
0000
0000
0000
0000
0000
0000
0000
0000
0110
0000
0000
0000
0000
0000
0000
0000
0000
0000
0000
0000
1001
0000
0000
0000
0000
0000
0000
0000
0000
0000
0000
0000
0000
0000
0000
0000
0110
0000
0000
0000
0000
0000
0000
0000
0001
0000
0000
0000
0000
0000
0000
0000
0000
0110
0000
0000
0000
0000
0000
0000
0000
0000
0000
0000
0000
0000
0000
0000
1000
0000
0000
0000
0000
0000
0000
0000
0000
0000
0000
0000
0011
0000
0000
0000
0000
0000
0000
0000
0000
0000
0000
0000
0100
0000
0000
0000
0000
0000
0000
0000
0000
0000
0000
0000
1010
0000
0000
0000
0000
0000
0000
0000
0000
0000
0000
0000
1001
0000
0000
0000
0000
0000
0000
0000
0000
0000
0000
0000
0010
0000
0000
0000
0000
0000
0000
0000
0000
0000
0000
0000
1010
0000
0000
0000
0000
0000
0000
0000
0000
0000
0000
0000
0101
0000
0000
0000
0000
0000
0000
0000
0000
0000
0000
0000
,
1001
0000
0000
1001
0000
0000
0110
0000
0000
1001
1001
1001
,
1001
0000
0000
1001
1001
1001
1001
0000
0000
1001
0000
0000
,
1001
0000
1001
0000
1001
0000
1001
0000
0000
0000
0000
0000
2100
0000
0000
3000
0000
0000
1001
0000
1001
0000
1001
0000
,
1001
0000
0000
0000
0000
0000
0000
0000
0000
0000
0000
0000
0000
0000
0000
0000
0000
0000
0000
0000
0000
0000
0000
0000
0000
0000
0000
0000
0000
0000
0000
0000
0000
0000
0000
0000
0000
0000
0000
0000
0000
0000
0000
0000
0000
1000
0000
0000
0100
0000
0000
0010
0000
0000
0002
0000
0000
0000
0000
0000
0000
0000
0000
0000
0000
0000
0000
0000
0000
0000
0000
0000
0000
0000
0000
0000
0000
0000
0000
0000
0000
0000
0000
0000
0000
0000
0000
0003
0000
0000
0000
0000
0000
0000
0000
0000
1010
0000
0000
0000
0000
0000
0000
0000
0000
0000
0000
0000
0000
0000
0000
0000
0000
0000
0000
0000
0000
0000
0000
0000
0000
0000
0000
0000
0000
0000
0000
0000
0100
0000
0000
0000
0000
0000
0000
0000
0000
0000
0000
0000
0000
0000
0000
0000
0012
0000
0000
0000
0000
0000
0000
0000
0000
0000
0000
0000
0000
0000
0000
0000
0000
0000
0000
0000
0000
0000
0000
0000
0000
0000
0000
0000
0000
0000
0000
0000
1000
0000
0000
0000
0000
0000
0000
0000
0000
0000
0000
0000
0000
0000
0000
0000
,
0020
0000
0000
0000
0000
0000
0000
0000
0000
0033
0000
0000
1100
0000
0000
0000
1100
0000
0000
0000
1010
0000
0000
0000
0011
0000
0000
0000
0110
0000
0000
0000
1100
0000
0000
0000
1001
0000
0000
0000
0000
0000
0000
0000
0010
0000
0000
0000
,
0100
0000
0000
0000
0000
0000
0000
0000
0000
0000
0000
0000
0000
0000
0000
0010
1000
0000
0000
0000
0000
0000
0000
0000
0000
0000
0000
0000
0000
0000
0000
0000
1100
0000
0000
0000
0000
0000
0000
0000
0000
0000
0000
0000
0000
0000
0000
0000
0001
0000
0000
0000
0000
0000
0010
0000
0000
0000
0000
0000
0100
0000
0000
0000
0000
0000
1000
0000
0000
0000
0000
0000
0100
0000
0000
0000
0000
0000
0010
0000
0000
0000
0000
0000
0001
0000
0000
0000
0000
0000
0010
0000
0000
0000
0000
0000
1100
0000
0000
0000
0000
0000
0000
0000
0000
0000
0000
0000
0000
0000
0000
0000
0000
0000
0000
0000
0000
0000
0000
0000
0100
0000
0000
0000
0000
0000
0000
0000
0000
0000
0000
0000
0000
0000
0000
0000
0000
0000
0000
0000
0000
0000
0000
0000
0100
0000
0000
0000
0000
0000
0000
0000
0000
0000
0000
0000
0000
0000
0000
0000
0000
0000
0000
0000
0000
0000
0000
0000
0100
0000
0000
0000
0000
0000
0000
0000
0000
0000
0000
0000
0000
0000
0000
0000
0000
0000
0000
0000
0000
0000
0000
0000
,
0100
0000
0001
0010
1100
0000
0000
0000
0100
0000
0000
0000
0100
0000
0001
0010
1100
0000
0000
0000
0100
0000
0000
0000
0100
0000
0001
0010
1100
0000
0000
0000
,
0100
0000
0000
0000
0100
0000
0001
0010
1100
0000
0000
0000
0100
0000
0001
0010
1100
0000
0000
0000
0100
0000
0000
0000
0100
0000
0000
0000
0100
0000
0000
0000
,
0100
0000
0001
0010
1100
0000
0000
0000
0100
0000
0000
0000
0100
0000
0001
0010
1100
0000
0000
0000
0100
0000
0000
0000
0100
0000
0001
0010
1100
0000
0000
0000
,
0100
0000
0000
0000
0100
0000
0001
0010
1100
0000
0000
0000
0100
0000
0001
0010
1100
0000
0001
0000
0110
0000
0000
0000
0100
0000
0000
0000
0100
0000
0000
0000
,
0100
0000
0001
0010
1100
0000
0000
0000
0100
0000
0000
0000
0100
0000
0001
0010
1100
0000
0001
0000
0110
0000
0000
0000
0100
0000
0001
0010
1100
0000
0000
0000
,
0100
0000
0000
0000
0100
0000
0001
0010
1100
0000
0000
0000
0100
0000
0001
0010
1100
0000
0001
0000
0110
0000
0000
0000
0100
0000
0000
0000
0100
0000
0000
0000
,
0100
0000
0000
0000
0000
0000
0000
0000
0000
0000
0000
0000
0001
0000
0000
0000
0000
0000
0010
0000
0000
0000
0000
0000
1100
0000
0000
0000
0000
0000
0000
0000
0000
0000
0000
0000
0000
0000
0000
0000
0000
0000
0000
0000
0000
0000
0000
0000
0110
0000
0000
0000
0000
0000
0000
0000
0000
0000
0000
0000
0010
0000
0000
0000
0000
0000
0000
0000
0000
0000
0000
0000
0010
0000
0000
0000
0000
0000
0000
0000
0000
0000
0000
0000
0010
0000
0000
0000
0000
0000
0000
0000
0000
0000
0000
0000
1001
0000
0000
0000
0000
0000
0000
0000
0000
0000
0000
0000
0000
0000
0000
0000
1001
0000
0000
0000
0000
0000
0000
0000
0000
0000
0000
0000
0000
0000
0000
0000
1001
0000
0000
0000
0000
0000
0000
0000
0000
0000
0000
0000
0000
0000
0000
0000
1001
0000
0000
0000
0000
0000
0000
0000
0000
0000
0000
0000
0000
0000
0000
0000
0000
0000
0000
0000
0000
0000
0000
0000
0000
0000
0000
0000
0000
0000
0000
0000
0000
0000
0000
0000
0000
0000
0000
0000
0000
0000
0000
0000
0000
0000
0000
0000
,
2020
0000
3030
1001
1001
1001
1001
0000
0000
2002
0000
3003
,
1100
0001
1020
0000
0100
0000
1000
0000
0130
0001
1100
0000
0100
0000
1010
0000
,
1100
0000
0000
0000
0000
0000
0000
0000
0000
0000
0000
0000
0001
0000
0000
0000
0000
0000
0000
0000
0000
0000
0000
0000
1020
0000
0000
0000
0000
0000
0000
0000
0000
0000
0000
0000
0000
0000
0000
0000
0000
0000
0000
0000
0000
0000
0000
0000
0100
0000
0000
0000
0000
0000
0000
0000
0030
0000
0000
0000
0001
0000
0000
0000
0000
0000
0000
0000
0000
0000
0000
0000
1100
0000
0000
0000
0000
0000
0000
0000
0000
0000
0000
0000
0000
0000
0000
0000
0000
0000
0000
0000
0000
0000
0000
0000
0100
0000
0000
0000
0000
0000
0000
0000
0000
0000
0000
0000
0000
0000
0000
0000
0000
0000
0000
0000
0000
0000
0000
0000
1001
0000
0000
0000
0000
0000
0000
0000
0000
0000
0000
0000
0001
0000
0000
0000
0000
0000
0010
0000
0000
0000
0000
0000
1100
0000
0000
0000
0000
0000
0000
0000
0000
0000
0000
0000
0000
0000
0000
0000
0000
0000
0000
0000
0000
0000
0000
0000
1000
0000
0000
0000
0000
0000
0000
0000
0000
0000
0000
0000
0001
0000
0000
0000
0000
0000
0010
0000
0000
0000
0000
0000
,
1100
0000
0000
0001
0000
0000
1020
0000
0000
0000
0000
0000
0100
0000
0030
0000
0000
0000
1100
0000
0000
0000
0000
0000
0100
0000
0000
0000
0000
0000
1001
0000
0000
0000
0000
0000
0110
0000
0000
0100
0000
0000
0100
0000
0000
0100
0000
0000
,
1001
1001
1001
1001
1001
0000
0110
0000
0000
0000
1001
1001
1001
0000
1001
0000
,
1001
0000
0000
0000
0000
0000
0110
0000
0000
0000
0000
0000
1001
0000
0000
1001
0000
0000
1001
0000
0000
1001
0000
0000
1001
0000
0000
0000
1001
0000
0000
0000
1001
0000
0000
0000
1001
0000
0000
0000
0000
0000
0110
0000
0000
0000
0000
0000
,
1001
1001
1001
1001
1001
0000
0000
0000
1001
0000
0000
0000
1001
0000
0000
0000
,
1001
0000
0000
0000
0000
0000
0100
0000
0000
1010
0000
0000
0101
0000
0000
0000
0000
0000
1000
0000
0000
0010
0000
0000
1000
0000
0000
0000
0000
0000
0100
0000
0000
0001
0000
0000
1100
0000
0000
0001
0010
0000
1000
0000
0010
0000
0000
0000
,
1100
0000
0100
0011
1100
0000
1000
0010
1000
0000
0100
0001
0110
1000
0100
0010
,
1001
0000
0101
0010
1010
0000
0100
0001
1100
0000
1000
0011
0100
0000
1001
0010
,
1100
0000
1010
0001
1010
0100
1001
0001
0110
0100
1001
0000
1100
1000
0011
0000
,
1001
0000
0000
0000
0000
0000
0100
0000
0000
1010
0000
0000
0101
0000
0000
0000
0000
0000
1000
0000
0000
0010
0000
0000
1000
0000
0000
0000
0000
0000
0100
0000
0000
0001
0000
0000
1100
0000
0000
0001
0010
0000
1000
0000
0010
0000
0000
0000
,
1100
0000
0100
0011
1100
0000
1000
0010
1000
0000
0100
0001
0110
1000
0100
0010
,
1001
0000
0101
0010
1010
0000
0100
0001
1100
0000
1000
0011
0100
0000
1001
0010
,
1100
0000
1010
0001
1010
0100
1001
0001
0110
0100
1001
0000
1100
1000
0011
0000
,
0202
0003
0300
0000
2020
3000
0030
0000
0202
0300
0003
0000
2002
0003
3000
0000
,
0011
0000
0110
0000
1001
0000
1100
0000
0011
0000
1100
0000
,
1001
1001
0110
0000
1001
0000
1100
0000
1001
0000
1100
0000
1001
0000
1100
0000
,
1001
1001
0110
0000
1001
0000
1100
0000
1001
0000
1100
0000
1100
0000
0000
1001
,
2002
0000
0000
3000
0003
0000
0000
0000
2020
0000
3000
0000
0030
0000
0000
0000
0202
0000
0300
0000
0003
0000
0000
0000
2002
0000
0003
0000
3000
0000
0000
0000
,
1001
0000
0110
0000
1001
0000
1100
0000
0011
0000
1100
0000
,
1001
1001
0110
0000
1001
0000
1100
0000
1001
0000
1100
0000
1001
0000
1100
0000
,
1001
1001
0110
0000
1001
0000
1100
0000
1001
0000
1100
0000
1001
0000
1100
0000
,
1001
0000
1100
0000
1001
0000
1100
0000
1001
0000
1100
0000
,
1001
0000
1100
0000
1001
0000
0110
0000
0000
0000
0000
0000
;

//---------------dance-single - Copied from----------------
#NOTES:
     dance-single:
     Copied from:
     Challenge:
     13:
     1.000,1.000,1.000,0.329,1.000,889.000,379.000,54.000,0.000,130.000:
1100
0000
0000
0101
0000
0000
0220
0000
0000
0000
0000
0000
0000
0000
0000
0000
0000
0000
0330
0000
0000
1000
0100
0010
,
0001
0000
0000
0000
0000
0000
0000
0000
0000
0000
0000
0000
0000
0000
0000
0000
0000
0000
0000
0000
0000
0000
0000
0000
0000
0000
0000
0000
0000
0000
0000
0000
0000
0000
0000
0000
0001
0000
0000
0000
0000
0000
0010
0000
0000
0000
0000
0000
0100
0000
0000
0000
0000
0000
0000
0000
0000
0000
0000
0000
0000
0000
0000
0000
0000
0000
0000
0000
0000
0000
0000
0000
0000
0000
0000
0000
0000
0000
0000
0000
0000
0000
0000
0000
0100
0000
0000
0000
0000
0000
0010
0000
0000
0000
0000
0000
0001
0000
0000
0000
0000
0000
0000
0000
0000
0000
0000
0000
0000
0000
0000
0000
0000
0000
0000
0000
0000
0000
0000
0000
0001
0000
0000
0000
0000
0000
0010
0000
0000
0000
0000
0000
0100
0000
0000
0000
0000
0000
0010
0000
0000
0000
0000
0000
0001
0000
0000
0000
0000
0000
0000
0000
0000
0000
0000
0000
0000
0000
0000
0000
0001
0000
0000
0000
0000
0000
0000
0000
0000
0000
0000
0000
0000
0000
0000
0000
0001
0000
0000
0000
0000
0000
0000
0000
0000
0000
0000
0000
0000
0000
0000
0000
,
2110
0000
0000
0000
0000
0000
0001
0000
0000
0000
0000
0000
0020
0000
0000
0000
3000
0000
0000
0000
0000
0000
0000
0000
0000
0000
0000
0000
0000
0000
0000
0000
0000
0030
0000
0000
0100
0000
0000
0100
0000
0000
0100
0000
0000
0100
0000
0000
,
1100
0000
0000
0000
0000
0000
0101
0000
0000
0000
0000
0000
0220
0000
0000
0000
0000
0000
0000
0000
0000
0330
0000
0000
2200
0000
0000
0000
0000
0000
0000
0000
0000
3300
0000
0000
0110
0000
0001
0000
0010
0000
0100
0000
1000
0000
0100
0000
,
2002
0000
0000
0000
0000
0000
0000
0000
3003
0000
0000
0000
0110
0000
0000
0000
0000
0000
1010
0000
0000
1010
0000
0000
1110
0000
0000
0000
0000
0000
1100
0000
0000
0000
0000
0000
0202
0000
0000
0000
0000
0000
0000
0000
0000
0303
0000
0000
,
2110
0000
0000
0000
3000
0000
1000
0100
0011
0000
0000
0000
0000
0000
0000
0000
1100
0000
0000
0000
0000
0000
0000
0000
0110
0000
0000
0000
0000
0000
0000
0000
,
1001
0000
0000
0000
0000
0000
0000
0000
0000
0000
0000
0000
0112
0000
0000
0000
0000
0000
0000
0000
0000
0000
0000
0000
0000
0000
0000
0000
0000
0000
0000
0000
0000
0000
0000
0000
1100
0000
0000
0000
0000
0000
0000
0003
0000
0000
0000
0000
,
1010
0100
0011
1000
0010
0100
0010
1000
0010
0100
0010
1000
0011
0100
0010
1000
,
0110
1001
0010
0100
0010
1000
0010
0100
0010
1000
0010
0100
0010
1000
0010
0100
,
1001
0100
0011
0100
1000
0100
0010
0100
1001
0100
0010
0100
1000
0100
1010
0100
,
1010
0000
0100
0000
0001
0000
1000
0100
0011
0000
0011
0000
0011
0000
0011
0000
0011
0000
0000
0000
1011
0000
0000
0000
0102
0000
0000
0000
0000
0000
0000
0000
,
1013
0100
0011
1000
0010
0100
0010
1000
0011
0100
0010
1000
0001
0100
0010
1000
,
0101
0010
1000
0001
0100
0010
1000
0001
0100
0010
1000
0001
0011
0100
0001
1000
,
0110
1000
0001
0100
0001
1000
0001
0100
0001
1000
0001
0100
0001
1000
0001
0100
,
1000
0100
1000
0001
0100
1000
0100
0010
,
1001
0100
0010
0001
0100
1000
0010
1000
0001
0100
0010
0001
0100
1000
0010
0100
,
0001
0100
0010
0001
0100
1000
0010
0100
1001
0100
0110
0001
1010
1000
0101
0010
,
0001
0100
1000
0001
0100
1000
0100
0010
0001
1000
0100
0001
1000
0010
0100
1000
,
0001
0100
1000
0001
0100
1000
0100
1000
0011
0100
0110
1000
1001
0010
0110
1000
,
1001
0100
0010
0001
0100
1000
0010
1000
0001
0100
0010
0001
0100
1000
0010
0100
,
0001
0100
0010
0001
0100
1000
0010
0100
1001
0100
0110
0001
1010
1000
0101
0010
,
1000
0100
1000
0001
0100
1000
0100
0010
0001
1000
0100
0001
1000
0010
0100
1000
,
0011
0000
0000
0100
0000
0000
1000
0000
0000
0100
0000
0000
0011
0000
0000
0100
0000
0000
1000
0000
0000
0100
0000
0000
0011
0000
0000
0000
0000
0000
1000
0000
0100
0000
0001
0000
0010
0000
0100
0000
1000
0000
0001
0000
0010
0000
1000
0000
,
0111
0000
0000
0111
0000
0000
1100
0111
0111
0111
0000
0000
,
1011
0210
0000
0000
0000
0000
0000
0300
,
1100
0010
0201
0000
0010
0000
0301
0000
0010
0000
0100
0000
1000
0000
0100
0000
,
1000
0010
0200
0000
0010
0000
0301
0000
0010
0000
0100
0000
0002
0000
0100
0003
,
1000
0010
0201
0000
1311
1011
1011
0011
0111
0000
1110
0000
0001
0000
0100
0000
,
1000
0011
0200
0000
0010
0000
0301
0000
1010
0001
0100
0000
0011
0100
0001
1000
,
0110
1000
0011
0000
0100
0000
1010
0000
0100
0000
1001
0000
1010
0000
0100
0000
,
1001
0000
0100
0011
1000
0000
0010
0000
1100
0000
0110
0000
1000
0000
0110
0100
,
1100
0011
0100
1010
0100
0011
0110
1000
,
0011
0000
0100
0011
1100
0000
0001
0000
1110
0000
1011
0000
1101
0000
1110
0000
,
1111
0011
1100
0000
1000
0000
0010
0101
1010
0000
1000
0000
1100
0011
0100
0000
,
1100
0010
0100
0010
1101
0100
0010
0101
1010
0100
0010
0001
1100
0010
0100
0011
,
1100
0000
0000
0001
0000
0000
0100
0000
0000
0010
0000
0000
1001
0000
0000
0100
0000
0000
1000
0000
0000
0100
0000
0000
1010
0000
0000
0001
0000
0000
0101
0000
0000
0010
0000
0000
1100
0000
0000
0010
0000
0000
1000
0000
0100
0001
0000
0000
,
1010
0000
0000
0000
0000
0000
0000
0000
0000
0000
0000
0000
0100
0000
0000
0000
0000
0000
0000
0000
0000
0000
0000
0000
1000
0000
0000
0000
0000
0000
0000
0000
0000
0000
0000
0000
0110
0000
0000
0000
0000
0000
0000
0000
0000
0000
0000
0000
1001
0000
0000
0000
0000
0000
0000
0000
0000
0000
0000
0000
0000
0000
0000
0000
0110
0000
0000
0000
0000
0000
0000
0000
0001
0000
0000
0000
0000
0000
0000
0000
0000
0110
0000
0000
0000
0000
0000
0000
0000
0000
0000
0000
0000
0000
0000
0000
1000
0000
0000
0000
0000
0000
0000
0000
0000
0000
0000
0000
0011
0000
0000
0000
0000
0000
0000
0000
0000
0000
0000
0000
0100
0000
0000
0000
0000
0000
0000
0000
0000
0000
0000
0000
1010
0000
0000
0000
0000
0000
0000
0000
0000
0000
0000
0000
1001
0000
0000
0000
0000
0000
0000
0000
0000
0000
0000
0000
0010
0000
0000
0000
0000
0000
0000
0000
0000
0000
0000
0000
1010
0000
0000
0000
0000
0000
0000
0000
0000
0000
0000
0000
0101
0000
0000
0000
0000
0000
0000
0000
0000
0000
0000
0000
,
1000
0011
1100
0000
1000
0000
1010
0101
1010
0000
1000
0000
1100
0011
0100
0000
,
1100
0010
0100
0010
1101
0100
0010
0101
1010
0100
1001
0010
1100
0001
0100
0011
,
1100
0000
0000
0001
0000
0000
0100
0000
0000
0010
0000
0000
1001
0000
0000
0100
0000
0000
1010
0000
0000
0100
0000
0000
1010
0000
0000
0001
0000
0000
0101
0000
0000
0010
0000
0000
1100
0000
0000
0010
0000
0000
1000
0000
0100
0001
0000
0000
,
1010
0000
0000
0000
0000
0000
0000
0000
0000
0000
0000
0000
0100
0000
0000
0000
0000
0000
0000
0000
0000
0000
0000
0000
1000
0000
0000
0000
0000
0000
0000
0000
0000
0000
0000
0000
0110
0000
0000
0000
0000
0000
0000
0000
0000
0000
0000
0000
1001
0000
0000
0000
0000
0000
0000
0000
0000
0000
0000
0000
0000
0000
0000
0000
0110
0000
0000
0000
0000
0000
0000
0000
0001
0000
0000
0000
0000
0000
0000
0000
0000
0110
0000
0000
0000
0000
0000
0000
0000
0000
0000
0000
0000
0000
0000
0000
1000
0000
0000
0000
0000
0000
0000
0000
0000
0000
0000
0000
0011
0000
0000
0000
0000
0000
0000
0000
0000
0000
0000
0000
0100
0000
0000
0000
0000
0000
0000
0000
0000
0000
0000
0000
1010
0000
0000
0000
0000
0000
0000
0000
0000
0000
0000
0000
1001
0000
0000
0000
0000
0000
0000
0000
0000
0000
0000
0000
0010
0000
0000
0000
0000
0000
0000
0000
0000
0000
0000
0000
1010
0000
0000
0000
0000
0000
0000
0000
0000
0000
0000
0000
0101
0000
0000
0000
0000
0000
0000
0000
0000
0000
0000
0000
,
1111
0000
0000
1111
0000
0000
0110
0000
0000
1111
1111
1111
,
1111
0000
0000
1111
1111
1111
1111
0000
0000
1111
0000
0000
,
1111
0000
1111
0000
1111
0000
1111
0000
0000
0000
0000
0000
2110
0000
0000
3000
0000
0000
1111
0000
1111
0000
1111
0000
,
1111
0000
0000
0000
0000
0000
2222
0000
3000
0300
0030
0003
1010
0000
0000
0000
0100
0000
0012
0000
0000
0000
1000
0000
,
0120
0000
0000
0000
0000
0000
0000
0000
0000
0033
0000
0000
1100
0000
0000
0000
1100
0000
0000
0000
1010
0000
0000
0000
0011
0000
0000
0000
0110
0000
0000
0000
1100
0000
0000
0000
1001
0000
0000
0000
0000
0000
0000
0000
0010
0000
0000
0000
,
0100
0000
0000
0000
0000
0000
0000
0000
0000
0000
0000
0000
0000
0000
0000
0010
1000
0000
0000
0000
0000
0000
0000
0000
0000
0000
0000
0000
0000
0000
0000
0000
1100
0000
0000
0000
0000
0000
0000
0000
0000
0000
0000
0000
0000
0000
0000
0000
0001
0000
0000
0000
0000
0000
0010
0000
0000
0000
0000
0000
1000
0000
0000
0000
0000
0000
0001
0000
0000
0000
0000
0000
0010
0000
0000
0000
0000
0000
1000
0000
0000
0000
0000
0000
0001
0000
0000
0000
0000
0000
0010
0000
0000
0000
0000
0000
1100
0000
0000
0000
0000
0000
0000
0000
0000
0000
0000
0000
0000
0000
0000
0000
0000
0000
0000
0000
0000
0000
0000
0000
0100
0000
0000
0000
0000
0000
0000
0000
0000
0000
0000
0000
0000
0000
0000
0000
0000
0000
0000
0000
0000
0000
0000
0000
0100
0000
0000
0000
0000
0000
0000
0000
0000
0000
0000
0000
0000
0000
0000
0000
0000
0000
0000
0000
0000
0000
0000
0000
0100
0000
0000
0000
0000
0000
0000
0000
0000
0000
0000
0000
0000
0000
0000
0000
0000
0000
0000
0000
0000
0000
0000
0000
,
0100
0000
0001
0010
1100
0000
0000
0000
0100
0000
0000
0000
0100
0000
0001
0010
1100
0000
0000
0000
0100
0000
0000
0000
0100
0000
0001
0010
1100
0000
0000
0000
,
0100
0000
0000
0000
0100
0000
0001
0010
1100
0000
0000
0000
0100
0000
0001
0010
1100
0000
0000
0000
0100
0000
0000
0000
0100
0000
0000
0000
0100
0000
0000
0000
,
0100
0000
0001
0010
1100
0000
0000
0000
0100
0000
0000
0000
0100
0000
0001
0010
1100
0000
0000
0000
0100
0000
0000
0000
0100
0000
0001
0010
1100
0000
0000
0000
,
0100
0000
0000
0000
0100
0000
0001
0010
1100
0000
0000
0000
0100
0000
0001
0010
1100
0000
0001
0000
0110
0000
0000
0000
0100
0000
0000
0000
0100
0000
0000
0000
,
0100
0000
0001
0010
1100
0000
0000
0000
0100
0000
0000
0000
0100
0000
0001
0010
1100
0000
0001
0000
0110
0000
0000
0000
0100
0000
0001
0010
1100
0000
0000
0000
,
0100
0000
0000
0000
0100
0000
0001
0010
2100
0000
0000
0000
3100
0000
0001
0010
1100
0000
0001
0000
0110
0000
0000
0000
0100
0000
0000
0000
0100
0000
0000
0000
,
0100
0000
0000
0000
0000
0000
0000
0000
0000
0000
0000
0000
0001
0000
0000
0000
0000
0000
0010
0000
0000
0000
0000
0000
1100
0000
0000
0000
0000
0000
0000
0000
0000
0000
0000
0000
0000
0000
0000
0000
0000
0000
0000
0000
0000
0000
0000
0000
0110
0000
0000
0000
0000
0000
0000
0000
0000
0000
0000
0000
0010
0000
0000
0000
0000
0000
0000
0000
0000
0000
0000
0000
0010
0000
0000
0000
0000
0000
0000
0000
0000
0000
0000
0000
0010
0000
0000
0000
0000
0000
0000
0000
0000
0000
0000
0000
1101
0000
0000
0000
0000
0000
0000
0000
0000
0000
0000
0000
0000
0000
0000
0000
1101
0000
0000
0000
0000
0000
0000
0000
0000
0000
0000
0000
0000
0000
0000
0000
1101
0000
0000
0000
0000
0000
0000
0000
0000
0000
0000
0000
0000
0000
0000
0000
1101
0000
0000
0000
0000
0000
0000
0000
0000
0000
0000
0000
0000
0000
0000
0000
0000
0000
0000
0000
0000
0000
0000
0000
0000
0000
0000
0000
0000
0000
0000
0000
0000
0000
0000
0000
0000
0000
0000
0000
0000
0000
0000
0000
0000
0000
0000
0000
,
2220
0000
3330
1101
1101
1101
1101
0000
0000
2202
0000
3303
,
1100
0000
0001
0000
1020
0000
0000
0000
0100
0000
0000
0000
1000
0000
0000
0000
0130
0000
0001
0010
1100
0000
0000
0000
0100
0000
0000
0000
1010
0000
0000
0000
,
1100
0000
0000
0000
0000
0000
0000
0000
0000
0000
0000
0000
0001
0000
0000
0000
0000
0000
0000
0000
0000
0000
0000
0000
1020
0000
0000
0000
0000
0000
0000
0000
0000
0000
0000
0000
0000
0000
0000
0000
0000
0000
0000
0000
0000
0000
0000
0000
0100
0000
0000
0000
0000
0000
0000
0000
0030
0000
0000
0000
0001
0000
0000
0000
0000
0000
0010
0000
0000
0000
0000
0000
1100
0000
0000
0000
0000
0000
0000
0000
0000
0000
0000
0000
0000
0000
0000
0000
0000
0000
0000
0000
0000
0000
0000
0000
0100
0000
0000
0000
0000
0000
0000
0000
0000
0000
0000
0000
0000
0000
0000
0000
0000
0000
0000
0000
0000
0000
0000
0000
1001
0000
0000
0000
0000
0000
0000
0000
0000
0000
0000
0000
0001
0000
0000
0000
0000
0000
0010
0000
0000
0000
0000
0000
1100
0000
0000
0000
0000
0000
0000
0000
0000
0000
0000
0000
0000
0000
0000
0000
0000
0000
0000
0000
0000
0000
0000
0000
1000
0000
0000
0000
0000
0000
0000
0000
0000
0000
0000
0000
0001
0000
0000
0000
0000
0000
0010
0000
0000
0000
0000
0000
,
1100
0000
0000
0001
0000
0000
1020
0000
0000
0000
0000
0000
0100
0000
0030
0000
0000
0000
1100
0000
0000
0000
0000
0000
0100
0000
0000
0000
0000
0000
1101
0000
0000
0000
0000
0000
1010
0000
0000
1000
0000
0000
1000
0000
0000
1000
0000
0000
,
1111
1111
1111
1111
1111
0000
0110
0000
0000
0000
1111
1111
1111
0000
1111
0000
,
1111
0000
0000
0000
0000
0000
0110
0000
0000
0000
0000
0000
1111
0000
0000
1111
0000
0000
1111
0000
0000
1111
0000
0000
1111
0000
0000
0000
1111
0000
0000
0000
1111
0000
0000
0000
1111
0000
0000
0000
0000
0000
0110
0000
0000
0000
0000
0000
,
1111
1111
1111
1111
1111
0000
0000
0000
1111
0000
0000
0000
1111
0000
0000
0000
,
1011
0000
0000
0000
0000
0000
0100
0000
0000
1010
0000
0000
0101
0000
0000
0000
0000
0000
1000
0000
0000
0010
0000
0000
1000
0000
0000
0000
0000
0000
0100
0000
0000
0001
0000
0000
1100
0000
0000
0001
0010
0000
1000
0000
0010
0000
0000
0000
,
1100
0000
0100
0011
1100
0000
1000
0010
1000
0000
0100
0001
0110
1000
0100
0010
,
1001
0000
0101
0010
1010
0000
0100
0001
1100
0000
1000
0011
0100
0000
1001
0010
,
1100
0000
1010
0001
1010
0100
1001
0001
0110
0100
1001
0000
1101
1000
0011
0000
,
1011
0000
0000
0000
0000
0000
0100
0000
0000
1010
0000
0000
0101
0000
0000
0000
0000
0000
1000
0000
0000
0010
0000
0000
1000
0000
0000
0000
0000
0000
0100
0000
0000
0001
0000
0000
1100
0000
0000
0001
0010
0000
1000
0000
0010
0000
0000
0000
,
1100
0000
0100
0011
1100
0000
1000
0010
1000
0000
0100
0001
0110
1000
0100
0010
,
1001
0000
0101
0010
1010
0000
0100
0001
1100
0000
1000
0011
0100
0000
1001
0010
,
1100
0000
1010
0001
1010
0100
1001
0001
0110
0100
1001
0000
1100
1000
0011
0000
,
0202
0003
0300
0000
2121
3000
0030
0000
0202
0300
0003
0000
2002
0003
3000
0000
,
1101
0000
0110
0000
1001
0000
1100
0000
0011
0000
1100
0000
,
1011
1101
0110
0000
1011
0000
1101
0000
1011
0000
1101
0000
1011
0000
1101
0000
,
1011
1101
0110
0000
1011
0000
1101
0000
1011
0000
1101
0000
1110
0000
0000
1001
,
2002
0000
3003
0000
2121
3000
0030
0000
0202
0300
0003
0000
2002
0003
3000
0000
,
1101
0000
0110
0000
1001
0000
1100
0000
0011
0000
1100
0000
,
1011
1101
0110
0000
1011
0000
1101
0000
1011
0000
1101
0000
1011
0000
1101
0000
,
1011
1101
0110
0000
1011
0000
1101
0000
1011
0000
1101
0000
1011
0000
1101
0000
,
1011
0000
1101
0000
1011
0000
1101
0000
1011
0000
1101
0000
,
1011
0000
1101
0000
1011
0000
0110
0000
0000
0000
0000
0000
;
