#TITLE:Heart of a Dragon;
#SUBTITLE:;
#ARTIST:Dragonforce;
#TITLETRANSLIT:;
#SUBTITLETRANSLIT:;
#ARTISTTRANSLIT:;
#CREDIT:B. Abear;
#BANNER:Bn-Heart.png;
#BACKGROUND:Bg-Heart.png;
#LYRICSPATH:;
#CDTITLE:;
#MUSIC:09 - Heart of a Dragon.ogg;
#OFFSET:-0.326;
#SAMPLESTART:78.990;
#SAMPLELENGTH:19.000;
#SELECTABLE:YES;
#DISPLAYBPM:195.000;
#BPMS:0.000=195.000;
#STOPS:256.000=1.538
,475.000=1.538
;
#BGCHANGES:;
// cache tags:
#FIRSTBEAT:0.000;
#LASTBEAT:1030.000;
#SONGFILENAME:Songs/Dragonforce/Heart of a Dragon/Heart of a Dragon.sm;
#HASMUSIC:1;
#HASBANNER:1;
#MUSICLENGTH:324.388;
// end cache tags

//---------------dance-single - B. Abear----------------
#NOTES:
     dance-single:
     B. Abear:
     Challenge:
     14:
     1.000,1.000,0.493,0.527,1.000,2411.000,160.000,171.000,257.000,5.000:





2002
0000
0000
0000
,
0000
0000
0000
0000
0000
0000
0000
0000
0003
0000
3001
0100
0010
0000
1000
0000
,
2020
0000
0000
0000
,
0000
0000
0000
0000
0000
0000
0000
0000
0030
0000
3010
0100
0001
0000
1000
0000
,
2200
0000
0000
0000
,
0000
0000
0000
0000
0000
0000
0000
0000
0300
0000
3100
0010
0001
0000
0010
0000
,
0022
0000
0000
0000
0000
0000
0000
0000
0000
0000
0003
0000
0031
1000
0001
1000
,
0010
0100
0000
0001
M1M1
0000
1MM1
0000
,
22MM
0000
0000
0000
0000
0000
0000
0000
0000
0000
3000
0000
1300
0010
1000
0010
,
0200
0000
0000
0000
0000
0000
0000
0000
0000
0000
0000
0000
0301
1000
0001
1000
,
0200
0000
0000
0000
0000
0000
0000
0000
0000
0000
0000
0000
0310
0001
0010
0001
,
2000
0000
0000
0000
0000
0000
0000
0000
0000
0000
0000
0000
3001
0100
0001
0100
,
0010
0000
0100
0000
0000
0000
0010
0000
0000
0000
1000
0000
0000
0001
1000
0001
,
1000
0000
0100
0000
0000
0000
0010
0000
0000
0000
0001
0000
0000
1000
0001
1000
,
0001
0000
0101
0101
1001
1001
1100
1100
,
0110
0110
0011
0011
1MM1
0000
M1M0
0000
,
2001
0000
0000
0000
0000
3000
2000
0000
0000
0000
0000
0000
3200
0000
0000
0000
,
0320
0000
0031
0200
0000
0000
0320
0000
,
2030
0000
0000
0000
0000
3000
2000
0000
0000
0000
0000
0000
3002
0000
0000
0000
,
0023
0000
0130
2000
0000
0000
3002
0000
,
0203
0000
0000
0000
0000
0300
0200
0000
0000
0000
0000
0000
0320
0000
0000
0030
,
0020
0000
0000
0230
0000
0000
0302
0000
,
1003
0000
1000
0000
0001
0100
0001
0000
1000
0000
1000
0000
0001
0100
0001
0000
,
1000
0010
0100
0001
0100
0001
1000
0001
0100
0010
1000
0001
1000
0001
0010
0001
,
2000
0000
0000
0000
0000
0000
3020
0000
0000
0000
0000
0000
0230
0000
0000
0300
,
0102
0000
0000
0000
0000
0000
0000
0000
2003
0000
0000
0000
3200
0000
0000
0300
,
0120
0000
0000
0000
0000
0000
0032
0000
0000
0000
0000
0000
0023
0000
0000
0030
,
0210
0000
0000
0000
0000
0000
0000
0000
2300
0000
0000
0000
3002
0000
0000
0003
,
0201
0000
0000
0000
0000
0000
0320
0000
0000
0000
0000
0000
2030
0000
0000
3000
,
1002
0000
0000
0023
0000
0000
0230
0000
,
1300
0000
1000
0000
0001
0010
0001
0000
1000
0000
1000
0000
0001
0010
0001
0000
,
1000
0001
1000
0001
0100
0010
1000
0001
1000
0001
0100
0010
1M0M
0000
0MM0
0000
,
0001
0000
1000
0000
0100
1000
0100
0000
0010
0000
0001
0000
1000
0001
1000
0000
,
0010
0000
0100
0000
0001
0100
0001
0000
1000
0000
0001
0000
1000
0100
1000
0000
,
1100
0000
0100
0000
0010
0001
0010
0000
0100
0000
1000
0000
0001
0100
0001
0000
,
0100
0000
0010
0000
1000
0010
1000
0000
0001
0000
0100
0000
0001
0010
0001
0000
,
0011
0000
0010
0000
0100
1000
0100
0000
1000
0000
0001
0000
1000
0010
1000
0000
,
0010
0000
0100
0000
0010
0100
0010
0000
0100
0000
0001
0000
1000
0001
1000
0000
,
1001
0000
0001
0000
0010
0100
0010
0000
0100
0000
1000
0000
0001
0100
0001
0000
,
0100
0010
0100
0010
1000
0010
1000
0010
0100
0001
1000
0001
0010
0001
0010
0001
,
1000
0000
0100
0000
1000
0001
1000
0000
0010
0000
0100
0000
0001
1000
0001
0000
,
0010
0000
0100
0000
1000
0100
1000
0000
0001
0000
0010
0000
0001
1000
0001
0000
,
0101
0000
0100
0000
0001
0010
0001
0000
1000
0000
0100
0000
0010
0100
0010
0000
,
0001
0000
0100
0000
0010
1000
0010
0000
0100
0000
0001
0000
1000
0100
1000
0000
,
1001
0000
0001
0000
0100
0010
0100
0000
0010
0000
1000
0000
0001
0010
0001
0000
,
1000
0000
0100
0000
0010
0001
0010
0000
0100
0000
1000
0000
0010
0100
0010
0000
,
0110
0000
0100
0000
0001
1000
0001
0000
0010
0000
0100
0000
1000
0001
1000
0000
,
0010
0100
0010
0100
0001
0100
0001
0100
0010
1000
0001
0010
M10M
0000
0000
0000
,
1000
0001
0100
0010
1000
0001
1000
0100
0010
0001
1000
0010
1000
0001
0010
0100
,
1000
0001
0100
0010
0100
0010
1000
0001
1000
0100
0010
0001
0010
0100
1000
0000
,
1100
0000
0100
0010
0001
1000
0001
0100
0010
1000
0010
0100
0001
1000
0100
1000
,
0001
1000
0010
0100
0001
0100
0010
1000
0001
0010
0100
1000
0001
1000
0001
0000
,
0101
0000
0100
0010
1000
0001
0100
0010
1000
0001
1000
0001
0010
0100
1000
0001
,
0010
0001
1000
0100
1000
0001
0100
0010
1000
0001
0010
0100
1000
0001
1000
0000
,
1001
0000
0001
0100
0010
0100
0001
0100
0010
1000
0001
1000
0100
1000
0001
0010
,
0100
1000
0100
1000
0001
1000
0001
1000
0010
0100
0001
0100
0010
0100
0001
0100
,
0010
1000
0001
0010
0100
0010
0001
1000
0001
0010
0100
1000
0001
0100
0001
1000
,
0010
0100
0001
1000
0100
1000
0001
0010
0001
1000
0100
0010
0001
1000
0001
0000
,
0011
0000
0010
0100
1000
0001
0100
0001
1000
0010
0100
0001
0010
0100
1000
0001
,
0010
0001
1000
0010
1000
0001
0100
0001
0100
0010
1000
0001
0010
0100
1000
0000
,
1100
0000
0100
0010
0001
1000
0001
1000
0010
0100
0001
1000
0100
1000
0001
0010
,
0100
1000
0001
1000
0001
0100
0010
1000
0010
0100
0001
1000
0100
0010
0100
1000
,
0001
0010
0001
0010
0001
1000
0001
1000
0010
0100
0001
1000
0100
0010
0100
0010
,
0001
0010
0001
0010
0100
1000
0001
0100
0010
1000
0010
1000
0001
1000
0001
1000
,
1MM1
0000
M004
0M00
00M0
0M00
1003
0010
,
0110
0000
0100
0001
1000
0000
0001
0000
0010
0000
0100
1000
0001
0000
0100
0000
,
0010
0000
0100
0001
1000
0000
0100
0000
0010
0000
0001
0010
M10M
0000
1000
0000
,
0001
0000
0100
0010
1000
0000
0001
0000
1000
0000
0010
0100
0001
0000
1000
0000
,
0100
0000
0010
0001
1000
0000
0001
0000
0010
0000
0100
0000
1100
0000
1000
0000
,
1001
0000
0001
0100
0010
1000
0010
1000
0001
0010
0001
0100
0010
1000
0010
1000
,
0001
0100
0001
0010
0100
1000
0100
1000
0001
0100
0000
0000
0101
0000
0001
0000
,
1000
0100
1000
0000
0001
0000
0010
0000
0100
1000
0100
0000
1100
0000
1000
0000
,
0001
0100
0001
0000
0100
0000
0010
0000
1000
0001
1000
0000
1001
0000
0001
0000
,
1000
0100
1000
0000
0100
0000
0010
0000
0011
0000
0001
0000
1001
0000
1000
0000
,
0010
0100
0010
0000
0100
0000
0001
0000
1000
0001
0010
0100
1000
0000
0001
0000
,
0100
0010
0100
0000
0010
0000
1000
0000
0001
0010
0001
0000
1001
0000
1000
0000
,
0100
0010
0100
0000
0010
0000
0001
0000
1000
0010
1000
0000
1001
0000
0001
0000
,
0100
0001
0100
0000
0001
0000
0100
0000
0001
0100
0001
0000
1000
0100
1000
0100
,
1000
0100
1000
0100
0010
0001
1000
0100
0010
0001
1000
0001
2000
0000
0000
0000
,
0000
0000
3020
0000
0000
0000
0000
0000
0230
0000
0000
0300
0102
0000
0000
0000
,
0000
0000
0000
0000
2003
0000
0000
0000
3200
0000
0000
0300
0120
0000
0000
0000
,
0000
0000
0032
0000
0000
0000
0000
0003
2001
0000
0000
3000
1020
0000
0000
0000
,
0000
0000
0000
0000
0230
0000
0000
0000
0302
0000
0000
0003
2001
0000
0000
0000
,
0000
0000
3200
0000
0000
0000
0000
0000
2300
0000
0000
3000
1020
0000
0000
0000
,
0000
0000
0230
0000
0000
0000
0000
0000
0302
0000
0000
0003
2002
0000
0000
0000
,
0000
0000
0000
0000
0000
0000
0000
0000
0000
0000
3000
0000
0103
0010
0100
0010
,
0100
0001
0100
0001
1000
0001
1000
0001
1000
0100
1000
0100
0020
0000
0000
0000
,
MM31
0000
1000
0000
1000
0000
1000
0010
M10M
0000
0010
0000
0010
0000
0010
0000
,
1M0M
0000
0001
0000
0000
0000
0001
0010
0100
0000
1000
0000
0001
0000
0001
0000
,
MM10
0000
0100
0000
0100
0000
0100
0010
MM01
0000
1000
0000
1000
0000
1000
0000
,
0M1M
0000
0100
0000
0000
0000
0100
0001
1MM0
0000
0001
0000
1000
0001
1000
0001
,
1MM0
0000
0100
0000
0000
0000
0100
0010
MM01
0000
1000
0000
1000
0000
1000
0000
,
0MM1
0000
0010
0000
0000
0000
0010
0001
1MM0
0000
0010
0000
0100
0001
0100
0001
,
M1M0
0000
0010
0000
0010
0000
0010
0000
1M0M
0000
0100
0000
0010
0001
1000
0001
,
0100
0010
1000
0001
0100
0001
1000
0100
1000
0000
1000
0000
0001
0000
0100
0000
,
0010
1000
0010
0000
0100
0000
0001
0000
1000
0100
1000
0000
0001
0000
0010
0000
,
0100
0010
0100
0000
1000
0000
0001
0000
1000
0100
1000
0000
1001
0000
0001
0000
,
0100
0010
0100
0000
0010
0000
1000
0000
0001
0100
0001
0000
1000
0000
0001
0000
,
0010
0001
0010
0000
0100
0000
1000
0000
0001
0100
0001
0000
0101
0000
0100
0000
,
0001
0010
0001
0000
1000
0000
0100
0000
0010
0100
0010
0000
0100
0000
1000
0000
,
0001
1000
0001
0000
0100
0000
0010
0000
1000
0001
1000
0000
1100
0000
0100
0000
,
0010
0001
0010
0000
0100
0000
0010
0000
0001
1000
0001
0000
0100
0010
1000
0001
,
1000
0001
0100
0010
1000
0001
1000
0001
0010
0000
0010
0000
0001
1000
0010
0100
,
0001
1000
0001
0010
0100
1000
0001
0100
0001
1000
0100
0010
0001
1000
0010
0100
,
0010
0100
0001
1000
0001
0010
0100
1000
0100
0010
0001
0000
0011
0000
0010
0100
,
1000
0001
1000
0010
0100
0001
0100
0010
1000
0001
0010
0001
1000
0001
0100
0010
,
1000
0010
0100
0001
1000
0100
0010
0001
1000
0001
1000
0000
1010
0000
0010
0100
,
0001
1000
0010
0100
0001
1000
0001
1000
0100
0010
0001
1000
0100
1000
0001
0010
,
0001
1000
0010
0100
0001
1000
0100
0010
0001
1000
0001
0000
1001
0000
1000
0010
,
0100
0010
1000
0010
0100
0001
1000
0001
0010
0001
1000
0100
0010
0001
0010
0001
,
1000
0001
1000
0001
0100
0010
1000
0000
1M1M
0000
0000
0000
0010
1000
0001
0010
,
0100
0010
0001
1000
0001
0010
0100
1000
0001
0100
0001
1000
0010
0100
0001
1000
,
0100
1000
0001
0010
0001
1000
0100
0010
0001
1000
0001
0000
0011
0000
0010
0100
,
1000
0001
0100
0001
1000
0010
0100
0001
0010
0100
1000
0001
0010
0001
1000
0010
,
1000
0001
0100
0001
0100
0010
1000
0001
0010
0100
1000
0000
1100
0000
0100
0010
,
0001
1000
0001
1000
0010
0100
0001
1000
0100
1000
0001
0010
0100
1000
0001
1000
,
0001
0100
0010
1000
0010
0100
0001
1000
0100
0010
0100
0000
0110
0000
0010
0001
,
1000
0001
1000
0001
0100
0010
1000
0000
1010
0000
0010
1000
0001
0010
0001
0010
,
0100
1000
0001
0100
0010
1000
0010
1000
0001
1000
0001
1000
1MM1
0000
0000
0000
,
0004
1000
0000
0010
0000
1000
0000
0100
0003
0000
0010
0000
0110
0000
0100
1000
,
0001
0000
1000
0000
0010
0000
0100
0001
1000
0000
0010
0000
0100
0000
0010
1000
,
0001
0000
0010
0000
0100
0000
1000
0100
M01M
0000
0001
0000
1000
0000
0010
0100
,
0001
0000
1000
0000
0001
0000
0100
0010
1000
0000
0001
0000
0010
0000
0100
1000
,
0001
0000
1000
0000
0100
0000
0010
0000
0001
1000
0001
1000
0010
1000
0010
1000
,
0100
0010
0100
1000
0001
0100
0010
0100
0001
1000
0001
1000
0010
1000
0010
0000
,
1M1M
0000
0000
0000
1MM1
0000
0000
0000
0011
0000
0001
0000
1000
0100
1000
0000
,
0001
0000
0010
0000
0100
1000
0100
0000
1100
0000
1000
0000
0001
0100
0001
0000
,
0100
0000
0010
0000
1000
0001
1000
0000
1001
0000
0001
0000
1000
0100
1000
0000
,
0100
0000
0010
0000
0011
0000
0001
0000
1001
0000
1000
0000
0010
0100
0010
0000
,
0100
0000
0001
0000
1000
0001
0010
0100
1000
0000
0001
0000
0100
0010
0100
0000
,
0010
0000
1000
0000
0001
0010
0001
0000
1001
0000
1000
0000
0100
0010
0100
0000
,
0010
0000
0001
0000
1000
0010
1000
0000
1001
0000
0001
0000
0100
0001
0100
0000
,
0001
0000
0100
0000
0001
0100
0001
0000
1000
0100
1000
0100
1000
0100
1000
0100
,
0010
0001
1000
0100
0010
0001
1000
0001
2MM0
0000
0000
0000
0000
0000
3020
0000
,
0000
2030
3MM2
0000
,
0023
0000
0230
0000
23MM
0000
0000
3002
,
0000
0203
M32M
0000
,
2030
0000
3002
0000
MM23
0000
0000
0230
,
0000
0000
2300
0000
3MM2
0000
0000
0203
,
0000
0000
0000
0000
0320
0000
0000
0000
4030
0004
0000
0000
0000
0000
0000
0000
,
0000
0000
0000
0000
0000
0000
3000
0003
0100
0010
1000
0001
1000
0001
0100
0010
,
1000
0001
1000
0001
M010
0M00
00M0
0000
0011
0000
0001
0010
0100
0000
1100
0000
,
1000
0001
0100
0000
0110
0000
0010
0000
1010
0000
1000
0001
0010
0000
0011
0000
,
0001
0100
0010
0000
0110
0000
0100
0000
0101
0000
0001
1000
0100
0000
0110
0000
,
0010
0001
1000
0000
1100
0000
0100
0000
0110
0000
0010
0001
1000
0000
1010
0000
,
0010
0100
0001
0000
0101
0000
0100
0000
0110
0000
0010
1000
0002
0000
1013
0000
,
1000
0001
0020
0000
1130
0000
1000
0000
1001
0000
0001
1000
0010
0000
1010
0000
,
1000
0100
0010
0000
0011
0000
0001
0000
1001
0000
1000
0000
0100
0000
0010
0000
,
0001
0000
1000
0000
0010
0000
0100
0000
0001
1000
0100
0010
0001
1000
0010
0100
,
0010
0000
0000
1000
0000
0000
0001
0000
1000
0000
0001
0000
1000
0000
0000
0000
0000
0000
0000
0000
0000
0000
0000
0000
1M2M
0000
0000
0000
0000
0000
0000
0000
0000
0000
0000
0000
1000
0000
0000
0000
0000
0000
0000
0000
0000
0000
0000
0000
,
1000
1030
2MM1
0001
,
3001
0000
0001
0010
0100
0000
0010
0000
MM12
0000
0000
0000
0010
0000
0000
0000
,
0010
0013
M12M
0100
,
0100
0000
0000
0000
0130
1000
0001
1000
0M1M
0000
0100
0000
0000
0000
0001
0000
,
0000
1000
0000
0100
M11M
0010
0000
0001
,
0000
1000
0000
0010
1M1M
1000
1MM1
0001
,
MM11
0000
0010
0000
M11M
0000
0100
0000
1000
0100
0010
0001
1000
0010
0100
0010
,
1000
0001
1000
0100
M01M
0000
0000
0000
0200
0000
1300
0001
1000
0001
0200
0000
,
0000
0000
0301
0000
0200
0000
0000
0300
0002
0000
1003
0100
1000
0100
0020
0000
,
0000
0000
0130
0000
0020
0000
0000
0030
0100
0000
2000
0000
0000
0000
3001
0000
,
0100
0000
0001
0000
0010
0000
0100
0000
1000
0010
0100
0001
1000
0001
0020
0000
,
0000
0000
0130
0000
1000
0000
0001
0000
1000
0100
1000
0000
0001
0100
0001
0100
,
0001
0000
1000
0100
1000
0100
1000
0000
0M01
0000
0000
M010
0000
0000
010M
0000
,
0000
0000
1000
0000
0010
0000
0100
0000
0001
0010
0001
1000
0100
1000
0010
0100
,
0001
1000
0010
0100
0001
1000
0001
0010
M10M
0000
0000
10MM
0000
0000
0MM1
0000
,
0100
0000
0010
0000
1000
0000
0001
0000
2000
0000
3001
0010
0100
1000
0002
0000
,
0103
0010
1000
0001
0020
0000
0031
1000
01M0
0000
0100
0000
01M0
0000
0100
0000
,
M01M
0000
M01M
0000
0100
0000
0100
0000
2000
0000
3001
0100
0010
1000
0020
0000
,
0130
0001
1000
0100
2000
0000
3000
0000
0001
0100
0001
0100
0001
1000
0001
1000
,
0010
0100
0001
1000
0100
0010
0100
1000
0001
0010
0001
0010
0100
0010
0100
0010
,
0001
1000
0010
0100
0001
1000
0100
0010
0100
1000
0100
1000
0001
1000
0001
1000
,
0010
0100
0001
1000
0001
0010
0100
1000
0002
0000
0103
0010
1000
0000
0001
0000
,
0010
0100
0010
0000
0100
0000
1000
0000
0001
0100
0001
0100
0001
1000
0001
1000
,
0001
0100
0001
0100
0001
1000
0001
1000
0200
0000
0310
0001
1000
0001
4000
0000
,
0000
0000
0000
0000
3100
0000
0010
0000
0002
0000
0000
0000
0003
0000
1000
0010
,
0200
0000
0000
0000
40M4
0000
3303
0000
0001
0010
0100
1000
0001
0000
0010
0000
,
0100
1000
0001
0100
0001
1000
0001
0010
0400
0000
0000
0000
4300
0000
3004
0000
,
0203
0000
0000
0000
M3MM
0000
0M00
0000
0010
1000
0001
0100
0001
1000
0100
0010
,
0001
1000
0100
1000
0001
0010
0100
1000
0001
0100
0001
1000
0100
0010
0001
1000
,
0002
0000
0000
0000
0203
0000
0000
0000
0310
1000
0010
1000
0001
1000
0001
1000
,
0001
0010
0001
0010
0100
0010
0100
0010
0001
1000
0001
1000
0010
1000
0010
1000
,
0002
0000
0000
0000
0000
0000
0000
0003
420M
0000
0000
0000
0000
0000
3000
0300
,
0100
0100
0010
0001
2004
0000
0000
0000
,
0000
0000
0003
3000
1000
0000
0001
0000
0100
0010
1000
0001
1000
0100
0010
0001
,
1000
0000
0000
0000
0010
0000
0000
0000
0100
0000
0000
0000
0001
0000
0000
0000
1000
0000
0000
0000
0100
0000
0000
0000
1000
0000
0000
0001
0000
0000
1000
0000
0000
0010
0000
0000
1000
0000
0000
0001
0000
0000
1000
0000
0000
0100
0000
0000
,
0020
0000
0200
0330
4MM4
0000
0MM0
0000
,
0MM0
0MM0
0MM0
0MM0
,
0MM0
0000
0000
0000
0MM0
0000
3003
0000
0100
0010
1000
0001
1000
0001
1000
0001
,
0100
0010
1000
0001
1000
0001
1000
0001
0010
0100
1000
0001
1000
0001
1000
0001
,
0010
0100
1000
0001
1000
0001
1000
0001
0100
0010
1000
0001
0010
0001
1000
0100
,
1000
0001
0100
0001
1000
0100
1000
0000
0001
0010
0001
1000
0100
1000
0001
0100
,
0001
1000
0010
1000
0001
0010
0001
0000
1000
0010
1000
0001
0010
0100
1000
0001
,
0100
0001
1000
0000
0001
0000
0010
0000
0200
0000
0000
0000
0000
0000
4300
0000
,
0000
0000
0000
0000
3002
0000
0000
0003
0201
0000
0000
0000
0000
0000
0302
0000
,
0000
0000
2003
0000
0000
0000
3100
0000
0010
0001
1000
0001
0100
0010
1000
0001
,
0010
0000
0100
0000
1000
0000
0001
0000
0020
0000
0000
0000
0000
0030
0020
0000
,
0000
0030
0010
0000
00M0
0000
0100
0000
1000
0001
0100
0010
0100
0010
0100
0010
,
1000
0010
0100
0001
1000
0010
0100
0001
1000
010M
1000
0000
10MM
0000
1000
010M
,
1000
0000
10MM
0000
1000
010M
1000
0000
0001
M100
0001
0000
M0M1
0000
0001
M100
,
0001
0000
M0M1
0000
0001
M100
0001
0000
1000
001M
1000
0000
1M0M
0000
1000
001M
,
1000
0001
0010
0100
2000
0000
0000
3002
,
0000
0000
0000
0000
0203
0000
0000
0000
0310
1000
0010
1000
0010
1000
0001
1000
,
0001
1000
0001
1000
0100
1000
0100
1000
0001
0010
0001
0010
0001
0010
0100
0010
,
0100
0010
0100
0010
0100
1000
0100
1000
0001
0000
0100
0000
0010
0000
0010
0000
,
0100
0000
0100
0000
0100
0000
0001
0000
1000
0000
0100
0000
0010
0100
1000
0001
,
0100
0010
0100
0001
1000
0100
0010
0001
2000
0000
3002
0000
0023
0000
0230
0000
,
2300
0000
3020
0000
0230
0000
0302
0000
2003
0000
3200
0000
0310
0001
1000
0001
,
0400
0000
0000
0000
0000
0000
M3MM
0000
0000
0010
0000
0000
1000
0000
0001
0000
0010
0000
0100
0000
0000
1000
0000
0000
,
0001
0000
0000
0000
0000
0000
0100
0000
0000
0000
0000
0000
0001
0000
0000
1000
0000
0000
0001
0000
0000
1000
0000
0000
0100
0000
0000
0000
0010
0000
0000
0000
0001
0000
0000
0000
1000
0000
0000
0000
0001
0000
0000
0000
0100
0000
0000
0000
,
0020
0000
0000
0000
0000
0000
0000
0000
0000
0400
0000
0000
0000
0000
0000
0000
0000
0000
0330
0000
0000
0000
0000
0000
0110
0000
0000
0000
0100
0000
0000
0000
0001
0000
0000
0000
1000
0000
0000
0000
0001
0000
0000
0000
0010
0000
0000
0000
,
0001
0000
0000
1000
0000
0000
0010
0000
0000
0100
0000
0000
0001
0000
0000
0000
0000
0000
1000
0000
0000
0100
0000
0000
0010
0000
0000
0000
0001
0000
0000
0000
1000
0000
0000
0000
0001
0000
0000
0000
0010
0000
0000
0000
0100
0000
0000
0000
,
1000
0001
0100
0001
2000
0000
3M0M
0000
M010
0100
0001
1000
0010
0100
0010
0100
,
0001
1000
0001
1000
0100
0010
0001
1000
0004
0000
0000
0000
1003
0100
0010
0001
,
1000
0001
0100
0010
1000
0010
0100
0001
2000
0000
0100
0000
3001
0000
2000
0000
,
0100
0000
3001
0000
2000
0000
3001
0000
1000
0100
0020
0000
0130
0000
1000
0100
,
0020
0130
0020
0130
2000
0010
3001
2000
,
0010
0000
3001
0000
2000
0000
3001
0000
0100
0000
0010
0000
1000
0001
1000
0001
,
1000
0100
0010
0001
0011
0011
0011
0011
,
1001
1001
1001
1001
1010
1010
1010
1010
,
0110
0110
0110
0110
0101
0101
1100
1100
,
0101
0000
0101
0000
1100
0000
1100
0000
1000
0100
0010
0001
1000
0001
0100
0010
,
0100
0001
1000
0100
1000
0001
0010
0100
100M
0000
00M0
0000
M000
0000
000M
0000
,
M000
0M00
00M0
M000
000M
00M0
000M
M000
,
000M
0M00
00M0
M000
0M00
000M
00M0
000M
,
M000
00M0
000M
0M00
000M
M000
0M00
000M
,
M000
000M
00M0
M000
000M
00M0
M000
000M
,
0M00
00M0
M000
0M00
000M
00M0
M000
000M
,
00M0
M000
0M00
000M
2MM2
0003
3001
0001
,
0010
0010
0100
0100
2MM2
0000
3103
2MM2
,
0000
0000
3103
0000
2MM2
0000
0003
0000
3101
0000
0001
0000
1000
0100
1000
0000
,
0001
0000
0010
0000
0100
0010
0100
0000
1000
0000
0001
0000
0100
0001
0100
0000
,
0010
0000
1000
0000
0001
1000
0001
0000
0011
0000
0010
0000
0100
1000
0100
0000
,
0010
0000
0001
0000
1000
0010
1000
0000
0001
0000
0100
0000
0010
0100
0010
0000
,
0100
0000
0001
0000
1000
0100
1000
0000
1100
0000
0100
0000
0010
0001
0010
0000
,
0001
0000
1000
0000
0001
0100
0001
0000
0100
0000
0010
0000
1000
0100
1000
0000
,
0001
0000
0010
0000
0100
1000
0100
0000
2200
0000
0000
0000
0000
0000
3300
0000
,
0220
0000
0000
0000
0000
0000
0330
0000
0010
0001
1000
0001
0100
0010
1000
0001
,
0100
0010
1000
0001
0100
0010
1000
0001
0100
0000
0001
0000
1000
0100
1000
0000
,
0001
0000
0010
0000
0100
0010
0100
0000
1100
0000
1000
0000
0001
0100
0001
0000
,
0100
0000
0010
0000
1000
0010
1000
0000
1001
0000
0001
0000
1000
0000
0001
0010
,
0001
0000
1000
0000
0010
0100
0010
0000
0110
0000
0100
0000
0001
1000
0001
0000
,
1000
0000
0100
0000
0010
0001
0010
0000
MM11
0000
0001
0000
1000
0010
0100
0000
,
M1M1
0000
0001
0000
1000
0100
0010
0000
MM11
0000
0001
0000
0100
0010
1000
0000
,
1M1M
0000
0010
0000
0100
0001
0010
0000
MM11
0000
0001
0000
1000
0100
0010
0000
,
M11M
0000
0100
0000
1000
0001
0100
0000
M1M1
0000
0001
0000
1000
0001
0010
0000
,
M11M
0000
0100
0000
1000
0001
0100
0000
M1M1
0000
0001
0000
0100
0001
0100
0000
,
0001
0000
0100
0000
0001
0100
0001
0000
0100
0000
0001
0000
0100
0001
0100
0000
,
0001
0000
0100
0000
0001
0100
0001
0000
1000
0100
1000
0100
1000
0001
1000
0001
,
1000
0100
1000
0100
1000
0001
1000
0001
0010
0100
1000
0001
0100
0001
1000
0100
,
0010
0001
0010
0100
1000
0001
0100
0001
2000
0000
0000
00M0
0000
0000
0000
000M
,
0000
0000
0000
0M00
0000
0000
0000
00M0
3200
0000
0000
M000
0000
0000
0000
000M
,
0000
0000
0000
00M0
0000
0000
0000
M300
0200
0000
0000
00M0
0000
0000
0000
000M
,
0000
0000
0000
M000
0320
0000
0000
0M30
0012
0000
0000
00M0
0000
0000
0000
M000
,
0000
0000
0000
0M00
0000
0000
0000
00M0
1003
0100
0010
0001
0100
0001
1000
0010
,
0100
0001
1000
0100
1000
0001
0010
0100
1000
0001
0100
0010
0100
0001
1000
0100
,
0010
0001
0010
0100
1000
0001
1000
0010
0100
0001
0100
0001
1000
0001
1000
0001
,
1000
0100
1000
0100
0010
0100
0010
0100
200M
0000
00M0
3000
1MM1
0000
M22M
0000
,
0000
0000
0000
0000
0000
0000
0000
0330
0MM0
0000
0000
0000
0000
0000
0000
0000
;
