#TITLE:The Turning;
#SUBTITLE:The Odyssey (2002);
#ARTIST:Symphony X;
#TITLETRANSLIT:;
#SUBTITLETRANSLIT:;
#ARTISTTRANSLIT:;
#CREDIT:SulferDragon;
#BANNER:The Turning-banner.png;
#BACKGROUND:The Turning-bg.png;
#LYRICSPATH:;
#CDTITLE:!SulferDragon.png;
#MUSIC:06. The Turning.mp3;
#OFFSET:-0.201;
#SAMPLESTART:43.141;
#SAMPLELENGTH:12.260;
#SELECTABLE:YES;
#DISPLAYBPM:143.510:156.900;
#BPMS:0.000=147.970,167.000=163.000,167.500=147.960,183.500=147.620,203.500=156.940,205.000=148.150,237.000=147.710,253.000=147.610,267.000=149.890,269.000=147.950,297.000=147.970,333.250=147.960,363.500=147.450,371.000=148.260,427.000=147.950,602.500=329.000,603.500=148.060,671.000=144.610,677.250=136.450,681.000=144.490;
#STOPS:163.750=0.205
,199.000=0.010
,199.500=0.015
,296.750=0.195
,333.250=0.400
,363.375=0.020
;
#BGCHANGES:;
// cache tags:
#FIRSTBEAT:0.500;
#LASTBEAT:688.500;
#SONGFILENAME:Songs/Astronomic Metal Collection 2/(SulferDragon) The Turning/06. The Turning.sm;
#HASMUSIC:1;
#HASBANNER:1;
#MUSICLENGTH:281.782;
// end cache tags

//---------------dance-single - ----------------
#NOTES:
     dance-single:
     :
     Hard:
     12:
     1.000,1.000,1.000,0.518,1.000,1855.000,382.000,146.000,0.000,24.000:
0000
0000
0000
0000
0000
0000
0020
0030
0000
1000
0000
0000
0100
0000
0000
0020
0030
0000
0001
0000
0000
0100
0000
0000
0020
0030
0000
0001
0000
0000
0020
0030
0000
0100
0000
0000
2000
0000
0000
0000
0000
0000
3002
0000
0000
0010
0000
0000
,
0100
0010
0103
1000
0001
0010
0100
1000
0010
0001
0010
0001
0010
0001
1000
0100
,
1000
0010
0001
1000
0001
0100
0010
0100
0001
1000
0100
0001
0010
1000
0010
0100
,
0011
0011
0100
1000
0001
0010
0100
1000
0010
0001
0010
0001
0010
0001
0100
0010
,
0100
1000
0010
0100
0001
0010
0001
0100
0010
0001
1010
0000
0000
1100
0000
0000
,
1010
0000
1001
0100
0001
0010
0100
1000
0010
0001
0010
0001
0010
0001
1000
0100
,
1000
0010
0001
1000
0001
0100
0010
0100
0001
1000
0100
0001
0010
1000
0010
0100
,
0011
0011
0100
1000
0001
0010
0100
1000
0010
0001
0010
0001
0010
0001
0100
0010
,
0100
1000
0010
0100
0001
0010
0001
1000
0101
0101
1010
0000
0000
1100
0000
0000
,
1010
0000
1001
0000
0000
1100
0000
0000
0000
0000
0020
0000
0000
0000
0000
0000
,
0000
0000
0000
0000
0000
0000
0000
0000
0000
0000
0000
0000
0000
0000
0000
0030
,
0000
0000
0000
0000
0000
0000
0100
0000
0000
0000
0000
0000
0001
0000
0010
0000
0001
0000
0100
0000
0000
1000
0000
0000
0010
0000
0000
0100
0000
0000
0001
0000
0000
0010
0000
0000
0100
0000
0000
1000
0000
0000
0010
0000
0000
0100
0000
0000
,
1000
0100
1000
0010
0100
0010
1000
0100
0010
0100
1000
0010
0100
0001
0010
1000
,
0010
0000
0000
0000
0000
0000
0000
0000
0000
0000
0000
0000
0100
0000
0000
0000
0000
0000
0000
0000
0000
0000
0000
0000
0002
0000
0000
0000
0000
0000
0000
0000
0000
0000
0000
0000
0000
0000
0000
0000
0000
0000
0000
0000
0000
0000
0000
0000
0003
0000
0000
0000
0000
0000
0000
0000
1000
0000
0000
0000
0000
0000
0000
0000
0100
0000
0000
0000
0000
0000
0000
0000
0010
0000
0000
0000
0000
0000
0002
0000
0000
0000
0000
0000
0000
0000
0000
0000
0000
0000
0000
0000
0000
0000
0000
0000
0000
0000
0000
0000
0000
0000
0000
0000
0000
0000
0000
0000
0000
0000
0000
0000
0000
0000
0000
0000
0000
0000
0000
0000
0003
0000
0000
0000
0000
0000
0100
0000
0000
0000
0000
0000
0000
0000
0000
0000
0000
0000
0000
0000
0020
0000
0000
0000
0000
0000
0000
0000
0000
0000
0000
0000
0000
0000
0000
0000
0000
0000
0000
0000
0000
0000
0000
0000
0000
0000
0000
0000
0000
0000
0000
0000
0000
0000
0000
0000
0000
0000
0000
0000
0000
0000
0000
0000
0000
0000
0000
0000
0000
0000
0000
0000
,
0030
0100
0000
0000
2000
0000
0000
0000
0000
0000
3000
0000
0002
0000
0000
0000
0000
0000
0000
0000
0000
0000
0000
0000
0013
0000
0001
0000
0010
0000
0100
0000
,
0001
0010
0100
0010
0100
1000
0001
0100
0010
1000
0200
0000
0300
0000
1000
0010
,
1000
0100
1000
0010
0100
1000
0100
0010
0001
0100
0020
0030
1000
0001
1000
0001
,
0010
0001
2100
0000
0000
0010
0000
0000
0001
0000
0100
0000
0000
0010
0000
0000
,
0001
0000
0000
0010
0000
0000
0001
0000
0100
0000
0000
3010
0001
0100
0010
0100
,
1000
0000
1000
0000
1001
0000
0020
0030
0000
0000
1000
0000
1001
0000
1000
0000
,
0020
0030
0000
0000
1001
0000
1000
0000
1000
0000
0020
0030
0001
0000
1000
0000
,
1000
0000
1000
0000
0021
0030
0000
0000
1000
0000
1000
0000
1001
0000
0020
0030
,
0000
0000
1000
0000
1001
0000
1000
0000
0010
0100
0010
0000
0110
0001
0100
0000
,
1000
0000
1000
0000
1001
0000
0020
0030
0000
0000
1000
0000
1001
0000
1000
0000
,
0020
0030
0000
0000
1001
0000
1000
0000
1000
0000
0020
0030
0001
0000
1000
0000
,
1000
0000
1000
0000
0021
0030
0000
0000
1000
0000
1000
0000
1001
0000
0020
0030
,
0000
0000
1000
0000
1001
0000
1000
0000
0011
1100
0011
0000
0100
0001
0100
0000
,
0011
0000
1100
0001
1000
0000
1100
0001
0020
0030
1100
0001
1000
0000
1100
0001
,
1000
0000
1100
0001
1000
0000
0120
0030
0000
0000
0120
0030
1000
0000
1100
0001
,
1000
0000
1100
0001
0020
0030
1100
0001
1000
0000
1100
0001
1000
0000
1100
0001
,
1000
0000
0120
0030
0000
0000
0120
0030
1000
0000
1100
0001
1000
0000
1100
0001
,
0020
0030
1100
0001
1000
0000
1100
0001
1000
0000
1100
0001
1000
0000
0120
0030
,
0000
0000
0120
0030
1000
0000
1100
0001
1000
0000
1100
0001
0020
0030
1100
0001
,
1000
0000
1100
0011
1100
0000
1100
0011
1100
0000
0022
0033
0000
0000
0022
0033
,
1001
1000
1010
1000
1000
1000
1010
1000
,
1000
1000
1010
1000
1000
1000
1010
1000
,
1000
1000
1010
1000
1000
1000
1010
1000
,
1000
0000
1000
0000
1010
0000
1000
0000
1000
0000
1000
0000
1010
0000
1000
0100
,
1001
1000
1010
1000
1000
1000
1010
1000
,
1000
1000
1010
1000
1000
1000
1010
1000
,
1000
0000
1000
0000
1010
0000
1000
0000
1100
0011
0100
0001
0010
1000
0010
0100
,
1100
0000
0000
0000
1010
0000
0000
0000
0101
0000
0000
0000
0011
0000
0100
1000
,
0001
0010
0100
1000
0010
0001
0010
0001
0010
0001
1000
0100
1000
0010
0001
1000
,
0001
0100
0010
0100
0001
1000
0100
0001
0010
1000
0010
0100
0010
0001
0100
1000
,
0001
0010
0100
1000
0010
0001
0010
0001
0010
0001
0100
0010
0100
1000
0010
0100
,
0001
0010
0001
0100
0010
0001
1010
0000
0000
1100
0000
0000
1010
0000
1001
0100
,
0001
0010
0100
1000
0010
0001
0010
0001
0010
0001
1000
0100
1000
0010
0001
1000
,
0001
0100
0010
0100
0001
1000
0100
0001
0010
1000
0010
0100
0011
0011
0100
1000
,
0001
0010
0100
1000
0010
0001
0010
0001
0010
0001
0100
0010
0100
1000
0010
0100
,
0001
0010
0101
0101
0101
0101
1010
0000
0000
1100
0000
0000
1010
0000
1001
0000
,
0000
1100
0000
0000
1010
0000
0000
0101
0000
0000
1001
0000
1100
0000
0010
0100
,
1010
0001
1000
0010
0100
0000
0100
0000
0110
0000
0002
0003
0000
0000
0100
0000
,
0110
0000
0100
0000
0002
0003
0000
0000
0110
0000
0100
0000
0100
0000
0002
0003
,
1000
0000
0100
0000
0100
0000
0100
0000
1002
0003
0000
0000
0100
0000
0100
0000
,
0110
0000
0002
0003
0000
0000
0100
0000
0110
0000
0100
0000
0001
1000
0001
0000
,
0011
1000
0010
0000
0100
0000
0100
0000
0110
0000
0002
0003
0000
0000
0100
0000
,
0110
0000
0100
0000
0002
0003
0000
0000
0110
0000
0100
0000
0100
0000
0002
0003
,
1000
0000
0100
0000
0100
0000
0100
0000
1002
0003
0000
0000
0100
0000
0100
0000
,
0110
0000
0002
0003
0000
0000
0100
0000
0110
0000
0100
0000
0011
1100
0011
0000
,
1000
0010
1000
0000
0011
0000
0100
0000
1000
0000
0010
0000
0000
0000
0100
0000
,
1100
1001
0000
1000
0100
0010
0001
0100
,
1000
0001
0000
0101
0000
1010
0000
0001
,
0010
0000
0000
0000
0000
0000
1100
0000
0000
0000
0000
0000
1100
0000
0000
0000
0000
0000
0010
0000
0000
0000
0000
0000
0100
0000
0000
0000
0000
0000
1000
0000
0000
0000
0000
0000
0010
0000
0100
0000
0010
0000
0100
0000
0000
0001
0000
0000
,
0010
0001
1000
0010
1100
0000
0000
0000
1000
0000
0000
0000
1000
0000
0000
0000
,
1010
0101
1000
0110
1000
0101
1000
0011
,
1000
0000
0000
0000
0000
0000
1002
0000
0000
0000
0000
0003
1100
0000
0000
0012
0000
0000
1000
0000
0000
0000
0000
0003
,
1100
0000
0000
0012
0000
0000
1000
0000
0000
0010
0000
0003
1100
0000
0000
0012
0000
0000
1000
0000
0000
0000
0000
0003
,
1010
0000
0110
0100
0101
0100
0100
0100
,
0101
0100
0100
0100
0101
0100
0100
0100
,
0101
0100
0100
0100
0101
0100
0100
0100
,
0101
0100
0100
0100
0101
0100
0100
0100
,
0100
0000
0100
0010
1100
0000
0100
0000
0101
0000
0100
0000
0100
0000
0100
0000
,
0101
0100
0100
0100
0101
0100
0100
0100
,
0101
0000
0100
0000
0100
0000
0100
0000
0101
0000
0100
0000
1100
0011
0100
0001
,
0010
1000
0010
0100
1100
0000
0000
0000
1010
0000
0000
0000
0101
0000
0000
0000
,
0011
0000
0100
1000
0001
0010
0100
1000
0010
0001
0010
0001
0010
0001
1000
0100
,
1000
0010
0001
1000
0001
0100
0010
0100
0001
1000
0100
0001
0010
1000
0010
0100
,
0011
0011
0100
1000
0001
0010
0100
1000
0010
0001
0010
0001
0010
0001
0100
0010
,
0100
1000
0010
0100
0001
0010
0001
0100
0010
0001
1010
0000
0000
1100
0000
0000
,
1010
0000
1001
0100
0001
0010
0100
1000
0010
0001
0010
0001
0010
0001
1000
0100
,
1000
0010
0001
1000
0001
0100
0010
0100
0001
1000
0100
0001
0010
1000
0010
0100
,
0010
0001
0100
1000
0001
0010
0100
1000
0010
0001
0010
0001
0010
0001
0100
0010
,
0100
0000
0000
0000
1000
0000
0000
0000
0010
0000
0000
0000
0100
0000
0000
0000
0001
0000
0000
0000
0010
0000
0000
0000
0001
0000
0000
0000
1000
0000
0000
0000
0101
0000
0000
0000
0101
0000
0000
0000
1010
0000
0000
0000
0000
0000
0000
0000
0000
0000
0000
0000
1100
0000
0000
0000
0000
0000
0000
0000
0000
0000
0000
1010
,
0000
0000
1001
0000
0000
1100
0100
0010
1000
0001
0100
0010
1000
0100
1000
0100
,
1000
0100
0001
0010
0001
0100
0010
1000
0010
0100
0001
0100
0010
0001
0100
0010
,
1000
0100
1000
0010
1000
0001
0100
0010
1000
0001
0100
0010
1000
0100
1000
0100
,
1000
0100
0001
0010
0001
0100
0010
1000
0100
0001
0100
0010
0101
0101
1010
0000
,
0000
1100
0000
0000
1010
0000
1001
0010
1000
0001
0100
0010
1000
0100
1000
0100
,
1000
0100
0001
0010
0001
0100
0010
1000
0010
0100
0001
0100
0010
0001
0100
0010
,
1000
0100
1000
0010
1001
1001
0100
0010
1000
0001
0100
0010
1000
0100
1000
0100
,
1000
0100
0001
0010
0001
0100
0010
1000
0100
0001
0100
0010
0101
0101
1010
0000
,
0000
1100
0000
0000
1010
0000
1001
0000
0000
1100
0000
0000
1010
0000
0000
0101
,
0000
0000
0000
0000
0000
0000
0000
0000
1001
0000
0000
0000
0000
0000
0000
0000
0000
1100
0000
0000
0000
0000
0000
0000
0000
0000
0000
0000
1010
0000
0000
0000
0000
0000
0000
0000
0000
0000
0000
0000
0000
0000
0000
0000
0000
0000
0000
0000
0202
0000
0000
0000
0000
0000
0000
0000
0000
0000
0000
0000
0000
0000
0000
0000
,
0000
0000
0000
0000
0000
0000
0000
0000
0000
0000
0000
0000
0000
0000
0000
0000
0000
0000
0000
0000
0000
0000
0000
0000
0000
0000
0000
0000
0000
0000
0000
0000
0000
0000
0000
0000
0000
0000
0000
0000
0000
0000
0000
0000
0000
0000
0000
0000
0000
0000
0000
0000
0000
0000
0000
0000
0000
0000
0000
0000
0000
0000
0000
0000
0000
0000
0000
0000
0000
0000
0000
0000
0000
0000
0000
0000
0000
0000
0000
0000
0000
0000
0000
0000
0000
0000
0000
0000
0000
0000
0000
0000
0000
0000
0000
0000
0000
0000
0000
0000
0000
0000
0000
0000
0000
0000
0000
0000
0000
0000
0000
0000
0000
0000
0000
0000
0000
0000
0000
0000
0000
0000
0000
0000
0000
0000
0000
0000
0303
0000
0000
0000
0000
0000
0000
0000
0000
0000
0000
0000
0000
1100
0000
0000
0000
0000
0000
0000
0000
0000
0000
0000
0001
0000
0000
0000
0000
0000
0000
0000
0010
0000
0000
0000
0000
0000
0000
0000
0100
0000
0000
0000
0000
0000
0000
0000
1000
0000
0000
0000
0000
0000
0000
0000
0010
0000
0000
0000
0000
0000
0000
0000
,
0001
0000
0000
0000
0000
0000
0000
0000
0100
0000
0000
0000
0000
0000
0000
0000
0000
0000
0000
0000
0000
0000
0000
0000
0010
0000
0000
0000
0000
0000
0000
0000
0100
0000
0000
0000
0000
0000
0000
0000
0001
0000
0000
0000
0000
0000
0000
0000
1000
0000
0000
0000
0000
0000
0100
0000
0000
0000
0000
0000
1000
0000
0000
0000
0000
0000
0000
0000
0000
0000
0000
0000
0001
0000
0000
0000
0000
0000
0000
0000
0000
0000
0000
0000
1000
0000
0000
0000
0000
0000
0000
0000
0000
0000
0000
0000
0100
0000
0000
0000
0000
0000
0000
0000
0000
0000
0000
0000
0010
0000
0000
0000
0000
0000
0000
0000
0000
0000
0000
0000
0001
0000
0000
0000
0000
0000
0000
0000
0000
0000
0000
0000
0010
0000
0000
0000
0000
0000
0000
0000
0000
0000
0000
0000
0201
0000
0000
0000
0000
0000
0000
0000
0000
0000
0000
0000
0000
0000
0000
0000
0000
0000
0000
0000
0000
0000
0000
0000
0000
0000
0000
0000
0000
0000
0000
0000
0000
0000
0000
0000
0000
0000
0000
0000
0000
0000
0000
0000
0000
0000
0000
0000
,
2310
3000
0200
0300
0020
0000
0000
0000
1230
0300
0020
0030
0002
0000
0000
0000
,
1023
0000
0030
0000
0002
0000
0000
0000
0000
0000
0000
0000
0203
0000
0300
0000
0021
0000
0030
0000
2000
0000
3000
0000
0100
0002
0000
0000
0000
0000
0000
0000
,
0213
0300
2000
3000
0020
0000
0000
0000
1130
0010
0100
0010
0001
0100
1000
0100
,
0011
0100
1000
0100
0001
0100
1000
0100
0011
0100
1000
0100
0001
1000
0100
1000
,
0011
0100
0001
0100
0010
1000
0100
1000
0011
0100
0001
0100
0010
1000
0100
1000
,
0011
0100
0001
0100
0010
1000
0100
1000
0011
0100
0001
0100
0010
1000
0100
1000
,
0011
0100
0001
0100
0010
1000
0100
1000
0011
0100
0001
0100
0010
0001
0100
0010
,
1001
0010
0100
0001
1000
0100
1010
1100
1010
0001
1000
0010
1001
0100
0010
1000
,
0011
0100
0011
1000
0100
0010
1100
0001
0010
0100
0011
1000
0011
0100
0010
1000
,
0011
0100
0001
0010
1100
0010
1100
0001
0010
0100
0011
1000
0001
0100
0011
1000
,
0011
0100
0001
0010
1100
0010
1000
0001
1100
0010
1100
0010
0001
0100
0011
1000
,
0010
0000
0000
0100
0000
0000
0011
0000
0000
1000
0000
0000
0011
0000
0000
0100
0000
0000
1000
0000
0000
0001
0000
0000
1100
0000
0000
0000
1010
0000
0000
0000
0011
0000
0000
0000
1002
0000
0000
0000
0000
0000
0000
0000
0000
0000
0000
0000
,
0000
0000
0000
0000
0113
1100
1020
0000
,
0000
1230
0000
2301
,
0000
0000
0000
0000
3011
1010
1200
0000
,
0000
0321
0000
1032
,
0000
0000
0000
0000
0113
1100
1020
0000
,
0000
1230
0000
2301
,
0000
0000
0000
0000
3011
1010
1200
0000
,
0000
0000
0000
0000
0321
0000
0000
0000
0000
0000
0000
0000
0130
0001
1100
0010
,
0100
1000
0101
0010
1000
0100
0011
0100
0001
0010
0101
1000
0010
0001
1010
0100
,
0010
1000
0110
1000
0010
0100
1001
0100
0001
0010
0101
1000
0010
0001
1100
0010
,
1000
0100
0011
0100
0001
1000
0011
0100
0001
0010
0101
1000
0010
0100
1001
0100
,
1000
0001
0110
0001
0010
0100
0011
0100
0001
0010
0100
1000
0100
0001
1100
0010
,
0100
1000
0101
0010
1000
0100
0011
0100
0001
0010
0101
1000
0010
0001
1010
0100
,
0010
1000
0110
1000
0010
0100
1001
0100
0001
0010
0101
1000
0010
0001
1100
0010
,
1000
0100
1010
0100
0001
1000
0011
0100
0001
0010
0101
1000
0010
0100
0011
0100
,
1000
0001
1100
0001
0010
0100
0011
0100
0001
0010
0101
1000
0210
0000
0000
0000
,
0001
0000
0000
0000
0000
0000
2300
3000
0201
0300
0020
0030
0002
0000
0000
0000
,
0010
0000
2003
3200
0320
0000
0000
0000
0100
0000
0032
0023
0230
0000
0000
0000
,
0001
0000
0000
0000
0000
0000
2300
3000
0201
0300
0020
0030
0002
0000
0000
0000
,
0100
0000
0100
0213
,
0001
0000
0000
0000
0001
0000
2300
3000
0201
0300
0020
0030
0102
0000
0000
0000
,
0010
0000
2003
3200
1320
0000
0000
0000
0100
0000
0032
0023
1230
0000
0000
0000
,
0001
0000
0000
0000
0001
0000
2300
3000
0201
0300
0020
0030
1002
0000
0000
0000
,
0100
0000
0000
0000
0000
0000
0000
0000
0000
0000
0000
0000
0100
0000
0000
0000
0000
0000
0000
0000
0000
0103
0000
1000
0000
0100
0000
1000
0000
0000
0100
0000
0000
1000
0000
0000
0210
0000
0000
0000
0000
0000
0000
0000
0000
0000
0000
0000
,
0010
0000
0000
0000
0000
0000
0310
0001
0110
0001
2000
0000
0000
0000
3001
0010
,
1100
0001
0010
1000
0100
1000
0010
1000
0101
0010
0100
0010
1000
0100
0010
0001
,
1100
0010
0100
0010
0001
0100
0010
0001
1010
0100
0010
0100
0010
0001
1000
0100
,
0021
0000
0000
0000
1000
1000
1032
0000
1000
1000
1203
0000
0001
0000
0000
0000
,
0010
0000
1300
0010
1000
0001
0020
0000
0100
0000
1030
0001
1000
0010
0200
0000
,
0001
0000
0000
0000
0000
0000
0000
0000
0000
0301
0010
0100
1001
0010
0200
0000
0000
0000
0000
0000
0000
0000
0000
0000
,
0001
0000
0000
0000
0000
0000
0000
0000
0000
0000
0000
0000
0300
0000
0000
0000
1000
0000
0000
0000
0000
0000
0000
0000
0100
0000
0000
0000
0000
0000
0000
0000
0010
0000
0000
0000
0000
0000
0000
0000
0001
0000
0000
0000
0000
0000
0000
0000
2000
0000
0000
0000
0000
0000
0000
0000
0000
0000
0000
0000
0000
0000
0000
0000
0000
0000
0000
0000
0000
0000
0000
0000
0000
0000
0000
0000
0000
0000
0000
0000
0000
0000
0000
0000
0000
0000
0000
0000
0000
0000
0000
0000
0000
0000
0000
0000
0100
0000
0000
0000
0000
0000
0000
0000
0000
0000
0000
0000
0000
0000
0000
0000
0000
0000
0000
0000
0000
0000
0000
0000
0000
0000
0000
0000
0000
0000
3002
0000
0000
0000
0000
0000
0000
0000
0000
0000
0000
0000
0000
0000
0000
0000
0000
0000
0000
0000
0000
0000
0000
0000
0000
0000
0000
0000
0000
0000
0000
0000
0000
0000
0000
0000
0000
0000
0000
0000
0000
0000
0000
0000
0000
0000
0000
0000
0000
0000
0000
0000
0000
0000
0000
0000
0000
0000
0000
0000
0000
0000
0000
0000
0000
0000
,
0100
0000
0000
0000
1003
1000
1000
0000
1001
0010
0100
1000
0210
0000
0000
0000
,
2310
3000
0200
0300
0020
0000
0000
0030
0201
0300
0020
0030
0002
0000
0000
0000
,
1000
0000
0203
0000
0000
0000
0320
0030
2001
3000
0200
0300
0002
0000
0000
0000
,
2013
3000
0200
0300
0020
0000
0000
0000
1130
0010
0100
0010
0001
0100
1000
0100
,
0011
0100
1000
0100
0001
0100
1000
0100
0011
0100
1000
0002
0000
0000
0000
0000
,
1003
0000
0000
0000
0000
0000
0000
0000
0100
0000
0000
0000
0000
0000
0000
0000
0000
0000
0000
0000
0001
0000
0000
0000
1000
0000
0000
0020
0000
0000
0000
0000
0000
0000
0000
0000
0000
0000
0000
0000
0000
0000
0000
0000
0000
0000
0000
0000
0000
0000
0000
0000
0000
0000
0000
0000
0000
0000
0000
0000
0000
0000
0000
0000
0000
0000
0000
0000
0000
0000
0000
0000
0000
0000
0000
0000
0000
0000
0000
0000
0000
0000
0000
0000
0000
0000
0000
0000
0000
0000
0000
0000
0000
0000
0000
0000
1000
0000
0000
0000
0000
0000
0000
0000
0000
0000
0000
0000
0000
0000
0000
0000
0000
0000
0000
0000
0000
0000
0000
0000
0000
0000
0000
0000
0000
0000
0000
0000
0000
0000
0000
0000
0000
0000
0000
0000
0000
0000
0000
0000
0000
0000
0000
0000
0000
0000
0000
0000
0000
0000
0000
0000
0000
0000
0000
0000
0000
0000
0000
0000
0000
0000
0000
0000
0000
0000
0000
0000
0000
0000
0000
0000
0000
0000
0000
0000
0000
0000
0000
0000
0000
0000
0000
0000
0000
0000
0000
0000
0000
0000
0000
0000
,
1000
0000
0000
0000
0030
0001
2000
0000
0010
3200
0000
0000
0302
0000
0000
0000
,
0010
0000
0000
0000
0000
0000
0000
0000
0000
0000
0000
0000
0000
0000
0000
0000
0000
0000
0000
0000
0000
0000
0000
0000
0010
0000
0000
0000
0000
0000
0003
0000
0000
0000
0100
0000
0010
0000
0001
0000
0010
0000
0100
0000
0000
1000
0000
0000
,
0011
0000
0000
0100
0000
0000
1000
0000
0000
0001
0000
0000
1100
0000
0000
1001
0000
0000
1010
0000
0000
0100
0000
0000
1020
0000
0000
1000
0000
0000
1000
0000
0000
0000
0000
0000
0030
0000
0000
0000
0000
0000
0000
0000
0100
0000
0000
0000
,
0001
0000
0000
0000
0000
0000
0000
0000
0000
0000
0000
0000
0000
0000
0000
0000
0010
0000
0000
0000
0000
0000
0000
0000
0000
0000
0000
0000
0000
0000
0000
0000
0000
0000
0000
0000
0000
0000
0000
0000
0100
0000
0000
0000
0000
0000
0000
0000
0000
0000
0000
0000
0000
0000
0000
0000
0000
0000
0000
0000
0010
0000
0000
0000
0000
0000
1000
0000
0000
0000
0000
0000
0100
0000
0000
0000
0000
0000
0010
0000
0000
0000
0000
0000
0001
0000
0000
0000
0000
0000
0010
0000
0000
0000
0000
0000
1100
0000
0000
0000
0000
0000
0000
0000
0000
0000
0000
0000
0001
0000
0000
0000
0000
0000
0000
0000
0000
0000
0000
0000
0100
0000
0000
0000
0000
0000
0000
0000
0000
0000
0000
0000
0010
0000
0000
0000
0000
0000
0000
0000
0000
0000
0000
0000
1000
0000
0000
0000
0000
0000
0000
0000
0010
0000
0000
0000
0000
0000
0000
0000
0100
0000
0000
0000
0000
0000
0000
0000
0001
0000
0000
0000
0000
0000
0000
0000
0000
0000
0000
0000
0010
0000
0000
0000
0000
0000
0000
0000
0000
0000
0000
0000
,
0101
0010
1000
0100
0010
0001
1000
0100
1010
0001
1000
0010
0100
1000
0100
0010
,
1100
0000
0001
0000
1000
0000
0100
0000
1000
0000
0010
0000
0100
0000
0010
0001
1100
0000
0001
0010
0100
0000
1000
0000
0010
0000
0100
0010
0001
0000
0010
0000
,
1001
0100
0010
0000
0001
0000
0100
0000
1001
0100
1010
0000
1100
0001
0010
0000
1001
0010
0100
0000
0001
0000
0000
0000
0000
0000
0000
0000
0100
0000
1000
0000
,
0001
0010
0100
1000
0010
0001
0010
0001
0010
0001
1000
0100
1000
0010
0001
1000
,
0001
0100
0010
0100
0001
1000
0100
0001
0010
1000
0010
0100
0011
0011
0100
1000
,
0001
0010
0100
1000
0010
0001
0010
0001
0010
0001
0100
0010
0100
1000
0010
0100
,
0001
0010
0001
0100
0010
0001
1010
0000
0000
1100
0000
0000
1010
0000
1001
0100
,
0001
0010
0100
1000
0010
0001
0010
0001
0010
0001
1000
0100
1000
0010
0001
1000
,
0001
0100
0010
0100
0001
1000
0100
0001
0010
1000
0010
0100
0010
0001
0100
1000
,
0001
0010
0100
1000
0010
0001
0010
0001
0010
0001
0100
0010
0100
1000
0010
0100
,
0001
0010
0001
1000
0101
0101
1010
0000
0000
1100
0000
0000
1010
0000
1001
0000
,
0000
1100
0000
0000
1010
0000
0000
0101
0000
0000
1001
0000
1100
0000
0000
1010
,
0001
0010
1000
0001
0100
0010
1000
0001
0100
0010
1000
0100
1000
0100
1000
0100
,
0001
0010
0001
0100
0010
1000
0010
0100
0001
0100
0010
0001
0100
0010
1000
0100
,
1000
0010
1001
1001
0100
0010
1000
0001
0100
0010
1000
0100
1000
0100
1000
0100
,
0001
0010
0001
0100
0010
1000
0100
0001
0100
0010
1000
0001
1010
0000
0000
1100
,
0000
0000
1010
0000
1001
0010
1000
0001
0100
0010
1000
0100
1000
0100
1000
0100
,
0001
0010
0001
0100
0010
1000
0010
0100
0001
0100
0010
0001
0100
0010
1000
0100
,
1000
0010
1000
0001
0100
0010
1000
0001
0100
0010
1000
0100
1000
0100
1000
0100
,
0001
0010
0001
0100
0010
1000
0100
0001
0110
0101
0101
0101
1010
0000
0000
1100
,
0000
0000
1010
0000
1001
0000
0000
1100
0000
0000
1010
0000
0000
0101
0000
0000
,
1001
0000
1100
0000
0000
2020
0000
0000
0000
0000
0000
0000
0000
0000
0000
0000
,
0000
0000
0000
3030
1010
0000
0000
1100
0000
0000
1010
0000
1001
0000
0000
1100
,
0000
0000
0000
0000
0000
0000
1010
0000
0000
0000
0000
0000
0110
0000
0000
0000
0001
0000
0000
0000
0100
0000
0000
0000
1001
0000
0000
0000
0100
0000
0000
0000
0010
0000
0000
0000
1000
0000
0000
0011
0000
0000
0011
0000
0000
0100
0000
0000
,
0001
0010
1001
0000
0000
0000
0000
0000
0000
0000
0000
0000
0000
0000
0000
0000
;
