#TITLE:Yuna's Theme;
#SUBTITLE:;
#ARTIST:植松伸夫;
#TITLETRANSLIT:;
#SUBTITLETRANSLIT:;
#ARTISTTRANSLIT:Nobuo Uematsu;
#CREDIT:;
#BANNER:yuna.jpg;
#BACKGROUND:yunabg.jpg;
#LYRICSPATH:;
#CDTITLE:;
#MUSIC:yunas_theme.MP3;
#OFFSET:0.000;
#SAMPLESTART:85.714;
#SAMPLELENGTH:12.000;
#SELECTABLE:YES;
#BPMS:0.000=70.000;
#STOPS:;
#BGCHANGES:;
// cache tags:
#FIRSTBEAT:0.000;
#LASTBEAT:184.000;
#SONGFILENAME:Songs/longs versions/Yuna's Theme/yunastheme.sm;
#HASMUSIC:1;
#HASBANNER:1;
#MUSICLENGTH:210.782;
// end cache tags

//---------------dance-single - ----------------
#NOTES:
     dance-single:
     :
     Hard:
     1:
     0.279,0.306,0.019,0.517,0.000,298.000,4.000,109.000,0.000,9.000:
1000
0100
0010
0001
0010
0100
1000
0010
,
0020
0000
0000
2030
0100
0001
0010
0100
,
3010
0100
0010
0001
0010
0001
0010
0100
,
1000
0002
0000
0000
0000
0000
0003
0010
,
1000
0100
0010
0100
1000
0220
0000
0000
,
0330
0022
0033
2000
3001
0200
1300
0020
,
0031
0200
0310
0002
1003
0100
0010
0001
,
0100
0020
1000
0100
0001
0100
1000
0001
,
1030
0001
1000
0001
0100
0010
1000
0100
,
0001
0010
0100
1000
0010
0001
0100
1000
,
0100
0010
0100
1000
0010
0200
0010
0020
,
0000
0000
0000
0000
0000
0330
1000
0001
,
0001
0010
0100
2000
0000
0002
3000
0200
,
0003
0020
0300
0100
0001
1000
0100
0001
,
0130
0100
0000
0020
0000
0200
0030
0002
,
0300
2000
0023
0230
3010
0010
1000
0010
,
0001
0010
0301
2000
0000
0002
3000
0020
,
0003
0200
2030
3020
0300
0100
0001
0100
,
1000
0030
0000
0200
0000
0020
0300
2000
,
0030
0200
3000
0001
0010
0010
1000
1000
,
0001
0301
1000
0010
0001
0100
0010
0100
,
1000
0100
1000
0010
0001
0010
1000
0100
,
0001
0020
0000
0000
0000
1030
0010
0100
,
1000
0100
0010
0001
0010
0200
0000
0001
,
0000
1300
0100
0010
0001
0010
0001
1000
,
0001
0010
0100
1000
0100
0021
0000
0001
,
1000
0130
2000
3100
0020
0031
0200
1300
,
0020
0031
0200
0310
0002
0013
2000
3100
,
0020
0000
0000
0031
1000
0100
0010
0100
,
1000
0200
1000
0010
0001
0010
1300
0100
,
1000
0200
0301
2000
3010
0200
0000
0000
,
0000
0320
0230
0302
0203
0320
2030
3200
,
0320
0230
2300
3200
0320
0230
2300
3200
,
0302
0023
0100
0001
0100
1000
0031
0200
,
0301
2000
3001
0002
1003
0200
0001
0010
,
1000
0302
0023
0230
0320
0032
0203
2300
,
3200
2300
3020
0032
0023
0230
2300
3020
,
2030
3000
0100
0021
1000
0100
0001
0100
,
1000
0032
0003
0200
0000
0002
0300
0020
,
0003
2000
0030
0100
0001
0010
0001
0010
,
0100
3010
0000
0002
0000
0200
0003
2000
,
0300
0002
3020
2030
0003
0100
0010
0100
,
0001
0010
3100
0200
0000
0020
0300
0002
,
0030
0200
2003
3020
0300
0001
0100
1000
,
0001
0100
1030
2000
0000
0020
3000
0200
,
0030
0002
0300
0000
0000
0000
0000
0000
,
0003
0000
0000
0000
;
