#TITLE:Infernoplex;
#SUBTITLE:;
#ARTIST:dimrain47;
#TITLETRANSLIT:;
#SUBTITLETRANSLIT:;
#ARTISTTRANSLIT:;
#CREDIT:Steps by Apoc;
#BANNER:banner.jpg;
#BACKGROUND:bg.jpg;
#LYRICSPATH:;
#CDTITLE:;
#MUSIC:dimrain47 - Infernoplex.mp3;
#OFFSET:0.000;
#SAMPLESTART:100.000;
#SAMPLELENGTH:12.000;
#SELECTABLE:YES;
#BPMS:0.000=174.960,368.000=43.740,376.000=87.480,392.000=174.960,524.000=87.480,526.000=43.740,526.500=21.870,526.750=10.935,527.000=21.870,528.250=43.740,529.250=87.480,530.500=174.960;
#STOPS:;
#BGCHANGES:;
// cache tags:
#FIRSTBEAT:4.000;
#LASTBEAT:594.000;
#SONGFILENAME:Songs/cedric step/dimrain47 - Infernoplex/dimrain47 - Infernoplex.sm;
#HASMUSIC:1;
#HASBANNER:1;
#MUSICLENGTH:227.709;
// end cache tags

//---------------dance-single - Steps by Apoc----------------
#NOTES:
     dance-single:
     Steps by Apoc:
     Challenge:
     12:
     1.000,1.000,0.905,1.000,1.000,1444.000,206.000,237.000,0.000,14.000:
0000
0000
0000
0000
,
0001
0001
0001
1000
0001
1000
0001
1000
,
0010
0010
0010
0100
0001
0010
0100
1000
,
0010
0010
0010
1000
0010
0001
1010
0100
,
0001
0000
0001
0000
0001
0000
1000
0000
0010
0100
0001
0010
0100
1000
0010
0100
,
2020
3030
0202
0303
2200
3300
0022
0033
,
2200
3300
2020
3030
0011
0101
1010
0110
,
0202
0303
2020
3030
0220
0330
2002
3003
,
0010
0100
0001
0010
0100
1000
0100
0010
0001
0100
0010
0100
0001
0010
0100
1000
,
0100
1000
0100
1000
0010
0100
0001
0010
0100
0010
0001
1000
0100
0010
0100
1000
,
0010
0100
0001
0100
0010
1000
0010
0100
0001
0010
0100
1000
0100
1000
0100
0010
,
0001
0100
0010
1000
0001
0010
0100
1000
0010
1000
0001
0100
0001
0010
0100
1000
,
0010
0100
0001
1000
0010
0100
0001
0100
0010
1000
0001
0010
0100
1000
0100
0001
,
0100
1000
0010
0100
0001
0010
1000
0010
0100
1000
0010
0100
0001
0010
0001
0010
,
0100
0010
1000
0010
0100
1000
0010
0100
1000
0100
0010
1000
0001
0100
1000
0100
,
0010
1000
0010
0100
0001
1000
0100
0010
0001
0010
0100
1000
0001
0100
0001
1000
,
0010
1000
0001
0010
0001
1000
0100
1000
0001
0010
0001
0100
0010
1000
0100
0000
,
2020
3030
0022
0033
0220
0330
2002
3003
,
1010
1000
1100
1000
0010
0100
0001
0010
,
0202
0303
0220
0330
2002
3003
2020
3030
,
1010
0010
0110
0100
0001
1000
0010
0100
,
2020
3030
0202
0303
2002
3003
0220
0330
,
1000
0010
0100
0001
1000
0010
0100
0001
,
0022
0033
0220
0330
2200
3300
0202
0303
,
1001
0001
1001
1000
1010
0010
0110
0100
,
1200
1300
1020
0130
1002
0103
1020
0130
,
2000
3000
0200
0300
0020
0030
0002
0003
,
0021
0031
0201
0310
2001
3010
0201
0310
,
2002
0000
3003
0200
,
0302
0000
0000
0000
0000
0000
0000
0000
0000
0000
0003
0000
0000
0000
1000
0100
,
0002
0000
0000
0000
0003
0000
0001
0100
1000
0000
1000
0100
0001
0010
0100
1000
,
0010
0100
0001
0100
0010
1000
0100
0010
1000
0010
0100
0010
1000
0010
0100
1000
,
0100
1000
0100
1000
0010
0100
0001
0100
0010
1000
0100
0010
0200
0000
0300
0100
,
0002
1000
0000
1000
,
0000
1000
0000
1000
,
1003
0001
0010
0100
1000
0001
0010
0100
1000
0100
0010
0001
1000
0100
0010
0001
,
0100
0001
0010
0001
1000
0100
0010
0001
0100
0010
1000
0010
1000
0100
0010
0100
,
1000
0001
0100
0010
1000
0100
1000
0001
0010
0001
0100
0010
1000
0001
0100
0010
,
0100
0001
1000
0100
0010
0001
0010
0001
0100
0020
1030
0001
1000
0100
1000
0010
,
1000
0001
0010
0001
0100
0001
1000
0001
1000
0010
1000
0100
0010
0001
1000
0000
,
2020
3030
2002
3003
0202
0303
0220
0330
,
1000
0000
0000
0000
0001
0000
0010
0000
0101
0000
0000
1000
0010
0000
0001
0000
,
1001
0000
0000
0000
0001
0000
0100
0000
1010
0000
0000
0001
0010
0000
1000
0010
,
0100
0000
0001
0000
1010
0000
0100
1000
0010
0000
1000
0010
0100
0001
0010
0100
,
2000
0000
0000
0000
,
3200
0000
0320
0000
,
0032
0000
0000
0000
,
2023
0000
0000
0000
0000
0000
0000
0000
0000
0000
0000
0000
0000
0000
0000
3030
,
0202
0000
0303
0220
0330
0022
0000
0033
,
2002
0000
3003
0220
0330
0022
0033
0110
,
2200
0000
0000
0000
0000
0000
0000
0000
0000
0000
0000
3300
0022
0000
0000
0033
,
2000
0000
0002
0000
0000
0003
0020
0030
0200
0000
0000
0300
0020
0000
0000
3030
,
1000
0010
0100
1000
0002
0003
0010
0100
,
2000
3000
0010
0100
0002
0003
0020
0030
,
0100
0000
0000
1000
0100
0000
0010
0000
0002
0000
0003
0000
0010
0000
0100
0000
,
0002
0000
0003
0100
0010
0000
0100
0000
0001
0000
0000
1000
0100
0000
0010
0000
,
2000
0000
0000
0000
3010
0000
0100
0000
0001
0000
0000
0010
0001
0000
0010
0001
,
0100
0000
0010
0000
1000
0000
0000
0100
1000
0000
0010
0100
0001
0000
0010
0100
,
1000
0000
0010
0100
0001
0100
0010
1000
0010
0100
0001
0010
0100
0000
0100
0000
,
0100
0000
0202
0000
0303
0000
0011
0000
0220
0000
0000
0000
2330
0000
0000
3000
,
1010
0000
0000
0101
0000
0101
0110
1100
,
0101
0000
0000
1100
0000
0110
0101
1010
,
0101
0000
0000
0000
0000
0000
0010
0100
0001
1000
0100
1000
0010
0100
0001
0010
,
0100
1000
0100
1000
0010
0100
0001
0020
0000
0030
0100
0000
2020
0000
3030
0000
,
0110
0000
0000
0000
0000
0000
1001
0000
0000
0000
0100
1000
0010
1000
0100
1000
,
0101
0000
0000
0000
0000
0000
0110
0000
0000
0000
0100
1000
0001
0010
0001
0100
,
1000
0100
0001
0100
0010
0000
0110
0000
0000
0000
0010
0100
0001
1000
0010
0100
,
0001
0000
1001
0000
0011
0101
1001
0110
,
2001
0000
0000
0010
0000
0010
0001
0000
,
3002
0000
0000
0010
0000
0100
0000
0100
,
2003
3020
0232
2323
,
3230
0000
0000
0000
0302
0000
0000
0000
0023
0000
0000
0000
1030
0200
0000
0000
,
2302
0000
0000
0000
0000
3003
0202
0000
0000
0000
0000
0303
2020
0000
0000
0000
,
3031
0000
0000
0000
0010
0000
0100
0000
1000
0000
0000
0100
0010
0000
1000
0100
,
1000
0000
0000
0000
1000
0000
0010
0000
0100
0000
0000
0010
0100
0000
0001
0010
,
1001
0001
1001
1000
1001
0010
1001
0100
,
0001
0001
0001
1000
0001
1000
0001
1000
,
0100
0100
0100
1000
0010
0100
0001
0010
,
1000
1000
1000
0010
0100
0001
0010
0100
,
1000
0010
0101
1000
0110
1001
1100
0011
,
1002
1003
1002
0103
1002
0013
1002
0103
,
1001
1000
1010
0010
0110
0100
0101
0001
,
2010
3010
2010
3100
2001
3100
2010
3100
,
1001
0001
0101
0100
0110
0010
1010
1000
,
1000
0100
1000
0100
0010
0100
1000
0001
0010
0100
0010
0001
0100
0010
1000
0100
,
1000
0010
0100
0001
0010
0100
1000
0100
0010
0100
0001
0100
1000
0010
0100
0001
,
0010
0100
0010
0100
1000
0010
1000
0100
1000
0010
1000
0001
0010
0100
1000
0010
,
1000
0010
0100
1000
0100
0001
0010
1000
0010
0100
1000
0100
0010
0001
0010
0100
,
1000
0100
0010
0001
0010
0001
1000
0100
1000
0010
0100
0010
0100
0001
0010
0001
,
1000
0100
0010
0100
1000
0001
0010
0100
1000
0100
0010
0100
0010
0100
0010
0001
,
0010
0100
1000
0010
0100
0001
0010
0100
1000
0100
0010
0001
1000
0100
0010
0100
,
1000
0001
0010
0100
1000
0001
0010
0100
1000
0001
0010
0100
1000
0001
0010
0100
,
1000
0100
1000
0001
0100
0010
1000
0100
1000
0100
1000
0010
0100
0001
0010
0100
1000
0100
0010
0100
0001
0010
0100
0010
1000
0100
0100
0010
0100
0001
0010
0100
,
1000
0100
1000
0010
0100
0001
0010
0100
1000
0100
0010
0001
0010
0100
0001
0010
1000
0100
1000
0010
0100
0001
0010
0100
1000
0100
1000
0100
1000
0011
0101
0110
,
1000
0000
0100
0010
0001
0000
0010
0100
1000
0000
0010
0100
0001
0010
0100
1000
0100
0000
0010
0001
0010
0000
0100
1000
0100
0000
0010
0001
0010
0100
1000
0100
,
1000
0000
0010
0100
0001
0000
0100
0010
1000
0000
0010
0100
0001
1000
0100
0010
0001
0010
0100
0010
0001
1000
0100
0010
0001
0000
0000
0000
2002
0000
0000
3003
,
1000
0000
0010
0100
0001
0000
0010
0100
1000
0000
0010
0100
0001
0010
0100
0010
0001
0000
1000
0100
1000
0000
0010
0100
0001
0010
0100
1000
0100
0010
0001
0010
,
0100
0000
1000
0100
0010
0000
0001
0010
0100
0000
1000
0100
1000
0001
0010
0100
1000
0000
0100
0010
0001
0000
0010
0001
0010
0100
1000
0100
0010
0100
1000
0100
,
1000
0000
0010
0100
1000
0000
0010
0100
0001
0000
0010
0100
1000
0100
0010
0001
,
0100
0000
0010
0100
0001
0000
0010
0100
1000
0000
0100
1000
0100
0010
0100
0010
,
0100
0000
1000
0100
0010
0000
0001
0010
0100
0000
1000
0100
0010
0001
0010
0100
,
1000
0000
0010
0100
0001
0000
0010
0100
1000
0100
1000
0100
1000
0100
1000
0100
,
1000
0000
0010
0100
1000
0000
1000
0100
0010
0000
0010
0100
0001
0010
0100
0010
,
0001
0000
0010
0100
1000
0000
0100
0010
0001
0010
0100
1000
0100
0000
0100
0010
,
0001
0000
0010
0100
1000
0000
0100
1000
0100
0010
0001
0010
0100
0000
0001
0010
,
0100
0000
1000
0100
0010
0000
1000
0100
0010
0001
0010
0100
1000
0100
0010
0001
,
2000
0000
3200
0320
0032
0000
0023
0230
2300
0000
3200
2300
3200
0320
0032
0023
,
0230
0000
2300
3200
0320
0000
0032
0203
0302
0000
2003
3020
0230
0320
0230
0302
,
0023
0000
0230
0320
0032
0000
2003
3200
0320
0000
0032
0023
0230
2300
3200
2300
,
3200
0000
0320
0032
0023
0000
0032
0203
0320
0000
0032
0023
0230
2300
3200
0320
,
0031
1000
0100
1000
0010
0100
0010
1000
0001
1000
0100
1000
0010
0100
0010
0100
,
0001
0010
0100
1000
0100
1000
0100
1000
0100
0010
0100
0010
0100
1000
0100
0010
,
0001
1000
0100
1000
0100
0010
0100
1000
0001
0010
0100
0010
1000
0010
0100
0010
,
0001
0101
1010
0110
1010
0101
0011
0110
,
2000
0000
0200
0000
0000
0000
0000
0000
0000
0000
0000
0000
3300
0000
0100
0010
,
0002
0000
0000
0000
0000
1003
1010
0101
,
2020
0000
0000
3131
0011
0110
0011
0110
,
1010
0000
0000
0000
1000
0100
0010
0000
0001
0010
0100
0000
1000
0100
1000
0000
,
0202
0000
0000
0000
2323
0000
0000
3030
2200
0000
0010
0000
3301
0000
0010
0000
,
0200
0001
0310
0000
1100
0000
0110
0000
,
0022
0000
0000
0000
1033
0000
0100
0000
0010
0000
0001
0010
0100
1000
0100
0000
,
0010
0001
0010
0001
0010
0100
1000
0110
,
2002
0000
0000
0000
0000
0000
0000
0000
0000
0000
0000
0000
3003
0000
0010
0001
,
0200
0000
0000
0000
0300
1000
0110
0011
,
0220
0000
0330
0010
0011
0001
0101
0100
,
0220
0000
0000
0330
1000
0000
1000
0000
1010
0000
0010
0000
0110
0000
0101
0000
,
2002
0000
0000
0000
3003
0000
0220
0000
0000
0000
0330
0000
0022
0000
0000
0033
,
1000
0100
0010
2000
0000
3002
0023
0000
,
0232
0000
0000
2303
0000
0000
3200
0000
,
0310
0000
0001
0000
0010
0000
0100
0000
1000
0000
0000
0000
0010
0001
0010
0100
,
2000
0000
0000
0000
,
0000
0000
0000
0000
0000
0000
0000
0000
0000
0000
0000
0000
0000
0000
0000
0000
0000
0000
0000
0000
0000
0000
0000
0000
0000
0000
0000
0000
0000
0000
0000
0000
0000
0000
0000
0000
0000
0000
0000
0000
0000
0000
0000
0000
0000
0000
0000
0000
3000
1000
1000
0100
1000
0010
0100
0010
0100
0100
0100
0010
1000
0010
0100
0010
,
0001
0001
0001
1000
0001
0000
1000
0000
0001
0000
1000
0000
0100
0000
0100
0000
0100
0000
1000
0000
0100
0000
0000
0000
0010
0000
0000
0000
0001
0000
0000
0000
0010
0000
0000
0000
0100
0000
0000
0000
1000
0000
0000
0000
0000
0000
0000
0000
1000
0000
0000
0000
0000
0000
0000
0000
1000
0000
0000
0000
0000
0000
0000
0000
,
0010
1000
0010
0100
1000
0100
0100
0100
,
1000
0001
0010
0100
0010
0100
0100
0100
,
0010
0100
1000
0100
0010
0001
0001
1001
,
1000
0100
0010
0001
0010
0010
0010
1000
,
0010
0001
0010
1000
0100
0010
0010
0010
,
0100
0000
0001
0010
0001
0010
0100
0000
0011
0000
1100
0000
1000
0000
1000
0000
,
0100
1000
0100
0010
0100
0000
0010
0000
0001
0000
0010
0000
0010
0000
0100
0000
,
0010
0100
0001
0100
0010
0000
0011
0000
1100
0000
1001
0000
0000
0000
0101
0000
,
0000
1100
0000
0110
0000
0011
1100
0110
,
0000
0101
0000
1100
0000
1010
0000
0101
,
1000
0110
0001
0101
0010
1100
0110
1001
,
1000
0101
0010
1010
0100
0110
0001
1010
,
0100
0110
1000
0011
0000
0110
0011
1100
,
0101
1010
0110
1010
0011
0101
1100
0011
,
0101
0000
1100
0000
1010
0000
0101
0000
0010
0100
0001
0010
0100
1000
0100
0010
,
0100
0010
0001
0010
0100
1000
0100
0010
1001
0000
0000
0000
0000
0000
0000
0000
;
