#TITLE:DOPAMINE;
#SUBTITLE:;
#ARTIST:m-flo loves EMYLI and Diggy-Mo';
#TITLETRANSLIT:;
#SUBTITLETRANSLIT:;
#ARTISTTRANSLIT:;
#CREDIT:Arch0wl;
#BANNER:dopamine-bn.png;
#BACKGROUND:dopamine-bg.png;
#LYRICSPATH:;
#CDTITLE:!Arch0wlTitle.png;
#MUSIC:dopamine.ogg;
#OFFSET:0.150;
#SAMPLESTART:73.430;
#SAMPLELENGTH:18.675;
#SELECTABLE:YES;
#BPMS:0.000=216.000;
#STOPS:;
#BGCHANGES:0.500=dopamine.avi=1.000=0=0=1,
579.000=dopamine-bg.png=1.000=0=0=1,
99999=-nosongbg-=1.000=0=0=0 // don't automatically add -songbackground-
;
// cache tags:
#FIRSTBEAT:1.000;
#LASTBEAT:1158.000;
#SONGFILENAME:Songs/Archmage and Dark0wl Hammer of Thor UltraHyperMegaPack/DOPAMINE/dopamine.sm;
#HASMUSIC:1;
#HASBANNER:1;
#MUSICLENGTH:105.000;
// end cache tags

//---------------dance-single - Arch0wl----------------
#NOTES:
     dance-single:
     Arch0wl:
     Hard:
     11:
     1.000,1.000,1.000,0.219,0.538,1227.000,146.000,23.000,0.000,3.000:
0000
1000
0100
0010
,
0000
1000
0010
0000
,
0010
0000
0001
0000
,
0100
0010
0001
0000
,
0000
0010
1000
0101
,
0000
0000
0000
0000
,
0000
0000
0010
0000
,
0010
1000
0100
0010
,
0000
0100
1000
0010
,
0000
0001
0010
0000
,
0010
0000
1000
0000
,
1000
0100
0010
0000
,
0100
0010
0001
0000
,
0001
0010
0100
0000
,
0100
0000
0000
2000
,
0000
3200
0000
0320
,
0000
0032
0000
1113
,
0000
0000
0000
0001
0000
0001
0100
0010
,
1000
0000
1000
0000
0010
0100
0010
0001
,
0010
1000
0010
0100
0010
0001
1000
0000
,
0100
1000
0000
0000
0011
0000
0000
0010
,
1000
0100
0010
0000
0100
0010
0000
0010
,
0000
0010
0001
0000
0001
0100
0001
0100
,
0010
1000
0010
1000
0100
1000
0000
0000
,
0001
0000
0000
0000
0001
0000
0000
0000
0001
0000
0000
0000
0001
0000
0000
0010
0000
0000
1000
0000
0000
0010
0000
0000
,
0000
0001
0010
0000
0100
1000
0100
0010
,
0000
0000
0000
0100
0000
0000
0100
0000
0010
0000
0001
0000
0000
0000
0000
0000
0000
0000
1000
0000
0000
0100
0000
0000
,
0000
0001
0100
0000
1000
0010
0000
0001
,
0010
0000
0000
0000
0000
0000
1000
0000
0100
0000
0010
0000
0000
0000
0000
0000
0000
0000
0001
0000
0000
0010
0000
0000
,
0000
0100
0010
0000
0100
1000
0000
0000
,
0100
0000
0000
0000
0000
0000
0100
0000
0010
0000
0001
0000
0000
0000
0000
0000
0000
0000
1000
0000
0000
0010
0000
0000
,
0000
0000
0100
0000
0001
1000
0000
0100
,
0000
0100
0010
0001
1000
0010
0100
0000
,
0100
0001
0001
1000
,
0100
0010
0100
0010
0100
0000
0000
0000
,
1000
0000
0010
0100
0000
0010
0000
0000
,
0100
0000
0001
0010
0000
0001
0000
0000
,
0010
0000
0100
1000
0000
0100
0000
0000
,
1000
0000
0010
0100
0000
0000
0000
0000
,
0001
0000
0100
0010
0000
0100
0000
0000
,
0010
0000
1000
0100
0000
1000
0000
0000
,
0000
0000
0001
0000
0010
2000
0000
0000
,
0000
3100
0100
0000
,
1000
0000
0010
0001
0000
0010
0000
0000
,
0001
0000
0100
0010
0000
0100
0000
0000
,
0010
0000
1000
0100
0000
1000
0000
0000
,
0100
0000
0010
0100
0000
0000
2000
0000
,
3000
1000
0200
0000
0300
0100
0020
0000
,
0030
0000
0002
0000
0000
0000
1003
0010
,
1000
0100
1000
0010
1000
0100
1000
0010
,
1000
0100
0010
0000
0001
0000
1100
0000
,
0000
0011
0000
1100
,
0000
0011
0000
1000
,
0010
0100
0002
0000
,
0013
0100
0010
1000
0010
0001
0000
0001
,
0010
1000
0000
1000
0010
0001
0000
0001
,
0100
0010
0100
1000
0100
0001
0000
0000
,
0000
0001
0010
0000
0100
0000
0010
0000
,
0000
0100
1000
0000
0100
0000
1010
0000
,
0000
0101
0000
1010
,
0000
0000
0000
1010
0000
0100
0001
0000
0000
1000
0000
0000
,
0001
0000
0000
0000
0100
0000
0010
0000
0000
0000
0000
0000
1000
0000
0000
0000
0000
0000
0001
0000
0000
0100
0000
0000
,
0010
0000
1020
0000
,
0130
0001
1020
0000
,
0130
0001
1020
0000
,
0130
0001
0010
0100
,
1100
0010
0001
0000
0010
0000
0100
0000
,
0000
0001
0100
0000
,
0100
0000
1000
0000
,
0010
0100
1000
0000
,
0000
0100
0001
0010
,
0100
0000
0000
0100
0000
0100
0000
0100
,
0000
0100
0010
0000
0100
0000
0000
0000
,
1000
0001
0010
0100
,
0000
0010
0001
0100
,
0000
1000
0100
0000
,
0100
0000
0001
0000
,
0001
0010
0100
0000
,
0010
0100
1000
0000
,
1000
0000
0100
0000
0010
0001
0010
0001
,
0010
1001
0100
0010
,
1000
0100
0010
0000
,
0100
0001
0000
0100
1000
0000
0000
0000
,
0010
0100
0010
1000
0100
1000
0000
0000
,
0001
0001
0010
0000
1100
0000
0110
0000
,
0000
0000
0000
0001
0000
0000
0100
0000
0010
1000
0000
0000
,
1000
0000
0000
0000
0000
0000
0000
0000
0000
0000
0100
0000
0010
0000
0000
0000
0000
0000
0100
0000
0000
0010
0000
0000
,
0001
0000
0000
0011
0000
0000
0010
0000
0100
1000
0000
0100
,
0010
0000
0100
1000
0000
0100
0010
0000
0000
0000
0000
0000
,
0001
0000
0000
1000
0000
1000
0100
0000
0000
1000
0000
0001
,
0100
0000
0010
1000
0000
0001
0100
0000
0000
0001
0000
1000
,
0010
0000
0100
0001
0000
0000
0010
0000
0010
0000
0000
0100
,
1000
0000
0000
0001
0000
0001
0010
0000
0000
0000
0000
0000
,
0010
0000
0000
0010
0000
0010
0100
0000
0000
1000
0000
0010
,
0100
0010
1000
0100
0000
0000
0010
0000
0000
0000
0000
0000
,
0010
0001
0100
0010
0000
0000
0010
0000
0100
0001
0000
0000
,
0010
0100
0010
0000
,
0001
0000
0000
0100
0000
0100
0010
0000
0110
0000
0000
1000
,
0000
0000
1000
1100
0000
0000
1000
0000
1000
1001
0000
0000
,
0001
0000
0010
0100
0000
0100
1000
0000
1000
0010
0000
0000
,
0010
0100
0001
0010
0001
1000
0000
0000
,
0010
0000
0100
0001
0000
0100
0001
0000
0000
0010
0000
0100
,
1000
0000
0000
0010
0000
0100
0001
0000
0000
1100
0000
0000
,
0000
0000
0010
0100
0000
0010
0001
0000
0001
0000
0000
0010
,
0100
0000
1000
0100
0000
0000
0000
0000
0000
0010
0000
0001
,
0100
0000
0000
0010
0000
0100
0001
0000
0000
0001
0000
0000
,
1001
0000
0000
1010
0000
0000
0100
0000
0100
0101
0000
0000
,
1000
0000
1000
1010
0000
0000
0100
0000
0100
0101
0000
0000
,
1000
0000
1000
1010
0000
0000
0101
0000
0000
0001
0000
0010
,
0100
0000
1000
0100
0000
0010
0100
0000
1000
0010
0000
0100
,
0010
0000
1000
0010
0000
0100
0010
0000
0000
0000
0000
0000
,
1000
0000
0000
1000
0000
0000
0001
0000
0010
0100
0000
1000
,
0100
0000
0010
0100
0000
1000
0100
0000
0000
0000
0000
0000
,
0010
0000
0000
0010
0000
0000
0001
0000
0000
1000
0000
0001
,
0100
0000
0010
1000
0000
0001
0100
0000
0010
1001
0000
0010
,
1001
0000
0010
1001
0000
0010
1001
0000
0010
1100
0000
0000
,
0000
1000
0100
0010
,
0000
1000
0010
0000
,
0010
0000
0001
0000
,
0100
0010
0001
0000
,
0000
0010
1000
0100
,
0010
0000
0000
0010
0000
0010
0000
0010
,
0000
0010
0100
0000
0010
0000
0000
0000
,
0001
1000
0100
0010
,
0000
0100
1000
0010
,
0000
0001
0010
0000
,
0010
0000
1000
0000
,
1000
0100
0010
0000
,
0100
0010
0001
0000
,
0001
0000
0010
0000
0100
1000
0100
1000
,
0100
1001
0010
0100
,
0001
0000
0010
0000
0100
1000
0000
0000
,
1000
0000
1000
0000
0001
0010
0001
0100
,
0001
0000
0000
1000
0000
0000
0001
0000
0000
0000
0000
0000
0010
0000
0100
0000
1000
0000
0000
0000
1100
0000
0000
0000
,
0110
0000
0000
0000
0110
0000
0000
0000
0011
0000
0000
0000
0000
0000
0001
0000
0000
1000
0000
0000
0001
0000
0000
0000
,
0100
0110
0000
0110
0000
0110
0000
0110
,
0000
0110
1010
0000
0000
1000
0100
0100
,
0010
0000
0000
0000
0000
0000
0001
0000
0000
0000
0000
0000
0000
0000
0000
0000
0000
0000
0000
0000
0000
0000
0000
0000
0001
0000
0000
0000
0100
0000
0000
0000
0001
0000
0000
0000
1000
0000
0000
0000
0000
0000
0001
0000
0000
0100
0000
0000
,
0001
0000
0000
1000
0000
0000
0010
0000
0000
0100
0000
0000
0001
0000
0100
0000
0000
0000
0010
0000
0000
0000
0000
0000
,
1000
0000
0100
1000
1100
0000
0011
0000
,
0100
0000
1000
0010
1000
0100
0010
0001
,
0100
0010
1000
0000
0001
0010
0001
0000
,
0001
0011
0000
0000
0000
0100
0000
0100
,
1000
0000
1000
0100
0010
0001
0000
0001
,
0011
0000
1100
0000
0000
1000
0000
1000
,
0010
0100
0000
0100
0001
0010
0000
0010
,
0011
0000
1100
0000
0000
1000
0000
0100
,
1000
0010
0100
0000
0100
0001
0000
0000
,
0101
0000
1010
0000
0000
0000
1000
0010
,
1000
0100
1000
0001
0010
0100
1000
0000
,
1100
0000
0000
0000
0110
0000
0000
0000
0011
0000
0000
0000
0000
0000
0000
0000
0000
0000
0001
0000
0000
0100
0000
0000
,
0001
0010
0001
1000
0100
0010
0001
0000
,
0011
0000
0110
0000
1100
0000
0000
0000
0000
1000
0000
0000
,
0001
0100
0001
1000
0100
1000
0010
0100
,
0001
0010
0100
1000
0100
1000
0010
0100
,
0001
0010
0100
0100
1000
1000
0001
0000
,
0101
0000
0110
0000
1010
0000
0000
0000
0000
0000
0000
0000
,
1010
0000
0101
0000
0011
0000
0100
1000
,
0001
0000
0100
0000
0010
0100
0000
0100
,
0010
0000
1000
0000
0100
0010
0000
0010
,
0100
0000
1000
0001
0000
0001
0010
0100
,
0000
0010
0100
0000
1000
0000
0010
0100
,
0010
0000
0000
1000
0000
0000
1010
0000
0000
0000
1010
0000
0000
0000
0000
0000
0000
0000
0100
0000
0000
0000
0000
0000
,
0100
0000
0000
0001
0000
0000
0010
0000
0000
0000
0010
0000
0000
0000
0000
0000
0000
0000
0100
0000
0000
1000
0000
0000
,
0100
0010
0011
0000
0110
0000
1100
0000
,
0001
1100
0001
1100
,
0001
0000
1100
0000
0001
0000
2000
0100
,
3200
0010
0320
0001
0032
0000
0000
0000
,
0113
0000
0000
0000
0000
0010
0001
0000
0001
0100
0000
0100
,
0010
0000
1000
0100
1000
0010
0100
0001
,
0010
0000
0000
0100
0000
0000
1000
0000
0000
0000
0001
0000
0010
0000
0000
0000
0100
0000
1000
0000
0000
0000
0001
0000
,
0010
0000
0100
1000
0000
0000
0010
0000
0100
1001
0000
0000
,
0100
0000
1001
0000
0000
0000
0010
0000
0000
0101
0000
0000
,
0000
1100
0000
0101
,
0000
0000
0000
0000
0000
0000
1100
0000
0000
0000
0000
0000
0000
0000
0000
0010
0000
0000
0000
0000
0000
0000
0010
0000
,
1000
0000
1010
0000
1000
0010
0101
0000
,
0010
0101
0000
0000
2000
0000
0000
0000
,
3100
0010
2100
0000
,
3010
0100
2010
0000
,
3001
0100
0010
1001
,
0000
0001
0010
0100
,
0000
0001
0100
0000
,
0100
0000
1000
0000
,
0010
0100
1000
0000
,
0000
0100
0001
0010
,
0100
0000
0000
0100
0000
0100
0000
0100
,
0000
0100
0010
0000
0100
0000
0000
0000
,
1000
0001
0010
0100
,
0000
0010
0001
0100
,
0000
1000
0100
0000
,
0100
0000
0001
0000
,
0001
0010
0100
0000
,
0010
0100
1000
0000
,
1000
0000
0100
0000
0010
0001
0010
0001
,
0010
1001
0100
0010
,
1000
0100
0010
0000
,
0001
0000
0001
0000
0001
0000
1000
0010
,
1000
0010
0001
0000
0000
0000
0001
0010
,
0001
0010
1000
0000
0000
1000
0100
0010
,
0001
1000
0000
1000
0000
1000
0010
1000
,
0010
0001
0000
0000
0000
0000
1000
0100
,
1000
0100
0001
0000
0000
0000
0001
0100
,
0001
0100
1000
0000
0000
0000
0100
0010
,
1000
0100
0000
0100
0000
0100
0010
0100
,
0010
0001
0000
0000
0000
0000
0010
1000
,
0010
1000
0000
0000
0000
0000
0001
0100
,
0001
0100
0000
0000
0000
0000
0100
1000
,
0100
1000
0000
1000
0000
1000
0010
0100
,
0001
0010
0000
0000
0000
0000
0010
1000
,
0010
1000
0000
0000
0000
0000
0001
0100
,
0001
0100
0000
0000
0000
0000
0100
0010
,
0100
0010
0000
0010
0000
0010
0001
0100
,
0010
1000
0000
0000
0000
0000
0010
0001
,
0010
0001
1000
0100
1000
0100
0010
0001
,
0010
0001
1000
0100
1000
0100
0010
0001
,
0010
0001
1000
0100
1000
0100
0010
0001
,
0010
0001
1000
0100
1000
0100
0110
0000
,
0110
0110
0110
0110
,
0110
0000
0000
0110
0000
0000
0110
0000
0000
0110
0000
0010
,
0110
0000
0010
0110
0000
0010
0110
0000
0010
0100
0010
0100
,
0010
0100
0010
1000
0000
0000
0100
0000
0000
0010
0000
0000
,
0000
1000
0010
0000
,
0010
0000
0001
0000
,
0100
0010
0001
0000
,
0000
0010
1000
0100
,
0010
0000
0000
0010
0000
0010
0000
0010
,
0000
0010
0100
0000
0010
0000
0000
0000
,
0001
1000
0100
0010
,
0000
0100
1000
0010
,
0000
0001
0010
0000
,
0010
0000
1000
0000
,
1000
0100
0010
0000
,
0100
0010
0001
0000
,
0001
0000
0010
0000
0100
1000
0100
1000
,
0100
1001
0010
0100
,
0001
0010
0100
0000
,
0000
1000
0100
0010
,
0000
1000
0010
0000
,
0010
0000
0001
0000
,
0100
0010
0001
0000
,
0000
0010
1000
0100
,
0010
0000
0000
0010
0000
0010
0000
0010
,
0000
0010
0100
0000
0010
0000
0000
0000
,
0001
1000
0100
0010
,
0000
0100
1000
0010
,
0000
0001
0010
0000
,
0010
0000
1000
0000
,
1000
0100
0010
0000
,
0100
0010
0001
0000
,
0001
0000
0010
0000
0100
1000
0100
1000
,
0100
1001
0010
0100
,
0001
0010
0100
0000
,
1100
1100
0010
0001
,
0100
1001
0010
0100
,
0001
0010
0001
0100
,
1001
0000
0000
1001
0000
0000
1001
0000
0000
0100
0000
1001
,
0100
0000
1001
0000
0100
1001
0010
0100
,
0001
0010
0100
1000
,
0110
0110
0110
0001
,
0110
0001
0110
1000
,
0001
0100
0010
0100
,
0001
0010
0100
1000
,
0010
0100
1001
0010
,
1001
0010
0100
0001
,
0110
1000
0100
1001
,
0100
1001
0100
1001
,
0100
1001
0100
0011
,
0100
0010
0011
0000
1100
0000
0100
1000
,
0001
0011
0000
1100
0000
0000
0001
0000
,
0010
0100
1000
0100
,
0010
0001
0100
0010
,
1001
0100
1001
0100
,
1001
0100
0110
0110
,
0110
0000
0001
0000
0010
0000
1100
0010
,
0001
0010
1100
1100
,
0010
0001
0100
0010
,
1000
0100
1010
0100
,
0001
1010
0001
0010
,
0100
1010
0001
1010
,
0001
0100
0010
1000
,
0010
0100
0001
0010
,
1100
0010
0001
0100
,
1001
0100
1001
0100
,
0010
0100
2002
0000
,
0000
3203
0000
0000
,
0000
0000
0000
0000
,
0000
0000
0000
0000
,
0000
0000
0000
0000
,
0000
0000
0000
0000
,
0000
0000
0300
0000
;
