#TITLE:Blaze;
#SUBTITLE:;
#ARTIST:Cornandbeans;
#TITLETRANSLIT:;
#SUBTITLETRANSLIT:;
#ARTISTTRANSLIT:;
#CREDIT:;
#BANNER:../fallback-bn.png;
#BACKGROUND:../fallback-bg.png;
#LYRICSPATH:;
#CDTITLE:monst3rjoe - cdtitle.png;
#MUSIC:Blaze.ogg;
#OFFSET:-0.025;
#SAMPLESTART:38.860;
#SAMPLELENGTH:11.780;
#SELECTABLE:YES;
#BPMS:0.000=175.000,112.000=87.500,114.000=175.000,370.000=87.500,372.000=175.000;
#STOPS:;
#BGCHANGES:;
// cache tags:
#FIRSTBEAT:3.333;
#LASTBEAT:476.000;
#SONGFILENAME:Songs/SSSC PACK/[Monst3rjoe] - Blaze/Blaze.sm;
#HASMUSIC:1;
#HASBANNER:1;
#MUSICLENGTH:169.287;
// end cache tags

//---------------dance-single - monst3rjoe----------------
#NOTES:
     dance-single:
     monst3rjoe:
     Challenge:
     13:
     1.000,1.000,0.142,0.585,1.000,1285.000,24.000,99.000,36.000,0.000:











0000
0000
0000
0000
0000
0000
0000
0000
0000
0000
M000
0M00
,
00M0
0000
0000
0000
0000
0000
0000
0000
0000
0000
00M0
0M00
,
M000
0000
0000
0000
0000
0000
0000
0000
0000
0000
M000
0M00
,
00M0
0000
0000
0000
0000
0000
0000
0000
0000
0000
00M0
0M00
,
M001
0010
0100
1000
,
0010
0100
0001
1000
,
0100
0010
0001
0010
,
0100
1000
0010
0100
,
0001
0100
0010
1000
,
0100
1000
0010
0100
,
0010
0010
1000
0100
0100
0010
0001
0100
,
0100
0000
0010
0000
1000
0000
0001
0000
0001
0000
0000
0100
0010
0000
1010
0000
,
0010
0200
0301
2000
3100
0020
0031
2000
,
3010
0200
0301
0020
0031
0200
0310
2010
,
3100
0020
0130
2000
3001
0200
0310
0200
,
0301
0000
0000
0000
0020
0000
0000
0000
0130
0000
0000
0000
2000
0000
0000
0000
3001
0000
0100
0000
0010
0M00
0000
0000
0100
0000
0010
0000
1000
0000
0000
0000
,
0100
0020
0130
2000
3001
0200
0310
2000
,
3100
0020
0031
0200
0310
2000
3001
0021
,
0130
2000
3001
0200
0310
2000
3001
0020
,
0130
0000
0000
0000
2000
0000
0000
0000
3001
0000
0000
0000
0200
0000
0000
0000
0301
0000
0010
0000
0100
00M0
0000
0000
0010
0000
0100
0000
1000
0000
0000
0000
,
1001
0002
0010
0023
0100
0230
1000
2300
,
0010
3020
0100
0230
0001
0302
1000
2003
,
0100
3200
0010
0320
0001
0032
0100
0203
,
0010
0320
1000
2030
0100
3200
1000
2300
,
3001
0101
1000
1010
,
1000
1100
0001
0011
,
0001
0100
0010
1000
0010
1000
0100
0010
,
0001
1000
0001
1000
0001
1000
0001
1000
0001
1000
0001
1000
0001
1000
0001
1000
,
0020
0000
0000
0000
0100
0000
0130
0000
0001
0100
0010
1000
0100
1000
0010
0100
,
0001
0010
0001
0100
0010
1000
0100
1000
0010
0100
0001
0010
0001
0100
0001
0010
,
0001
0100
0010
1000
0100
1000
0010
0100
0010
1000
0001
0100
0001
0010
0001
0100
,
0010
1000
0100
1000
0010
0100
0001
0100
0001
0100
0010
0100
0001
0100
0010
0100
,
0001
1000
0100
0010
0100
1000
0100
0010
0100
1000
0001
0100
0010
1000
0100
1000
,
0010
0100
0001
0010
0001
0100
0010
1000
0100
0010
0100
1000
0100
0010
0100
1000
,
0001
0100
0010
0100
0001
0100
0010
0100
0001
0010
0100
1000
0010
0100
0001
0010
,
0001
0100
0010
1000
0100
1000
0010
0100
0001
0100
0001
0010
0100
0010
0100
1000
,
0010
0100
0010
0100
0001
0010
0100
1000
0010
0100
0001
0010
0001
0100
0010
1000
,
0100
1000
0010
0100
0001
0010
0001
0100
0010
0100
0001
0100
0010
0100
0001
0010
,
0100
1000
0010
0100
0001
0010
0001
0100
0010
1000
0100
1000
0100
0010
0100
1000
,
0010
0100
0001
0010
0001
0100
0010
1000
0100
0010
0001
1000
0100
0010
0001
0010
,
0100
1000
0001
0010
0100
1000
0001
0100
0010
1000
0001
0100
0010
1000
0100
1000
,
0010
0100
0001
0010
0001
0100
0010
1000
0100
1000
0010
0100
0001
0010
0001
0100
,
0010
1000
0100
0010
0001
0100
0010
1000
0100
1000
0010
0100
0001
0010
0001
0100
,
0010
1000
0100
0010
0001
0100
0010
1000
0100
1000
0010
0100
0001
0010
0001
0100
,
0010
1000
0100
0010
0100
1000
0100
1000
0001
1000
0001
0100
0010
1000
0100
1000
,
0010
0100
0001
1000
0010
0100
0001
1000
0001
0010
0100
1000
0001
0010
0100
1000
,
0001
0100
0010
1000
0100
1000
0010
1000
0100
0010
0001
0100
0001
0010
0001
0100
,
0001
0010
0100
0010
0100
0010
0100
1000
0010
0100
0001
0010
0001
0100
0010
1000
,
0100
0010
0100
1000
0100
0010
0100
1000
0010
0100
0001
1000
0010
0100
0001
0010
,
0100
1000
0001
0010
0100
1000
0010
0100
0001
0010
0001
0100
0001
0010
0001
0100
,
0010
1000
0100
1000
0010
0100
0001
0100
0010
0100
0001
0010
0100
1000
0010
0100
,
0001
0010
0001
0100
0010
1000
0100
1000
0010
0100
0001
0010
0100
1000
0001
0010
,
0100
1000
0100
1000
0001
0100
0010
1000
0001
0100
0010
0100
0010
0100
0010
1000
,
0100
1000
0010
1000
0001
0100
0001
0010
0001
0010
0001
0010
0001
0010
0001
0010
,
0100
0010
0100
1000
0010
0100
0001
0010
0001
0100
0001
0100
0001
0100
0001
0100
,
0010
1000
0100
1000
0010
0100
0001
0010
0001
0010
0001
0010
0001
1000
0010
0100
,
0001
0010
0100
1000
0010
0100
0001
0010
0001
0100
0010
1000
0100
1000
0010
1000
,
0010
0100
0001
0010
0001
0100
0001
1000
0010
1000
0010
1000
0010
1000
0100
1000
,
0100
0010
0001
0100
0001
0010
0001
0100
0010
1000
0100
1000
0010
1000
0010
1000
,
0100
1000
0010
0100
0001
0010
0001
0100
0001
0100
0001
0100
0010
1000
0010
0100
,
0001
0010
0100
1000
0100
1000
0010
0100
0001
0000
0100
0000
0110
0000
0010
0000
,
1000
0100
1100
1000
0001
0100
0110
0010
,
1000
0001
1001
1000
0100
0010
0110
0100
,
1000
0001
0101
0100
0010
1000
1010
0010
,
0100
0001
0011
0010
0100
0000
1100
0000
,
1000
0101
0001
0011
,
1000
0110
0001
0110
,
1000
0011
0100
1010
,
0100
0000
0011
0000
0001
0100
0010
0000
,
1000
0000
0100
0100
0010
0000
0001
0000
,
0100
0000
0010
0000
1000
0000
0001
0100
,
0001
0002
1003
0000
0100
0000
1000
0010
,
0100
1000
0100
0001
0100
0M00
0001
0010
,
0100
0001
0100
1000
M000
0010
0100
0100
,
0001
1000
1000
0001
0020
0000
0031
0000
,
0000
0001
000M
0001
0010
0010
0100
0100
,
1000
1000
0010
0010
2000
3010
0100
0000
,
0002
0003
0010
0010
0200
0300
1000
0000
,
0020
0030
0100
0000
0002
0003
1000
0010
,
1000
2000
3001
0000
002M
0030
0001
0100
,
0020
0031
0010
1000
0010
00M0
1000
0100
,
0010
1000
0010
0001
000M
0100
0010
0010
,
2000
3001
0001
1000
0200
0000
1300
0000
,
0000
1000
M000
1000
0100
0100
0010
0010
,
0001
0001
0100
0100
0020
2030
3200
0310
,
M002
0103
0020
2030
320M
0310
0002
0103
,
002M
1030
0002
0103
M020
1030
0200
0320
,
0M32
0023
0230
1300
00M2
0103
0020
2030
,
320M
0320
0032
0203
M320
1030
0200
0320
,
0M32
2003
3020
0230
M301
0020
0230
2300
,
30M2
0203
0320
2030
320M
0310
0002
1003
,
001M
0200
0301
0010
M100
0100
1000
1000
,
00M1
0001
0100
0100
0020
0000
0100
0130
,
0001
0100
0010
1000
0100
1000
0010
0100
0001
0010
0001
0100
0010
1000
0100
1000
,
0010
0100
0001
0010
0001
0100
0001
0010
0001
0100
0010
1000
0100
1000
0010
0100
,
0010
1000
0001
0100
0001
0010
0001
0100
0010
1000
0100
1000
0010
0100
0001
0100
,
0001
0100
0010
0100
0001
0100
0010
0100
0001
1000
0100
0010
0100
1000
0100
0010
,
0100
1000
0001
0100
0010
1000
0100
1000
0010
0100
0001
0010
0001
0100
0010
1000
,
0100
0010
0100
1000
0100
0010
0100
1000
0001
0100
0010
0100
0001
0100
0010
0100
,
0001
0010
0100
1000
0010
0100
0001
0010
0001
0100
0010
1000
0100
1000
0010
0100
,
0001
0100
0001
0010
0100
0010
0100
1000
0010
0100
0010
0100
0001
0010
0100
1000
,
0010
0100
0001
0010
0001
0100
0010
1000
0100
1000
0010
0100
0001
0010
0001
0100
,
0010
0100
0001
0100
0010
0100
0001
0010
0100
1000
0010
0100
0001
0010
0001
0100
,
0010
1000
0100
1000
0100
0010
0100
1000
0010
0100
0001
0010
0001
0100
0010
1000
,
0100
0010
0001
1000
0100
0010
0001
0010
0100
1000
0001
0010
0100
1000
0001
0100
,
0010
1000
0001
0100
0010
1000
0100
1000
0010
0100
0001
0010
0001
0100
0010
1000
,
0100
1000
0010
0100
0001
0010
0001
0100
0010
1000
0100
0010
0001
0100
0010
1000
,
0100
1000
0010
0100
0001
0010
0001
0100
0010
1000
0100
0010
0001
0100
0010
1000
,
0100
1000
0010
0100
0001
0010
0001
0100
0010
1000
0100
0010
0100
1000
0100
1000
,
0001
1000
0001
0100
0010
1000
0100
1000
0010
0100
0001
1000
0010
0100
0001
1000
,
0001
0010
0100
1000
0001
0010
0100
1000
0001
0100
0010
1000
0100
1000
0010
1000
,
0100
0010
0001
0100
0001
0010
0001
0100
0001
0010
0100
0010
0100
0010
0100
1000
,
0010
0100
0001
0010
0001
0100
0010
1000
0100
0010
0100
1000
0100
0010
0100
1000
,
0010
0100
0001
1000
0010
0100
0001
0010
0100
1000
0001
0010
0100
1000
0010
0100
,
0001
0010
0001
0100
0001
0010
0001
0100
0010
1000
0100
1000
0010
0100
0001
0100
,
0010
0100
0001
0010
0100
1000
0010
0100
0001
0010
0001
0100
0010
1000
0100
1000
,
0010
0100
0001
0010
0100
1000
0001
0010
0100
1000
0100
1000
0001
0100
0010
1000
,
0002
0000
0000
0000
,
0000
0000
0000
0000
,
0003
0000
0000
0000
;
