#TITLE:Winnipeg is Fucking Over;
#SUBTITLE:;
#ARTIST:Venetian Snares;
#TITLETRANSLIT:;
#SUBTITLETRANSLIT:;
#ARTISTTRANSLIT:;
#CREDIT:B. Abear;
#BANNER:Bn-Winnipeg.png;
#BACKGROUND:Bg-Winnipeg.png;
#LYRICSPATH:;
#CDTITLE:;
#MUSIC:Winnipeg is Fucking Over.ogg;
#OFFSET:-0.257;
#SAMPLESTART:36.530;
#SAMPLELENGTH:20.500;
#SELECTABLE:YES;
#DISPLAYBPM:245.000;
#BPMS:0.000=245.000,6.000=18.000,6.021=400.000,6.500=18.000,6.521=400.000,7.000=35.000,7.021=400.000,7.500=36.000,7.521=450.000,8.000=245.000,477.500=257.250,488.000=245.000;
#STOPS:;
#BGCHANGES:0.000=WIFO-bg.jpg=1.000=0=0=1,
99999=-nosongbg-=1.000=0=0=0 // don't automatically add -songbackground-
;
// cache tags:
#FIRSTBEAT:6.000;
#LASTBEAT:650.000;
#SONGFILENAME:Songs/SPEEEDCOOOORE/Winnipeg is Fucking Over - [Cosmic Pope]/Winnipeg is Fucking Over.sm;
#HASMUSIC:1;
#HASBANNER:1;
#MUSICLENGTH:160.853;
// end cache tags

//---------------dance-single - B. Abear----------------
#NOTES:
     dance-single:
     B. Abear:
     Challenge:
     15:
     1.000,1.000,0.939,0.311,0.572,1108.000,151.000,50.000,73.000,21.000:

0000
0000
0000
0000
,
0000
0000
0000
0000
0MM0
0MM0
0MM0
0MM0
,
1001
0000
1001
0000
0000
0001
0101
0000
,
0000
0000
0110
0100
0100
0001
1001
0000
,
1001
0000
0000
1000
1100
0000
0000
0000
,
0110
0010
0010
0001
1001
0000
1001
0000
,
0000
1000
1010
0000
0000
0000
0110
0010
,
0010
1000
1001
0000
1001
0000
0000
0001
,
0011
0000
0000
0000
0110
0100
0100
1000
,
1001
0000
1001
0000
0000
0001
0101
0000
,
0000
0000
0110
0100
0100
0001
1001
0000
,
1001
0000
0000
1000
1100
0000
0000
0000
,
0110
0010
0010
0001
1001
00M0
0M00
00M0
,
1001
0M00
00M0
0M00
00M0
0M00
00M0
0M00
,
00M0
0M00
1001
0000
2002
0000
0000
0000
,
30M3
0M00
00M0
0M00
00M0
0M00
00M0
0M00
,
1000
0000
0001
0000
0001
0000
1000
0100
0010
0001
1000
0000
0000
0000
0000
0000
,
1001
0000
0000
0000
0001
0000
0100
0000
0000
0000
0010
0100
0010
0000
0100
0000
,
0001
0000
1000
0010
0100
0001
1000
0001
1000
0000
0400
0000
0310
0000
0010
0000
,
0001
1000
0001
1000
0001
0000
0100
0000
0010
0000
1000
0000
1000
0000
0001
0000
,
0001
0000
0020
0000
0000
0000
0030
0100
1000
0000
1000
0000
0001
0000
0100
0000
,
0010
0000
0100
0000
0001
0000
1000
0000
1000
0000
1000
0000
0001
0010
0001
0000
,
1000
0001
0100
0000
0100
0000
0100
0000
0100
0000
0010
0000
1000
0000
0001
0000
,
0011
0000
0000
0000
0011
0000
0000
0000
0001
0010
0100
0000
0000
0000
0000
0000
,
1100
0000
0000
0000
1000
0000
0001
0000
0000
0000
0100
0000
0010
0000
1000
0001
,
0100
0001
1000
0000
0001
1000
0100
1000
0001
0000
0001
0000
1000
0100
1000
0100
,
1000
0001
1000
0001
0200
0000
0320
0000
1030
0000
0001
0000
0001
0000
0010
0000
,
0100
0000
0100
0000
2000
0000
0000
3001
0010
0000
0010
0000
0001
0000
0001
0000
,
0100
0000
0001
1000
0100
0000
0010
0000
0100
0000
1000
0010
0100
0001
1000
0000
,
0001
1000
0100
0000
0010
0000
0010
0000
0010
0000
0001
0000
0001
0000
1000
0001
,
1000
0000
0000
0000
1001
0000
0000
0000
0001
0100
0010
0000
0100
0000
0001
0000
,
1001
0000
1000
0100
0000
0010
0001
0001
,
1000
0001
1000
0000
0001
1000
0001
1000
0100
0000
0100
0000
1000
0001
0100
0010
,
0100
0001
1000
0001
2000
0000
3100
0000
2000
0000
3100
0000
0010
0000
0001
0000
,
1000
0000
0000
0000
0000
0000
0001
0000
1000
0000
0002
0000
0000
0000
0003
0000
0000
0000
0000
0000
0000
1000
0000
0000
0100
0000
0000
0000
0000
0000
0100
0000
0000
0000
0000
0000
1000
0000
0000
0001
0000
0000
0100
0000
0000
0000
0000
0000
,
0010
0000
0100
0000
0001
0000
1000
0000
0001
0000
0001
0000
0010
0100
1000
0000
,
0001
0100
0010
0000
1M00
0000
1M00
0000
1M00
0000
0M01
1000
0M01
1000
0M01
0000
,
1000
0001
0100
0010
0100
1M00
0001
0010
,
0100
0M01
1000
0100
0000
0100
1000
0001
,
0100
0001
0010
10M0
0100
0010
0100
0M01
,
1000
0010
0000
0010
0100
0010
0100
0001
,
0010
10M0
0100
0010
0100
0M01
1000
0010
,
0000
0010
1000
0100
0010
0100
0M01
0100
,
0010
0100
1M00
0001
0001
1000
0001
0001
,
0010
0100
1000
0001
0100
1M00
0010
0100
,
0010
00M1
1000
0100
0000
0100
0010
0001
,
0100
0001
0010
10M0
0100
0010
0100
0M01
,
1000
0010
0000
0010
0100
0010
0100
0001
,
0010
10M0
0100
0010
0100
0M01
1000
0010
,
0000
0010
0100
0010
00M1
0010
10M0
0001
,
2001
0000
0000
0000
0000
0000
0000
3001
,
0101
0000
0000
0110
0000
0000
1010
0000
,
0000
0000
0000
0000
0000
0000
2000
3000
0200
0300
0020
0030
0011
0000
0000
0000
,
0000
0110
0000
0000
1100
0000
0000
0000
,
0000
0000
2000
3000
0002
0003
0200
0300
0001
1000
0001
0000
1000
0000
1000
0000
,
0000
0000
0001
1000
0200
0000
0000
0000
0000
0000
0000
0000
1300
0000
0200
0300
,
0020
0030
0002
0003
1000
0000
0000
0000
0000
0000
1000
0000
0000
0000
0000
0000
,
1000
0000
0000
0000
,
1011
0000
0000
1101
0000
0000
0121
0000
,
0100
0000
0100
0000
0100
0000
0130
0000
0002
0003
2000
3000
1011
0000
0000
0000
,
0010
0111
0000
0000
1101
0001
1000
1000
,
0001
1000
0001
0000
0020
0030
0200
0300
1000
0000
0000
0000
0001
0000
0001
0000
,
0100
0010
1000
0001
2000
0000
0000
0000
0000
0000
0000
0000
3100
0000
0000
0000
,
00MM
0000
1100
0000
0000
0100
0010
0004
,
1003
0010
1000
0000
0001
0000
0001
0000
0100
0000
0010
0000
0100
0000
0001
1000
,
0001
0010
0100
0000
1000
0000
0100
0010
0001
1000
0001
0000
0100
0000
0100
0000
,
0100
0000
0001
0000
0001
0000
1000
0000
0001
1000
0100
0000
1100
0000
0000
0000
,
0000
1001
0000
0001
0100
0100
0000
0000
,
0000
0000
0010
0000
0100
0000
0010
0000
1000
0000
0001
0010
0000
0001
0010
0000
,
0001
1000
0000
0010
1000
0000
0010
1000
0000
0010
1000
0000
0001
0010
0100
1000
,
0001
0000
1000
0100
0010
0100
1000
0010
,
0100
0101
0000
0001
1001
0000
1001
0000
,
2202
0000
0000
0000
0003
0000
3301
0000
0010
0000
0100
0000
1000
0001
0100
0000
,
0010
0000
1010
0000
2000
0000
0000
0000
3001
0000
0100
0010
1000
0000
0001
1000
,
0100
0000
0010
0000
0100
0000
0010
0000
0001
0100
0010
0000
1000
0000
0001
0000
,
1000
0000
0100
0010
0001
0000
1000
0000
1001
0000
0001
0100
0010
0000
1001
0000
,
1000
0100
0010
0000
1001
0000
0000
1100
0000
0000
0110
0000
0000
0011
0000
0000
,
2002
3003
0000
2200
3300
0000
0220
0330
0000
0022
0033
0000
0002
0003
2000
3000
,
0001
0000
0000
0000
0000
0000
0000
0000
0100
0000
0000
0000
0000
0000
0000
0000
0010
0000
0000
0000
0000
0000
0000
0000
1000
0000
0000
0000
0000
0000
0000
0000
0001
0000
0000
0000
1000
0000
0000
0000
0200
0000
0000
0000
0000
0000
0000
0000
0000
0000
0000
0000
0000
0000
0000
0300
0100
0000
0000
0000
0000
0000
0000
0000
,
1100
0000
1000
0000
0001
0000
1000
0001
0100
0001
1000
0000
0010
0000
0100
0000
,
0101
0000
0101
0000
0101
0000
0001
1000
,
0100
0000
1000
0001
0100
0001
1000
0000
0010
0000
0100
0001
1000
0000
0001
0010
,
0000
0001
1000
0000
0000
0000
0001
0000
0101
0000
0000
0000
0100
0000
0001
1000
,
0100
1000
0001
0000
0010
0100
1000
0000
1100
0000
0000
0000
0100
0000
1000
0000
,
1001
0000
0001
0000
0101
0000
0100
0000
0001
0000
1000
0001
0010
0001
1000
0000
,
0100
0010
0012
0000
0000
0000
1003
0000
,
0001
0000
0100
0000
0001
0000
1000
0001
0010
0001
1000
0000
0010
0000
0100
0000
,
0101
0000
0101
0000
0101
0000
1001
0001
,
1000
0000
0001
1000
0100
1000
0001
0000
0010
0000
0000
0000
0010
0000
0000
0000
,
0010
0000
0000
0000
0100
0000
1000
0001
0200
0000
0000
0310
1000
0000
1001
0000
,
0000
1001
0000
1001
0000
1001
0000
1001
,
1001
0000
0000
0000
0001
0000
0010
0000
0100
0000
1000
0001
0100
0001
1000
0000
,
0100
0000
0000
0010
0000
0000
0001
0000
0100
0000
0010
0000
1000
0000
0100
0000
0010
0000
0001
0000
0100
0000
0010
0000
,
1000
0001
0010
0001
0100
0010
0100
0001
,
1001
0000
1000
0000
0100
0000
0010
0000
0011
0000
0001
0000
1000
0000
0001
0100
,
0010
0000
0100
0000
0001
0000
1000
0000
0100
0010
0001
1000
0001
0000
0100
0010
,
1000
0001
0010
0100
0010
0100
1000
0001
,
0100
0000
0001
1000
0010
0000
0100
0000
0101
0000
0001
0000
1000
0000
0100
0000
,
1100
1000
0001
0010
0100
0010
0001
1000
,
0001
0000
1000
0001
1000
0000
1001
0000
0000
0101
0000
0000
0000
0001
1000
0000
,
0100
0000
0010
0000
0001
0000
1000
0000
0100
0000
1000
0001
0100
0000
0010
0000
,
1010
1000
1000
0001
1000
0100
0010
0100
,
1000
0000
1000
0000
0010
0000
0100
0000
0001
0000
0100
0001
1000
0000
1100
0000
,
0000
0110
0000
0000
0011
0000
0000
0000
0001
1000
0001
1000
0100
0000
1000
0001
,
0100
0000
0010
0000
0100
0000
0010
0000
2000
0000
3001
0000
0010
0000
0001
1000
,
0100
0010
0001
0000
1000
0000
0100
0000
0010
0000
0001
1000
0100
1000
0001
0000
,
0100
0000
0000
0000
0010
0000
0000
0000
2000
0000
0000
0000
0000
0000
0000
0000
3002
0000
0000
0000
0000
0000
0000
0000
0203
0000
0000
0000
0000
0000
0000
0300
,
1101
0000
0000
0000
,
0001
0001
0001
1101
0000
0000
0000
0000
,
0000
0000
0000
0001
0001
1101
0000
0000
,
0000
0000
0000
0000
0000
0001
0001
1101
,
0000
0000
0000
0000
0000
0000
0000
1101
,
0000
0000
0000
0000
0000
0000
0000
1101
,
0000
0000
0000
1011
0000
0000
0000
0111
,
0000
0000
0000
1110
0000
0000
0000
1111
,
0000
1111
0000
1111
0000
1111
0000
0001
,
0010
0000
0100
0000
1000
0000
0001
0000
0100
0000
0010
0000
1000
0000
0001
0010
,
0100
1000
0001
0010
0001
1000
0100
1000
0001
0010
0100
0010
0100
1000
0001
1000
,
0010
0100
0001
1000
0010
0100
0001
1000
0010
1000
0001
0100
0001
1000
0010
0100
,
0010
0100
0001
1000
0100
0010
0002
0000
0000
0000
0000
0000
0000
0000
0003
0000
,
0000
0000
0000
0000
M000
0M00
00M0
000M
00M0
0M00
M000
0M00
,
00M0
000M
0000
0000
0000
0000
0000
0000
0000
0000
0000
0000
,
1000
0000
0001
0000
1000
0000
0001
0000
0100
M0MM
0100
0000
1000
0000
0001
0000
,
0010
0000
0100
0000
0010
0000
0100
0000
0010
MM0M
0010
0000
1000
0000
0001
0000
,
0100
0000
0010
0000
0100
0000
0001
0000
1000
0000
0000
0000
0001
0000
1000
0001
,
0100
0001
1000
0000
0000
0001
0100
0000
0010
0000
1000
0000
0010
0000
1000
0000
,
0001
0000
0010
0000
0100
0000
0000
0000
1000
0000
1000
0000
1000
0000
0001
0100
,
0001
0100
0001
1000
0100
0000
0010
0000
0100
0000
0020
0000
0031
0000
0020
0000
,
0130
0000
1000
0004
0000
0103
0100
0010
,
1000
0000
0100
0000
1000
0000
0100
0000
0010
0001
1000
0000
0010
0000
1000
0000
,
0010
0000
0010
0100
0001
0000
1000
0000
0001
0000
1000
0000
0100
0000
0010
0000
,
0100
0000
0010
0000
0001
1000
0010
0000
0100
0000
0001
0000
0100
0000
0100
0001
,
1000
0100
1000
0100
0010
0001
0010
0001
,
1000
0001
0100
0000
0010
0000
1000
0000
0010
0000
0010
0100
0001
0000
0010
0000
,
0001
0010
0100
1000
0001
0100
0010
0100
,
0001
0000
1001
0000
0000
1100
0000
0000
1001
0000
0001
1000
0100
0000
1000
0000
,
0001
0000
0100
0000
0001
0000
0100
0000
0010
1000
0001
0000
0010
0000
0100
0000
,
0010
0000
0010
0001
1000
0000
0001
0000
0100
0000
0001
0000
0010
0000
0100
0000
,
1000
0000
0001
0000
0100
0000
0001
0000
1000
0000
1001
0000
0000
0101
0000
0000
,
0110
0000
0010
1000
0001
0000
0010
0000
0100
0000
1000
0000
0100
0000
1000
0000
,
0001
0100
0010
0000
1000
0000
0001
0000
1000
0000
1000
0001
0010
0000
0100
0000
,
0010
0100
1000
0001
0100
0010
0100
0001
,
1000
0000
0001
0100
0010
1000
0001
0100
0001
0100
0001
1000
0100
0010
0004
0000
,
1003
0000
0100
0000
1000
0000
0100
0000
0010
0001
1000
0000
0010
0000
0100
0000
,
0010
0000
0010
0100
0001
0000
1000
0000
0001
0000
1000
0000
0100
0010
0001
0000
,
1000
0000
0001
0000
0100
0010
1000
0000
0001
0000
1000
0000
0100
0000
0100
1000
,
0001
0100
0001
0100
0010
1000
0010
1000
,
0001
0000
0000
0010
0000
0000
0100
0000
0000
0000
0000
0000
1000
0000
0000
0000
0010
0000
0000
0000
0100
0000
0000
0000
0001
0000
0000
0000
0100
0000
0000
0000
0010
0000
0000
0000
1000
0000
0000
0000
0000
0000
0000
0000
0000
0000
0000
0000
,
1MM1
0000
0001
0010
0100
0100
0100
1000
,
0001
0000
0101
0000
0000
0110
0000
0000
1010
0000
1000
0001
0010
0000
0100
0000
,
1000
0001
00M0
0000
0M00
0000
00M0
0000
,
1001
1100
0110
0011
,
1001
0101
0110
1010
,
1001
1100
0110
1100
,
1001
0000
0101
0100
0110
0000
0101
0000
,
0110
0000
0101
0000
1001
0000
1000
0001
,
1000
0001
0011
0000
0110
0000
1100
0000
,
0000
0110
1100
0000
,
1100
0000
0000
0000
1100
1000
1001
0000
,
1001
0000
0000
0000
,
0000
0000
0000
1001
,
0000
0000
0000
0000
,
0000
0000
1001
0000
;
