#TITLE:Another Stranger Me;
#SUBTITLE:A Twist in the Myth (2006);
#ARTIST:Blind Guardian;
#TITLETRANSLIT:;
#SUBTITLETRANSLIT:;
#ARTISTTRANSLIT:;
#CREDIT:SulferDragon;
#BANNER:Another Stranger Me-banner.png;
#BACKGROUND:Another Stranger Me-bg.png;
#LYRICSPATH:;
#CDTITLE:!SulferDragon.png;
#MUSIC:06_blind_guardian-another_stranger_me.mp3;
#OFFSET:-0.329;
#SAMPLESTART:129.380;
#SAMPLELENGTH:14.560;
#SELECTABLE:YES;
#BPMS:0.000=132.040,56.000=66.020,70.000=132.040,406.000=66.020,420.000=132.020,552.000=131.800,557.000=130.500,559.500=130.000;
#STOPS:;
#BGCHANGES:;
// cache tags:
#FIRSTBEAT:0.000;
#LASTBEAT:569.000;
#SONGFILENAME:Songs/Astronomic Metal Collection/Another Stranger Me (SulferDragon)/Another Stranger Me.sm;
#HASMUSIC:1;
#HASBANNER:1;
#MUSICLENGTH:277.167;
// end cache tags

//---------------dance-single - ----------------
#NOTES:
     dance-single:
     :
     Hard:
     12:
     1.000,1.000,1.000,0.180,1.000,1630.000,480.000,50.000,0.000,6.000:
0011
0000
0000
0000
1100
0000
0010
1100
0001
0000
0100
0000
0011
0000
2200
0000
,
0000
0000
0000
3300
0011
0000
1000
0011
0100
0000
0010
0000
1100
0000
0022
0000
,
0000
0000
0000
0033
1100
0000
0001
1100
0010
0000
0100
0000
0011
0000
2200
0000
,
0000
0000
0000
3300
0011
0000
1000
0011
0100
0000
0010
0000
1100
0000
0001
0000
,
0001
0000
0001
1000
0001
0010
0001
0200
,
0001
0300
0020
0030
0001
2000
0001
3000
,
0011
0000
0100
0010
1100
0000
0001
1000
0010
0000
0100
0010
1100
0000
0011
0000
,
0000
0000
0010
0100
0011
0000
1000
0001
0100
0000
0010
0100
0011
0000
1100
0000
,
0000
0000
0001
1000
0101
0000
1000
0010
0100
0000
0001
1000
0101
0000
1010
1010
,
0100
0010
1001
0100
0010
0001
1100
0010
0001
1000
0110
0001
1000
0010
0100
0001
,
1010
0000
0100
0001
1100
0000
0010
1000
0001
0000
0100
0001
1100
0000
0011
0000
,
0000
0000
1000
0001
1010
0000
0001
0100
0010
0000
1000
0001
1010
0000
0101
0000
,
0000
0000
0001
0100
1001
0000
0010
0100
0001
0000
1000
0010
1001
0000
0110
0110
,
1000
0100
0011
1000
0100
0010
1001
0100
0010
0001
1100
0010
0001
1000
0010
0000
,
0100
0001
0100
0000
0010
1000
0100
0001
0000
0001
1000
0000
0010
0100
0001
1000
,
0010
1000
0001
0000
0100
0010
1000
0001
0000
0001
0100
0000
0010
1000
0100
0010
,
0001
0010
1000
0000
0001
1000
0010
0001
0000
0001
1000
0000
0100
0010
0001
1000
,
0100
1000
0010
0000
0100
0010
1000
0011
1100
1100
0011
0000
1100
1100
0011
0000
,
1100
1100
0011
0000
1100
1100
0010
0000
0100
0000
0001
1000
0011
0000
0100
0010
,
1000
0000
0001
1000
0011
0000
0100
0000
0000
0000
0010
1000
0110
0000
0100
0001
,
1000
0000
0010
1000
0110
0000
0100
0000
0000
0000
0001
0100
1001
0000
1000
0010
,
0100
0000
0001
0100
1001
0000
1010
1010
0001
0010
1100
0001
0010
0100
1001
0010
,
0100
1000
0011
0100
1000
0010
0100
0001
1000
0000
0010
0100
1010
0000
1000
0001
,
0100
0000
0010
0100
1010
0000
1000
0000
0000
0000
0001
1000
0101
0000
1000
0010
,
0100
0000
0001
1000
0101
0000
1000
0000
0000
0000
0100
0010
1100
0000
0010
0100
,
0001
0000
0100
0010
1100
0000
0011
0011
1000
0000
1100
0010
0001
0000
0101
0010
,
1000
0000
1001
0010
0100
0001
1000
0001
0100
0000
0010
0000
1100
0000
0001
1000
,
0000
1100
0001
0100
1010
0000
0100
0000
0000
0000
0100
0000
0011
0000
1000
0001
,
0000
0011
1000
0000
0101
0000
1001
1001
0110
1000
0010
0101
0010
0001
1100
0010
,
1000
0100
0010
0001
1010
0100
1000
0000
0100
1000
0010
0101
0010
0001
1100
0010
,
1001
0000
0000
1001
0000
0000
0010
0000
0000
1000
0000
0000
0001
0000
0010
0000
0100
0000
1000
0000
0010
0000
0100
0000
0001
0000
0000
0000
0000
0000
1000
0000
0000
0000
0000
0000
0011
0000
0000
0100
0000
0000
0010
0000
0000
0000
0000
0000
,
1000
0000
0001
0000
1100
0010
1000
0000
0001
0000
0100
0000
1010
0001
1000
0000
,
0010
0000
0000
0000
0000
0000
0100
0000
0000
0000
0000
0000
0011
0000
0100
0000
0001
0000
1000
0000
0000
0000
0000
0000
0100
0000
0000
0000
0000
0000
0010
0000
0000
0000
0000
0000
0101
0000
0000
1000
0000
0000
0100
0000
0000
0000
0000
0000
,
1000
0000
0001
0000
1010
0100
0010
0000
1000
0000
0001
0000
1100
0010
0001
0000
,
1000
0100
0010
0000
0100
0000
0010
0000
0001
0000
1000
0000
0010
0000
0100
0000
0001
0000
0000
0000
1000
0000
0000
0000
0101
0000
0010
0000
0100
0000
0000
0000
,
0001
0000
0100
0000
1010
0001
1000
0000
0010
0000
0100
0000
1001
0010
1000
0000
,
0001
0000
0000
0000
0000
0000
0010
0000
0000
0000
0000
0000
1100
0000
0010
0000
1000
0000
0001
0000
0000
0000
0000
0000
0010
0000
0000
0000
0000
0000
0100
0000
0000
0000
0000
0000
0011
0000
0000
1000
0000
0000
0010
0000
0000
0000
0000
0000
,
0100
0000
0001
0000
0110
1000
0011
0110
1100
1100
1100
0000
0101
0000
0010
0000
,
0100
0000
0010
0000
0100
0000
0010
0000
1100
0000
0000
0000
0011
0000
0100
0011
,
1000
0000
0010
0000
1100
0000
0022
0000
0000
0000
0000
0033
1100
0000
0001
1100
,
0010
0000
0100
0000
0011
0000
2200
0000
0000
0000
0000
3300
0011
0000
1000
0011
,
0100
0000
0010
0000
1100
0000
0022
0000
0000
0000
0000
0033
1100
0000
0010
1100
,
0001
1010
0000
0000
0110
0110
0110
0110
1001
0000
0010
1000
0011
0000
0100
0000
,
0010
0000
1000
0001
1100
0000
0010
0000
0000
0000
1000
0001
1010
0000
0100
0010
,
1000
0000
0001
1000
0101
0000
0010
0000
1100
0000
1010
0000
0110
0000
0022
0000
,
0033
0000
1100
0022
0033
0110
2002
3003
,
1010
1100
1001
0202
0303
0000
1010
0202
,
0313
1100
1001
0022
0033
0011
2200
3300
,
1010
0000
1001
0100
0011
0000
0202
0000
0313
0000
0000
0000
1010
0100
0022
0000
,
0033
0000
0110
0000
2002
0000
3013
0100
0011
0000
1001
0000
1010
0000
2200
0000
,
3310
0000
0100
0001
1100
0000
0022
0000
1033
0000
0110
0001
1100
0000
2002
0000
,
3013
0100
0011
1000
0101
1000
0001
0100
0010
0000
0100
0001
1100
0010
0100
0001
,
0000
0001
0000
0100
0011
1000
0001
0000
0100
0000
0010
1000
0011
0100
0010
1000
,
0000
1000
0000
0001
1100
0010
1000
0000
0001
0000
0100
0001
0110
1000
0010
0100
,
0000
0100
0000
0001
1010
0100
0010
0000
1000
0000
0010
1000
0110
0001
0100
0010
,
0000
1000
0000
0010
0101
0101
0101
0101
1010
0000
0100
0001
0110
1000
0010
0100
,
0000
0100
0000
0001
1100
0000
1000
0000
0010
0000
0100
0010
0101
1000
0001
0100
,
0000
0100
0000
0010
1100
0000
1000
0000
0010
0000
0100
0010
0101
1000
0001
0100
,
0000
0100
0000
0010
0101
0000
0001
0000
1000
0000
0010
0100
0011
1000
0001
0100
,
0010
1100
1100
1100
1100
1100
1100
1100
0011
0100
0010
1000
0110
0001
0100
0010
,
1000
0001
1000
0010
1100
0001
1100
0011
0100
0010
1000
0001
1010
0100
0010
1000
,
0001
1000
0001
0100
0011
1000
0101
1010
0100
0010
1000
0100
0011
1000
0010
0100
,
0001
1000
0010
1000
0110
0001
0110
0001
1000
0010
0100
0010
1100
0001
1000
0010
,
1001
0100
1001
0010
1001
1001
1001
1001
0010
1000
0001
0100
1001
0010
1000
0001
,
0100
0010
0100
0001
1100
0010
1100
0011
0100
0001
1000
0001
1010
0100
0010
1000
,
0001
0010
0100
1000
0110
1000
0101
1010
0100
0010
1000
0001
1100
0010
0100
0010
,
1000
0000
0000
0001
0000
0000
0100
0000
0000
0010
0000
0000
0101
0000
0000
1000
0000
0000
0101
0000
0000
1000
0000
0000
0001
0000
0100
0000
0010
0000
1001
0000
0000
0000
0000
0000
1000
0000
0010
0000
0100
0000
1001
0000
0000
0000
0000
0000
,
0001
0000
0100
0000
0010
0000
1001
0000
0000
0000
0000
0000
0110
0000
0000
0110
0000
0000
0110
0000
0000
0110
0000
0000
1001
0000
0000
0000
0000
0000
0010
0000
0000
1000
0000
0000
0011
0000
0000
0000
0000
0000
0100
0000
0000
0001
0000
0000
,
1000
0000
0010
0100
0011
0000
1000
0000
0000
0000
0001
1000
0101
0000
1000
0010
,
0100
0000
0001
1000
0101
0000
0010
0000
0000
0000
0100
0001
1100
0000
0010
1000
,
0001
0000
0100
0001
1100
0000
0011
0011
1000
0010
0101
1000
0001
0100
1010
0000
,
0001
0010
1100
0001
0010
0100
1000
0010
0100
0000
0001
1000
0011
0000
0100
0010
,
1000
0000
0001
1000
0011
0000
0100
0000
0000
0000
0010
0100
1010
0000
0100
0001
,
1000
0000
0010
0100
1010
0000
0001
0000
0000
0000
0100
0001
0110
0000
0001
1000
,
0010
0000
0100
0001
0110
0000
1001
1001
0010
0000
1100
0001
1000
0000
0011
0100
,
0010
0000
0101
1000
0001
0100
0010
1000
0001
0000
0100
0000
0011
0000
1000
0001
,
0000
0011
1000
0010
0101
0000
0010
0000
0000
0000
0010
0000
1100
0000
0001
1000
,
0000
1100
0001
0000
1010
0000
0110
0110
1001
0100
0001
1100
0010
0001
1010
0100
,
0010
0001
0100
0010
1100
0001
1000
0000
0010
0100
0001
1100
0010
0001
1010
0100
,
0011
0000
0000
0011
0000
0000
1000
0000
0000
0010
0000
0000
0100
0000
0001
0000
0010
0000
0100
0000
1000
0000
0010
0000
0100
0000
0000
0000
0000
0000
0001
0000
0000
0000
0000
0000
1100
0000
0000
0010
0000
0000
1000
0000
0000
0000
0000
0000
,
0010
0000
0100
0000
0011
1000
0001
0000
1000
0000
0010
0000
0101
1000
0001
0000
,
1000
0000
0000
0000
0000
0000
0010
0000
0000
0000
0000
0000
1100
0000
0010
0000
0100
0000
0001
0000
0000
0000
0000
0000
0010
0000
0000
0000
0000
0000
0100
0000
0000
0000
0000
0000
0011
0000
0000
1000
0000
0000
0010
0000
0000
0000
0000
0000
,
0100
0000
0001
0000
0110
1000
0010
0000
0100
0000
0001
0000
1010
0100
1000
0000
,
0001
0010
0100
0000
0010
0000
0100
0000
1000
0000
0001
0000
0100
0000
0010
0000
1000
0000
0000
0000
0010
0000
0000
0000
1100
0000
0001
0000
1000
0000
0000
0000
,
0010
0000
0100
0000
0011
1000
0010
0000
0100
0000
0001
0000
1010
0100
0010
0000
,
1000
0000
0000
0000
0000
0000
0001
0000
0000
0000
0000
0000
0110
0000
1000
0000
0010
0000
0100
0000
0000
0000
0000
0000
0010
0000
0000
0000
0000
0000
0100
0000
0000
0000
0000
0000
0011
0000
0000
1000
0000
0000
0010
0000
0000
0000
0000
0000
,
0100
0000
0001
0000
0110
1000
0011
0110
1100
1100
1100
0000
0101
0000
0010
0000
,
0100
0010
0100
0010
2200
0000
0000
0000
,
0000
0000
0000
0000
0000
0000
0000
0000
0000
0000
0000
0000
0000
0000
0000
0000
0000
0000
0000
0000
0000
0000
0000
0000
3300
0000
0001
0000
0100
0000
0000
0000
0000
0000
0010
0000
0000
0000
0000
0000
1000
0000
0000
0000
0000
0001
0000
0010
,
0000
0000
0000
0000
0100
0000
0000
0000
0000
0000
0000
0000
1000
0000
0000
0000
0000
0000
0001
0000
0000
0000
0000
0000
0100
0000
0000
0000
0000
0000
0000
0000
0000
0000
0000
0000
0010
0000
0000
0000
0000
0000
0000
0000
0000
0000
0000
0000
0100
0000
0000
0000
0000
0000
0000
0000
0000
0000
0000
0000
0001
0000
0000
0000
0000
0000
0000
0000
0000
0000
0000
0000
0010
0000
0000
0000
0000
0000
0000
0000
0000
0000
0000
0000
0100
0000
0000
0000
0000
0000
0000
0000
0000
0000
0000
0000
2000
0000
0000
0000
0000
0000
0000
0000
0000
0000
0000
0000
0000
0000
0000
0000
0000
0000
0000
0000
0000
0000
0000
0000
0000
0000
0000
0000
0000
0000
0000
0000
0000
0000
0000
0000
3000
0000
0000
0000
0000
0000
0000
0000
0000
0000
0000
0000
0010
0000
0000
0000
0000
0000
0000
0000
0000
0000
0000
0000
1000
0000
0000
0000
0000
0000
0000
0000
0000
0000
0000
0000
0000
0000
0000
0000
0000
0000
0000
0000
0000
0000
0000
0000
0200
0000
0000
0000
0000
0000
0000
0000
0000
0000
0000
0000
,
0000
0000
0000
0300
0000
0000
0001
0000
0000
0010
0000
0000
0100
0000
0000
0000
0000
0000
0010
0000
0000
0100
0000
0000
1000
0000
0001
0000
0100
0000
0000
0000
0000
0000
0010
0000
0000
0000
0000
0000
1000
0000
0000
0000
0000
0001
0000
0010
,
0000
0000
0000
0000
0100
0000
0000
0000
0000
0000
0000
0000
1000
0000
0000
0000
0000
0000
0001
0000
0000
0000
0000
0000
0100
0000
0000
0000
0000
0000
0000
0000
0000
0000
0000
0000
0010
0000
0000
0000
0000
0000
0000
0000
0000
0000
0000
0000
1000
0000
0000
0000
0000
0000
0000
0000
0000
0000
0000
0000
0001
0000
0000
0000
0000
0000
0000
0000
0000
0000
0000
0000
0010
0000
0000
0000
0000
0000
0000
0000
0000
0000
0000
0000
0100
0000
0000
0000
0000
0000
0000
0000
0000
0000
0000
0000
1000
0000
0000
0000
0000
0000
0000
0000
0001
0000
0000
0000
0000
0000
0000
0000
0100
0000
0000
0000
0000
0000
0000
0000
0000
0000
0000
0000
0000
0000
0000
0000
0000
0000
0000
0000
0000
0000
0000
0000
0010
0000
0000
0000
0000
0000
0000
0000
0000
0000
0000
0000
0000
0000
0000
0000
0000
0000
0000
0000
0000
0000
0000
0000
1000
0000
0000
0000
0000
0000
0000
0000
0000
0000
0000
0000
0000
0000
0000
0000
0000
0000
0000
0000
0000
0000
0000
0000
0001
0000
0000
0000
0000
0000
0000
0000
,
0000
0000
0000
0000
0000
0000
0000
0000
0000
0000
0000
0000
0000
0000
0000
1000
0000
0000
0000
0000
0000
0000
0000
0000
0010
0000
0000
0000
0000
0000
0000
0000
0000
0000
0000
0000
0100
0000
0000
0000
0000
0000
0000
0000
0000
0000
0000
0000
1001
0000
0000
0000
0000
0000
0000
0000
0000
0000
0000
0000
1001
0000
0000
0000
0000
0000
0000
0000
0000
0000
0000
0000
0100
0000
0000
0000
0000
0000
0000
0000
0000
0000
0000
0000
0010
0000
0000
0000
0000
0000
0000
0000
0000
0000
0000
0000
1100
0000
0000
0000
0000
0000
0000
0000
0000
0000
0000
0000
0000
0000
0000
0000
0000
0000
0000
0000
0000
0000
0000
0000
0100
0000
0000
0000
0000
0000
0000
0000
0010
0000
0000
0000
0000
0000
0000
0000
1000
0000
0000
0000
0000
0000
0000
0000
0011
0000
0000
0000
0000
0000
0000
0000
0000
0000
0000
0000
0000
0000
0000
0000
0000
0000
0000
0000
0000
0000
0000
0000
0010
0000
0000
0000
0000
0000
0000
0000
0100
0000
0000
0000
0000
0000
0000
0000
0001
0000
0000
0000
0000
0000
0000
0000
,
1100
0000
0000
0000
0000
0000
0001
0000
1000
0000
0010
0000
1100
0000
0000
0000
0000
0000
0010
0000
0000
0000
0000
0000
0011
0000
0000
0000
0000
0000
1000
0000
0000
0001
0000
0000
0110
0000
0000
1000
0000
0000
0010
0000
0000
0000
0000
0000
,
1010
0001
0000
1000
0011
0100
0001
0000
1100
0000
0001
0000
0101
0010
0100
0012
,
1000
0000
0000
0000
1003
0010
0100
0001
1010
1000
0100
0000
0101
0100
0010
0000
,
0110
0010
0001
0000
1001
0001
1000
0000
1010
0100
1010
0001
1000
0010
1001
0100
,
0001
0000
0000
0100
0000
0000
0011
0000
0000
1000
0000
0000
0011
0000
0000
0011
0000
0000
0011
0000
0000
0011
0000
0000
0100
0000
0000
0000
0000
0000
0011
0000
0000
0000
0000
0000
1000
0000
0100
0000
0010
0000
1001
0000
0000
0000
0000
0000
,
0100
0000
0000
0000
0000
0000
1020
0000
0000
0000
0000
0000
0000
0000
0000
0000
0000
0000
1000
0000
0000
0000
0000
0000
0130
0000
0000
0000
0000
0000
0011
0000
0000
0000
0000
0000
1000
0000
0100
0000
0010
0000
1001
0000
0000
0100
0000
0000
,
0012
0000
0100
0000
0000
0000
0100
0000
1003
1000
0101
0000
0100
0100
0011
0000
,
0010
0000
0000
0010
0000
0000
1001
0000
0000
0000
0000
0000
0001
0000
0000
0001
0000
0000
1010
0000
0000
0000
0000
0000
0100
0000
0010
0000
1000
0000
0011
0000
0000
0100
0000
0000
0010
0000
1000
0000
0001
0000
1100
0000
0000
0010
0000
0000
,
0100
0000
0001
0000
1000
0000
0011
0000
0000
0100
0000
0000
1010
0000
0000
0101
0000
0000
1000
0000
0000
0001
0000
0000
0100
0000
0000
0010
0000
0000
0100
0000
0000
0000
0000
0000
0001
0000
0000
0010
0000
0000
1000
0000
0000
0001
0000
0000
,
0000
0001
0100
0000
0010
1000
0100
0010
0001
0010
1000
0000
0001
0100
1000
0001
,
0000
0001
1000
0000
0010
1000
0001
0100
0010
0100
1000
0000
0010
1000
0100
0001
,
0000
0001
0100
0000
0010
0100
0001
1000
0010
1000
0001
0000
0100
0010
1000
0011
,
1100
1100
0011
0000
1100
1100
0011
0000
1100
1100
0011
0000
1100
1100
0010
0100
,
0001
0000
1000
0010
1100
0000
0001
0100
0010
0000
1000
0010
1100
0000
0001
0000
,
0000
0000
0100
0010
0101
0000
0010
1000
0001
0000
0100
0010
0101
0000
1000
0000
,
0000
0000
0001
0100
1001
0000
1000
0010
0100
0000
0001
0100
1001
0000
0101
0101
,
1000
0100
0011
1000
0100
0010
1001
0100
0010
0001
1100
0010
0001
0100
0010
1000
,
0001
0000
0100
0001
0110
0000
0010
1000
0001
0000
0100
0001
0110
0000
1000
0000
,
0000
0000
0001
1000
0011
0000
0100
0010
1000
0000
0001
1000
0011
0000
0100
0000
,
0000
0000
0010
0100
1010
0000
0100
0001
1000
0000
0010
0100
1010
0000
1100
1100
,
0001
0000
0011
0100
1000
0000
1010
0100
0001
0000
1001
0100
0010
1000
0001
1000
,
0010
0000
0100
0000
0011
0000
1000
0001
0000
0011
1000
0010
0101
0000
0010
0000
,
0000
0000
0010
0000
1100
0000
0001
1000
0000
1100
0001
0000
1010
0000
1001
1001
,
0110
0001
0100
1010
0100
1000
0011
0100
0001
0010
0100
1000
0101
0010
0001
0000
,
0010
0000
0000
0001
0000
0000
0100
0000
0000
1010
0000
0000
0100
0000
0000
1000
0000
0000
0011
0000
0000
0100
0000
0000
1001
0000
0000
1001
0000
0000
0100
0000
0000
0001
0000
0000
1000
0000
0100
0000
0010
0000
0001
0000
0100
0000
0010
0000
,
1000
0000
0001
0000
1010
0100
0010
0000
1000
0000
0001
0000
1100
0001
0100
0000
,
0010
0000
0000
0000
0000
0000
1000
0000
0000
0000
0000
0000
0011
0000
0000
1000
0000
0000
0001
0000
0000
0000
0000
0000
0100
0000
0000
0000
0000
0000
0010
0000
0000
0000
0000
0000
1001
0000
0100
0000
0001
0000
1000
0000
0000
0000
0000
0000
,
0010
0000
0100
0000
0011
1000
0001
0000
0100
0000
0010
0000
1100
0001
1000
0000
,
0010
0000
0000
0000
0100
0000
0000
0000
0011
0000
0100
0000
1000
0000
0000
0000
0001
0010
0100
0000
0010
0000
0100
0000
1000
0000
0001
0000
0100
0000
0010
0000
,
1000
0000
0001
0000
1100
0010
0100
0000
0001
0000
1000
0000
0011
1000
0001
0000
,
0100
0000
0000
0000
0000
0000
0010
0000
0000
0000
0000
0000
1001
0000
0000
0100
0000
0000
0001
0000
0000
0000
0000
0000
1000
0000
0000
0000
0000
0000
0010
0000
0000
0000
0000
0000
0101
0000
0010
0000
0100
0000
0001
0000
0000
0000
0000
0000
,
1000
0000
0010
0000
1100
0001
1000
0000
0010
0000
0100
0000
1010
0100
0011
0110
,
1100
1100
1100
0000
0101
0000
0010
0000
0100
0000
0010
0000
0100
0000
0010
0000
,
1100
0000
0000
0000
0011
0000
1000
0011
0100
0000
0010
0000
1100
0000
0011
0000
,
0000
0000
0100
0000
1001
0000
0100
0000
1001
0000
0010
1100
1100
0011
1000
0000
,
0101
0000
0000
0000
0011
0000
0010
1100
0010
0000
0010
0000
0011
0000
1100
0000
,
0000
0000
0010
0000
1001
0000
0010
0000
1001
0000
0100
0011
0011
1100
0001
0000
,
1010
0000
0000
0000
1100
0000
0100
0011
0100
0000
0100
0000
1100
0000
0011
0000
,
0000
0000
0010
0000
0101
0000
0010
0000
0101
0000
1000
0011
0011
1100
0001
0000
,
1010
0000
0000
0000
0101
0000
0100
1010
0100
0000
0100
0000
0101
0000
1010
0000
,
0011
0000
0000
0011
0000
0000
1100
0000
0000
0000
0000
0000
0011
0000
0000
0011
0000
0000
1000
0000
0000
0010
0000
0000
0100
0000
0000
0001
0000
0000
1000
0000
0000
0010
0000
0000
0100
0000
0000
0010
0000
0000
0100
0000
0001
0000
1000
0000
,
0010
0000
0100
0010
1100
0000
0010
0100
0011
0000
0100
0000
1100
0000
0001
0000
,
0000
0000
0000
0000
0000
0000
1000
0000
0001
0000
0100
0000
1010
0000
0000
0000
0000
0000
0001
0000
0000
1000
0000
0000
0101
0000
0000
0000
0000
0000
1000
0000
0000
0001
0000
0000
1010
0000
0000
0000
0000
0000
0110
0000
0000
0110
0000
0000
,
1001
0000
0010
1000
0110
0000
0100
0001
0110
0000
0010
0000
0110
0000
0001
0000
,
0000
0000
1000
0010
1001
0000
0010
0100
0011
0011
0011
0011
0011
0011
0011
0011
,
1100
0010
1000
0001
1010
0100
0010
0100
0001
1000
0011
0100
0001
1000
0011
0100
,
0010
1000
0001
0100
1001
0010
1000
0001
0100
0010
1100
0010
1000
0001
1100
0010
,
1000
0100
0010
0000
0100
0000
0010
0000
1001
0000
0100
0000
0001
0000
1000
0000
0001
0000
0010
0000
0100
0000
1000
0000
0010
0000
0100
0000
0010
0000
1000
0000
,
0001
0000
0100
0000
0001
0000
1000
0000
0010
0100
0010
0100
0010
0100
0010
0100
0011
0000
0000
0000
0110
0000
0000
0000
1100
0000
0000
0000
2002
0000
0000
0000
,
0000
3003
0000
0000
;
