#TITLE:Dear Spark;
#SUBTITLE:;
#ARTIST:Renard;
#TITLETRANSLIT:;
#SUBTITLETRANSLIT:;
#ARTISTTRANSLIT:;
#CREDIT:owenviau1;
#BANNER:BG.PNG;
#BACKGROUND:BG.PNG;
#LYRICSPATH:;
#CDTITLE:../ov1!title.png;
#MUSIC:Renard - Dear Spark.mp3;
#OFFSET:-0.195;
#SAMPLESTART:61.485;
#SAMPLELENGTH:29.999;
#SELECTABLE:YES;
#DISPLAYBPM:220.000;
#BPMS:0.000=220.000;
#STOPS:;
#BGCHANGES:;
// cache tags:
#FIRSTBEAT:0.000;
#LASTBEAT:647.000;
#SONGFILENAME:Songs/owenviau1 Simfiles 6/Dear Spark - [owenviau1] v1.0.2/Dear Spark.sm;
#HASMUSIC:1;
#HASBANNER:1;
#MUSICLENGTH:176.796;
// end cache tags

//---------------dance-single - 12 (owenviau1)----------------
#NOTES:
     dance-single:
     12 (owenviau1):
     Hard:
     12:
     1.000,1.000,0.023,0.255,0.512,1362.000,4.000,45.000,0.000,2.000:
1000
0100
0010
0001
1000
0010
0100
0001
,
0100
0010
1000
0100
0010
0001
1000
0010
,
0100
0001
1000
0100
1000
0001
0100
0010
,
1000
0100
0010
0001
1000
0010
1000
0001
,
0100
0001
1000
0100
0010
0001
1000
0100
,
1000
0010
0100
0001
1000
0001
0100
0010
,
1000
0001
0010
0001
0100
0010
1000
0100
,
1000
0001
0100
0010
1000
0001
0010
0100
,
1000
0001
1000
0010
0100
0001
1000
0100
,
0010
0001
1000
0010
1000
0100
0010
0001
,
0100
0001
1000
0010
0100
0010
1000
0001
,
0100
0001
1000
0010
0100
0001
1000
0100
,
0010
0001
0100
0010
0100
0001
1000
0001
,
0100
0010
1000
0100
0010
0001
1000
0010
,
0100
0010
1000
0001
0100
0001
1000
0100
,
0010
0001
1000
0100
0010
0001
1000
0010
,
0100
0001
0100
0000
0010
0000
1000
0100
1000
0000
0010
0000
0100
0000
0001
0000
,
1000
0010
1000
0000
0001
0000
0100
0010
0100
0000
0001
0000
1000
0000
0100
0000
,
0010
0001
0010
0000
0100
0000
1000
0100
1000
0000
0001
0000
0100
0000
0010
0000
,
1000
0001
1000
0000
0010
0000
0100
0001
0100
0000
0010
0000
1000
0000
0100
0000
,
0010
0001
0010
0000
0100
0000
1000
0001
1000
0000
0010
0000
0100
0000
0001
0000
,
1000
0010
1000
0000
0100
0000
0010
0001
0010
0000
0100
0000
1000
0000
0010
0000
,
0100
0001
0100
0000
0010
0000
1000
0010
1000
0000
0100
0000
0010
0000
0001
0000
,
0100
0010
0100
0000
0001
0000
1000
0100
1000
0000
0001
0000
0100
0000
0010
0000
,
1000
0100
1000
0000
0001
0000
0100
0010
0100
0000
0001
0000
0100
0000
0001
0000
,
1000
0010
1000
0000
0001
0000
0100
0010
0100
0000
0001
0000
1000
0000
0100
0000
,
0010
0001
0010
0000
0100
0000
1000
0100
1000
0000
0001
0000
0100
0000
0010
0000
,
1000
0001
1000
0000
0010
0000
0100
0001
0100
0000
0010
0000
1000
0000
0100
0000
,
0010
0001
0010
0000
0100
0000
1000
0001
1000
0000
0010
0000
0100
0000
0001
0000
,
1000
0010
1000
0000
0100
0000
0010
0001
0010
0000
0100
0000
1000
0000
0010
0000
,
0100
0001
0100
0000
0010
0000
1000
0010
1000
0000
0100
0000
0010
0000
0001
0000
,
0100
0010
0100
0000
0001
0000
1000
0100
0010
0000
0001
0000
0100
0000
0010
0000
,
1000
0100
0010
0001
1000
0010
0100
0001
,
0100
0010
1000
0100
0010
0001
1000
0010
,
0100
0001
1000
0100
1000
0001
0100
0010
,
1000
0100
0010
0001
1000
0010
1000
0001
,
0100
0001
1000
0100
0010
0001
1000
0100
,
1000
0010
0100
0001
1000
0001
0100
0010
,
1000
0001
0010
0001
0100
0010
1000
0100
,
1000
0001
0100
0010
1000
0001
0010
0100
,
1000
0001
1000
0010
0100
0001
1000
0100
,
0010
0001
1000
0010
1000
0100
0010
0001
,
0100
0001
1000
0010
0100
0010
1000
0001
,
0100
0001
1000
0010
0100
0001
1000
0100
,
0010
0001
0100
0010
0100
0001
1000
0001
,
0100
0010
1000
0100
0010
0001
1000
0010
,
0100
0010
1000
0001
0100
0001
1000
0100
,
0010
0001
1000
0010
0100
0001
0100
0010
,
2001
0000
3000
0000
0020
0000
0130
0002
,
0000
0000
1003
0020
0000
0000
0030
0000
,
0000
0000
0000
0000
0200
0000
0301
2000
,
0000
0000
3010
0200
0000
0000
0300
0000
,
0000
0000
0000
0000
0002
0000
0103
0020
,
0000
0000
1030
0200
0000
0320
0000
0000
,
2032
0000
0000
3003
0000
0000
0000
0000
0000
0000
0000
0000
0002
0000
0000
0000
,
0203
0320
2030
3002
,
1003
0010
1000
0000
0001
0000
1000
0100
1000
0000
0010
0000
0100
0000
0001
0000
,
1000
0010
1000
0000
0001
0000
0100
0010
0100
0000
0001
0000
1000
0000
0100
0000
,
0010
0001
0010
0000
0100
0000
1000
0100
1000
0000
0001
0000
0100
0000
0010
0000
,
1000
0001
1000
0000
0010
0000
0100
0001
0100
0000
0010
0000
1000
0000
0100
0000
,
0010
0001
0010
0000
0100
0000
1000
0001
1000
0000
0010
0000
0100
0000
0001
0000
,
1000
0010
1000
0000
0100
0000
0010
0001
0010
0000
0100
0000
1000
0000
0010
0000
,
0100
0001
0100
0000
0010
0000
1000
0010
1000
0000
0100
0000
0010
0000
0001
0000
,
0100
0010
0100
0000
0001
0000
1000
0100
1000
0000
0001
0000
0100
0000
0010
0000
,
1000
0100
1000
0000
0001
0000
0100
0010
0100
0000
0001
0000
0100
0000
0001
0000
,
1000
0010
1000
0000
0001
0000
0100
0010
0100
0000
0001
0000
1000
0000
0100
0000
,
0010
0001
0010
0000
0100
0000
1000
0100
1000
0000
0001
0000
0100
0000
0010
0000
,
1000
0001
1000
0000
0010
0000
0100
0001
0100
0000
0010
0000
1000
0000
0100
0000
,
0010
0001
0010
0000
0100
0000
1000
0001
1000
0000
0010
0000
0100
0000
0001
0000
,
1000
0010
1000
0000
0100
0000
0010
0001
0010
0000
0100
0000
1000
0000
0010
0000
,
0100
0001
0100
0000
0010
0000
1000
0010
1000
0000
0100
0000
0010
0000
0001
0000
,
0100
0010
0100
0000
0001
0000
1000
0100
0010
0000
0001
0000
1000
0000
0010
0000
,
0100
0001
0100
0000
0010
0000
1000
0100
1000
0000
0010
0000
0100
0000
0001
0000
,
1000
0010
1000
0000
0001
0000
0100
0010
0100
0000
0001
0000
1000
0000
0100
0000
,
0010
0001
0010
0000
0100
0000
1000
0100
1000
0000
0001
0000
0100
0000
0010
0000
,
1000
0001
1000
0000
0010
0000
0100
0001
0100
0000
0010
0000
1000
0000
0001
0000
,
0200
0000
0000
0000
,
0310
1000
0100
0010
0001
1000
0010
0000
0100
0001
1000
0010
0200
0000
0300
0000
,
1000
0001
1000
0000
0001
0000
1000
0010
1000
0000
0100
0000
0010
0000
0001
0000
,
0100
0010
0100
0000
0001
0000
1000
0100
1000
0000
0001
0000
0100
0000
0010
0000
,
1000
0100
1000
0000
0001
0000
0100
0010
0100
0000
0001
0000
0100
0000
0001
0000
,
1000
0010
1000
0000
0001
0000
0100
0010
0100
0000
0001
0000
1000
0000
0100
0000
,
0010
0001
0010
0000
0100
0000
1000
0100
1000
0000
0001
0000
0100
0000
0010
0000
,
1000
0001
1000
0000
0010
0000
0100
0001
0100
0000
0010
0000
1000
0000
0100
0000
,
0010
0001
0010
0000
0100
0000
1000
0001
1000
0000
0010
0000
0100
0000
0001
0000
,
1000
0010
1000
0000
0100
0000
0010
0001
0010
0000
0100
0000
1000
0000
0010
0000
,
0100
0001
0100
0000
0010
0000
1000
0010
1000
0000
0100
0000
0010
0000
0001
0000
,
0100
0010
0100
0000
0001
0000
1000
0100
0010
0000
0001
0000
0100
0000
0010
0000
,
1000
0010
1000
0000
0001
0000
1000
0100
1000
0000
0010
0000
0100
0000
0001
0000
,
1000
0010
1000
0000
0001
0000
0100
0010
0100
0000
0001
0000
1000
0000
0100
0000
,
0010
0001
0010
0000
0100
0000
1000
0100
1000
0000
0001
0000
0100
0000
0010
0000
,
1000
0001
1000
0000
0010
0000
0100
0001
0100
0000
0010
0000
1000
0000
0100
0000
,
0010
0001
0010
0000
0100
0000
1000
0001
1000
0000
0010
0000
0100
0000
0001
0000
,
1000
0010
1000
0000
0100
0000
0010
0001
0010
0000
0100
0000
1000
0000
0010
0000
,
0100
0001
0100
0000
0010
0000
1000
0010
1000
0000
0100
0000
0010
0000
0001
0000
,
0100
0010
0100
0000
0001
0000
1000
0100
1000
0000
0001
0000
0100
0000
0010
0000
,
1000
0100
1000
0000
0001
0000
0100
0010
0100
0000
0001
0000
0100
0000
0001
0000
,
1000
0010
1000
0000
0001
0000
0100
0010
0100
0000
0001
0000
1000
0000
0100
0000
,
0010
0001
0010
0000
0100
0000
1000
0100
1000
0000
0001
0000
0100
0000
0010
0000
,
1000
0001
1000
0000
0010
0000
0100
0001
0100
0000
0010
0000
1000
0000
0100
0000
,
0010
0001
0010
0000
0100
0000
1000
0001
1000
0000
0010
0000
0100
0000
0001
0000
,
1000
0010
1000
0000
0100
0000
0010
0001
0010
0000
0100
0000
1000
0000
0010
0000
,
0100
0001
0100
0000
0010
0000
1000
0010
1000
0000
0100
0000
0010
0000
0001
0000
,
0100
0010
0100
0000
0001
0000
1000
0100
0010
0000
0001
0000
1000
0000
0010
0000
,
0100
0001
0100
0000
0010
0000
1000
0100
1000
0000
0010
0000
0100
0000
0001
0000
,
1000
0010
1000
0000
0001
0000
0100
0010
0100
0000
0001
0000
1000
0000
0100
0000
,
0010
0001
0010
0000
0100
0000
1000
0100
1000
0000
0001
0000
0100
0000
0010
0000
,
1000
0010
1000
0000
0001
0000
1000
0100
1000
0000
0010
0000
0100
0000
0001
0000
,
1000
0010
1000
0000
0001
0000
0100
0010
0100
0000
0001
0000
1000
0000
0100
0000
,
0010
0001
0010
0000
0100
0000
1000
0100
1000
0000
0001
0000
0100
0000
0010
0000
,
2001
0000
3000
0000
0020
0000
0130
0002
,
0000
0000
1003
0020
0000
0000
0030
0000
,
0000
0000
0000
0000
0200
0000
0301
2000
,
0000
0000
3010
0200
0000
0000
0300
0000
,
0000
0000
0000
0000
0002
0000
0103
0020
,
0000
0000
1030
0200
0000
0320
0000
0000
,
2032
0000
0000
3003
0000
0000
0000
0000
0000
0000
0000
0000
0002
0000
0000
0000
,
0203
0320
2030
3002
,
1003
0100
0010
0001
1000
0010
0100
0001
,
0100
0010
1000
0100
0010
0001
1000
0010
,
0100
0001
1000
0100
1000
0001
0100
0010
,
1000
0100
0010
0001
1000
0010
1000
0001
,
0100
0001
1000
0100
0010
0001
1000
0100
,
1000
0010
0100
0001
1000
0001
0100
0010
,
1000
0001
0010
0001
0100
0010
1000
0100
,
1000
0001
0100
0010
1000
0001
0010
0100
,
1000
0001
1000
0010
0100
0001
1000
0100
,
0010
0001
1000
0010
1000
0100
0010
0001
,
0100
0001
1000
0010
0100
0010
1000
0001
,
0100
0001
1000
0010
0100
0001
1000
0100
,
0010
0001
0100
0010
0100
0001
1000
0001
,
0100
0010
1000
0100
0010
0001
1000
0010
,
0100
0010
1000
0001
0100
0001
1000
0100
,
0010
0001
1000
0100
0010
0001
1000
0010
,
0100
0001
0100
0010
1000
0100
0010
0001
,
1000
0010
0100
0001
1000
0100
1000
0001
,
0100
0010
1000
0100
0010
0001
1000
0010
,
1000
0001
0100
0001
1000
0100
0010
0001
,
2000
0000
0000
0000
,
3020
0230
0302
2003
,
3100
0001
0100
0000
0010
0000
1000
0100
1000
0000
0010
0000
0100
0000
0001
0000
,
1000
0010
1000
0000
0001
0000
0100
0010
0100
0000
0001
0000
1000
0000
0100
0000
,
0010
0001
0010
0000
0100
0000
1000
0100
1000
0000
0001
0000
0100
0000
0010
0000
,
1000
0001
1000
0000
0010
0000
0100
0001
0100
0000
0010
0000
1000
0000
0100
0000
,
0010
0001
0010
0000
0100
0000
1000
0001
1000
0000
0010
0000
0100
0000
0001
0000
,
1000
0010
1000
0000
0100
0000
0010
0001
0010
0000
0100
0000
1000
0000
0010
0000
,
0100
0001
0100
0000
0010
0000
1000
0010
1000
0000
0100
0000
0010
0000
0001
0000
,
0100
0010
0100
0000
0001
0000
1000
0100
1000
0000
0001
0000
0100
0000
0010
0000
,
0100
0001
0100
0000
0010
0000
1000
0100
1000
0000
0010
0000
0100
0000
0001
0000
,
1000
0010
1000
0000
0001
0000
0100
0010
0100
0000
0001
0000
1000
0000
0100
0000
,
0010
0001
0010
0000
0100
0000
1000
0100
1000
0000
0001
0000
0100
0000
0010
0000
,
1000
0001
1000
0000
0010
0000
0100
0001
0100
0000
0010
0000
1000
0000
0100
0000
,
0010
0001
0010
0000
0100
0000
1000
0001
1000
0000
0010
0000
0100
0000
0001
0000
,
1000
0010
1000
0000
0100
0000
0010
0001
0010
0000
0100
0000
1000
0000
0010
0000
,
0100
0001
0100
0000
0010
0000
1000
0010
1000
0000
0100
0000
0010
0000
0001
0000
,
0100
0010
0100
0000
0001
0000
1000
0100
1000
0000
0001
0000
0100
0000
0010
0000
,
0100
0001
0100
0000
0010
0000
1000
0100
1000
0000
0010
0000
0100
0000
0001
0000
,
1000
0010
1000
0000
0001
0000
0100
0010
0100
0000
0001
0000
1000
0000
0100
0000
,
0010
0001
0010
0000
0100
0000
1000
0100
1000
0000
0001
0000
0100
0000
0010
0000
,
1000
0001
1000
0000
0010
0000
0100
0001
0100
0000
0010
0000
1000
0000
0100
0000
,
0020
0000
0000
0000
,
0000
2030
0000
3000
;

//---------------dance-single - 18 (owenviau1)----------------
#NOTES:
     dance-single:
     18 (owenviau1):
     Challenge:
     18:
     1.000,1.000,0.096,0.255,1.000,1880.000,17.000,45.000,0.000,2.000:
1000
0100
0010
0001
1000
0010
0100
0001
,
0100
0010
1000
0100
0010
0001
1000
0010
,
0100
0001
1000
0100
1000
0001
0100
0010
,
1000
0100
0010
0001
1000
0010
1000
0001
,
0100
0001
1000
0100
0010
0001
1000
0100
,
1000
0010
0100
0001
1000
0001
0100
0010
,
1000
0001
0010
0001
0100
0010
1000
0100
,
1000
0001
0100
0010
1000
0001
0010
0100
,
1000
0001
1000
0010
0100
0001
1000
0100
,
0010
0001
1000
0010
1000
0100
0010
0001
,
0100
0001
1000
0010
0100
0010
1000
0001
,
0100
0001
1000
0010
0100
0001
1000
0100
,
0010
0001
0100
0010
0100
0001
1000
0001
,
0100
0010
1000
0100
0010
0001
1000
0010
,
0100
0010
1000
0001
0100
0001
1000
0100
,
0010
0001
1000
0100
1010
0110
0101
1001
,
0100
0010
1000
0001
0100
0010
1000
0100
1000
0001
0100
0010
1000
0001
0100
0001
,
1000
0010
1000
0100
0010
0001
0100
0010
1000
0100
0010
0001
1000
0100
1000
0010
,
0100
0010
1000
0001
0100
0010
0100
0001
1000
0001
0100
0010
1000
0100
0010
0001
,
1000
0001
0100
0010
1000
0100
1000
0001
0100
0010
1000
0001
0010
0001
0100
0010
,
1000
0100
0010
0001
1000
0001
0100
0010
1000
0100
1000
0001
0100
0010
1000
0100
,
0010
0001
1000
0001
0010
0100
1000
0100
0010
0001
1000
0010
0100
0001
0100
0010
,
1000
0100
0010
0001
1000
0001
0100
0010
1000
0001
0100
0010
1000
0001
0100
0001
,
1000
0010
1000
0100
0010
0001
0100
0010
1000
0100
0010
0001
1000
0100
1000
0010
,
0100
0010
1000
0001
0100
0010
0100
0001
1000
0001
0100
0010
1000
0100
0010
0001
,
1000
0001
0100
0010
1000
0100
1000
0001
0100
0010
1000
0001
0010
0001
0100
0010
,
1000
0100
0010
0001
1000
0001
0100
0010
1000
0100
1000
0001
0100
0010
1000
0100
,
0010
0001
1000
0001
0010
0100
1000
0100
0010
0001
1000
0010
0100
0001
0100
0010
,
1000
0100
0010
0001
1000
0001
0100
0010
1000
0001
0100
0010
1000
0001
0100
0001
,
1000
0010
1000
0100
0010
0001
0100
0010
1000
0100
0010
0001
1000
0100
1000
0010
,
0100
0010
1000
0001
0100
0010
0100
0001
1000
0001
0100
0010
1000
0100
0010
0001
,
1000
0001
0100
0010
1000
0100
0010
0000
1001
0000
0101
0000
0110
0000
1010
0000
,
1001
0100
0010
0001
1000
0010
0100
0001
,
0100
0010
1000
0100
0010
0001
1000
0010
,
0100
0001
1000
0100
1000
0001
0100
0010
,
1000
0100
0010
0001
1000
0010
1000
0001
,
0100
0001
1000
0100
0010
0001
1000
0100
,
1000
0010
0100
0001
1000
0001
0100
0010
,
1000
0001
0010
0001
0100
0010
1000
0100
,
1000
0001
0100
0010
1000
0001
0010
0100
,
1000
0001
1000
0010
0100
0001
1000
0100
,
0010
0001
1000
0010
1000
0100
0010
0001
,
0100
0001
1000
0010
0100
0010
1000
0001
,
0100
0001
1000
0010
0100
0001
1000
0100
,
0010
0001
0100
0010
0100
0001
1000
0001
,
0100
0010
1000
0100
0010
0001
1000
0010
,
0100
0010
1000
0001
0100
0001
1000
0100
,
0010
0001
1000
0010
0100
0001
0100
0010
,
2001
0000
3000
0000
0020
0000
0130
0002
,
0000
0000
1003
0020
0000
0000
0030
0000
,
0000
0000
0000
0000
0200
0000
0301
2000
,
0000
0000
3010
0200
0000
0000
0300
0000
,
0000
0000
0000
0000
0002
0000
0103
0020
,
0000
0000
1030
0200
0000
0320
0000
0000
,
2032
0000
0000
3003
0000
0000
0000
0000
0000
0000
0000
0000
0002
0000
0000
0000
,
0203
0320
2030
3002
,
1003
0010
0100
0001
1000
0010
0100
0001
1000
0010
1000
0100
0010
0001
0100
0010
,
1000
0100
0010
0001
1000
0100
1000
0010
0100
0010
1000
0001
0100
0010
0100
0001
,
1000
0001
0100
0010
1000
0100
0010
0001
1000
0001
0100
0010
1000
0100
1000
0001
,
0100
0010
1000
0001
0010
0001
0100
0010
1000
0100
0010
0001
1000
0001
0100
0010
,
1000
0100
1000
0001
0100
0010
1000
0100
0010
0001
1000
0001
0010
0100
1000
0100
,
0010
0001
1000
0010
0100
0001
0100
0010
1000
0100
0010
0001
1000
0001
0100
0010
,
1000
0001
0100
0010
1000
0001
0100
0001
1000
0010
1000
0100
0010
0001
0100
0010
,
1000
0100
0010
0001
1000
0100
1000
0010
0100
0010
1000
0001
0100
0010
0100
0001
,
1000
0001
0100
0010
1000
0100
0010
0001
1000
0001
0100
0010
1000
0100
1000
0001
,
0100
0010
1000
0001
0010
0001
0100
0010
1000
0100
0010
0001
1000
0001
0100
0010
,
1000
0100
1000
0001
0100
0010
1000
0100
0010
0001
1000
0001
0010
0100
1000
0100
,
0010
0001
1000
0010
0100
0001
0100
0010
1000
0100
0010
0001
1000
0001
0100
0010
,
1000
0001
0100
0010
1000
0001
0100
0001
1000
0010
1000
0100
0010
0001
0100
0010
,
1000
0100
0010
0001
1000
0100
1000
0010
0100
0010
1000
0001
0100
0010
0100
0001
,
1000
0001
0100
0010
1000
0100
0010
0001
1000
0001
0100
0010
1000
0001
0100
0010
,
1000
0001
0100
0001
1000
0010
1000
0100
0010
0001
0100
0010
1000
0100
0010
0001
,
1000
0100
1000
0010
0100
0010
1000
0001
0100
0010
0100
0001
1000
0001
0100
0010
,
1000
0100
0010
0001
1000
0001
0100
0010
1000
0100
1000
0001
0100
0010
1000
0001
,
0010
0001
0100
0010
1000
0100
0010
0001
1000
0001
0100
0010
1000
0100
1000
0001
,
0100
0010
1000
0100
0010
0001
1000
0001
0010
0100
1000
0100
0010
0001
1000
0010
,
0200
0000
0000
0000
,
0310
1000
0100
0010
0001
1000
0010
0000
0100
0001
1000
0010
0200
0000
0300
0000
,
1000
0001
0100
0010
1000
0100
0010
0001
1000
0010
0100
0001
1000
0001
0100
0010
,
1000
0100
0010
0001
1000
0001
0100
0010
1000
0100
1000
0001
0100
0010
1000
0001
,
0010
0001
0100
0010
1000
0100
0010
0001
1000
0001
0100
0010
1000
0100
1000
0001
,
0100
0010
1000
0100
0010
0001
1000
0001
0010
0100
1000
0100
0010
0001
1000
0010
,
0100
0001
0100
0010
1000
0100
0010
0001
1000
0001
0100
0010
1000
0001
0100
0010
,
1000
0001
0100
0001
1000
0010
1000
0100
0010
0001
0100
0010
1000
0100
0010
0001
,
1000
0100
1000
0010
0100
0010
1000
0001
0100
0010
0100
0001
1000
0001
0100
0010
,
1000
0100
0010
0001
1000
0001
0100
0010
1000
0001
0100
0010
1000
0001
0100
0001
,
1000
0010
1000
0100
0010
0001
0100
0010
1000
0100
0010
0001
1000
0100
1000
0010
,
0100
0010
1000
0001
0100
0010
0100
0001
1000
0001
0100
0010
1000
0100
0010
0001
,
1000
0001
0100
0010
1000
0100
1000
0001
0100
0010
1000
0001
0010
0001
0100
0010
,
1000
0100
0010
0001
1000
0001
0100
0010
1000
0100
1000
0001
0100
0010
1000
0100
,
0010
0001
1000
0001
0010
0100
1000
0100
0010
0001
1000
0010
0100
0001
0100
0010
,
1000
0100
0010
0001
1000
0001
0100
0010
1000
0001
0100
0010
1000
0001
0100
0001
,
1000
0010
1000
0100
0010
0001
0100
0010
1000
0100
0010
0001
1000
0100
1000
0010
,
0100
0010
1000
0001
0100
0010
0100
0001
1000
0001
0100
0010
1000
0100
0010
0001
,
1000
0001
0100
0010
1000
0100
1000
0001
0100
0010
1000
0001
0010
0001
0100
0010
,
1000
0100
0010
0001
1000
0001
0100
0010
1000
0100
1000
0001
0100
0010
1000
0100
,
0010
0001
1000
0001
0010
0100
1000
0100
0010
0001
1000
0010
0100
0001
0100
0010
,
1000
0100
0010
0001
1000
0001
0100
0010
1000
0001
0100
0010
1000
0001
0100
0001
,
1000
0010
1000
0100
0010
0001
0100
0010
1000
0100
0010
0001
1000
0100
1000
0010
,
0100
0010
1000
0001
0100
0010
0100
0001
1000
0001
0100
0010
1000
0100
0010
0001
,
1000
0001
0100
0010
1000
0001
0100
0010
1000
0001
0100
0001
1000
0010
1000
0100
,
0010
0001
0100
0010
1000
0100
0010
0001
1000
0100
1000
0010
0100
0010
1000
0001
,
0100
0010
0100
0001
1000
0001
0100
0010
1000
0100
0010
0001
1000
0001
0100
0010
,
1000
0100
1000
0001
0100
0010
1000
0001
0010
0001
0100
0010
1000
0100
0010
0001
,
1000
0001
0100
0010
1000
0100
1000
0001
0100
0010
1000
0100
0010
0001
1000
0001
,
0010
0100
1000
0100
0010
0001
1000
0010
0100
0001
0100
0010
1000
0100
0010
0001
,
1000
0001
0100
0010
1000
0001
0100
0010
1000
0001
0100
0001
1000
0010
1000
0100
,
0010
0001
0100
0010
1000
0100
0010
0001
1000
0100
1000
0010
0100
0010
1000
0001
,
0100
0010
0100
0001
1000
0001
0100
0010
1000
0100
0010
0001
1000
0001
0100
0010
,
1000
0100
1000
0001
0100
0010
1000
0000
0110
0000
0101
0000
1010
0000
0110
0000
,
2001
0000
3000
0000
0020
0000
0130
0002
,
0000
0000
1003
0020
0000
0000
0030
0000
,
0000
0000
0000
0000
0200
0000
0301
2000
,
0000
0000
3010
0200
0000
0000
0300
0000
,
0000
0000
0000
0000
0002
0000
0103
0020
,
0000
0000
1030
0200
0000
0320
0000
0000
,
2032
0000
0000
3003
0000
0000
0000
0000
0000
0000
0000
0000
0002
0000
0000
0000
,
0203
0320
2030
3002
,
1003
0100
0010
0001
1000
0010
0100
0001
,
0100
0010
1000
0100
0010
0001
1000
0010
,
0100
0001
1000
0100
1000
0001
0100
0010
,
1000
0100
0010
0001
1000
0010
1000
0001
,
0100
0001
1000
0100
0010
0001
1000
0100
,
1000
0010
0100
0001
1000
0001
0100
0010
,
1000
0001
0010
0001
0100
0010
1000
0100
,
1000
0001
0100
0010
1000
0001
0010
0100
,
1000
0001
1000
0010
0100
0001
1000
0100
,
0010
0001
1000
0010
1000
0100
0010
0001
,
0100
0001
1000
0010
0100
0010
1000
0001
,
0100
0001
1000
0010
0100
0001
1000
0100
,
0010
0001
0100
0010
0100
0001
1000
0001
,
0100
0010
1000
0100
0010
0001
1000
0010
,
0100
0010
1000
0001
0100
0001
1000
0100
,
0010
0001
1000
0100
0010
0001
1000
0010
,
0100
0001
0100
0010
1000
0100
0010
0001
,
1000
0010
0100
0001
1000
0100
1000
0001
,
0100
0010
1000
0100
0010
0001
1000
0010
,
1000
0001
0100
0001
1000
0100
0010
0001
,
2000
0000
0000
0000
,
3020
0230
0302
2003
,
3001
0100
0010
1000
0100
1000
0001
0100
0010
1000
0001
0100
0001
1000
0010
1000
,
0100
0010
0001
0100
0010
1000
0100
0010
0001
1000
0100
1000
0010
0100
0010
1000
,
0001
0100
0010
0100
0001
1000
0001
0100
0010
1000
0100
0010
0001
1000
0001
0100
,
0010
1000
0100
1000
0001
0100
0010
1000
0001
0010
0001
0100
0010
1000
0100
0010
,
0001
1000
0001
0100
0010
1000
0100
1000
0001
0100
0010
1000
0100
0010
0001
1000
,
0001
0010
0100
1000
0100
0010
0001
1000
0010
0100
0001
0100
0010
1000
0100
0010
,
0001
1000
0001
0100
0010
1000
0001
0100
0010
1000
0001
0100
0001
1000
0010
1000
,
0100
0010
0001
0100
0010
1000
0100
0010
0001
1000
0100
1000
0010
0100
0010
1000
,
0001
0100
0010
0100
0001
1000
0001
0100
0010
1000
0100
0010
0001
1000
0001
0100
,
0010
1000
0100
1000
0001
0100
0010
1000
0001
0010
0001
0100
0010
1000
0100
0010
,
0001
1000
0001
0100
0010
1000
0100
1000
0001
0100
0010
1000
0100
0010
0001
1000
,
0001
0010
0100
1000
0100
0010
0001
1000
0010
0100
0001
0100
0010
1000
0100
0010
,
0001
1000
0001
0100
0010
1000
0001
0100
0010
1000
0001
0100
0001
1000
0010
1000
,
0100
0010
0001
0100
0010
1000
0100
0010
0001
1000
0100
1000
0010
0100
0010
1000
,
0001
0100
0010
0100
0001
1000
0001
0100
0010
1000
0100
0010
0001
0100
0010
1000
,
0100
1000
0001
0100
0010
1000
0001
0100
0001
1000
0010
1000
0100
0010
0001
0100
,
0010
1000
0100
0010
0001
1000
0100
1000
0010
0100
0010
1000
0001
0100
0010
0100
,
0001
1000
0001
0100
0010
1000
0100
0010
0001
1000
0001
0100
0010
1000
0100
1000
,
0001
0100
0010
1000
0001
0010
0001
0100
0010
1000
0100
0010
0001
1000
0001
0100
,
0010
1000
0100
1000
0001
0100
0010
1000
0100
0010
0001
1000
0001
0010
0100
1000
,
0002
0000
0000
0000
,
0000
2003
0000
3000
;
