#TITLE:Brute Force;
#SUBTITLE:;
#ARTIST:Cardboard Box;
#TITLETRANSLIT:;
#SUBTITLETRANSLIT:;
#ARTISTTRANSLIT:;
#CREDIT:BoxX;
#BANNER:../Banner.png;
#BACKGROUND:../bg.png;
#LYRICSPATH:;
#CDTITLE:;
#MUSIC:Brute Force.ogg;
#OFFSET:0.000;
#SAMPLESTART:37.967;
#SAMPLELENGTH:10.000;
#SELECTABLE:YES;
#BPMS:0.000=250.000;
#STOPS:;
#BGCHANGES:;
// cache tags:
#FIRSTBEAT:32.000;
#LASTBEAT:545.000;
#SONGFILENAME:Songs/Tachyon Epsilon/Brute Force - [TheBoxX]/Brute Force.sm;
#HASMUSIC:1;
#HASBANNER:1;
#MUSICLENGTH:133.570;
// end cache tags

//---------------dance-single - TheBoxX----------------
#NOTES:
     dance-single:
     TheBoxX:
     Hard:
     21:
     1.000,1.000,0.097,1.000,1.000,1442.000,13.000,167.000,0.000,0.000:



















0000
0000
0000
0000
,
0000
0000
0000
0000
,
0000
0000
0000
0000
,
0000
0000
0000
0000
,
0000
0000
0000
0000
,
0000
0000
0000
0000
,
0000
0000
0000
0000
,
0000
0000
0000
0000
,
1001
0000
1000
0001
0000
1000
0200
0000
,
0000
1300
0001
0000
0100
0000
0201
0000
,
0000
0301
1000
0000
0010
0000
2010
0000
,
0000
3010
0100
0000
0001
0000
1000
0000
,
1001
0000
0001
1000
0000
0001
0200
0000
,
0000
0301
1000
0000
0100
0000
1200
0000
,
0000
1300
0001
0000
0010
0000
0012
0000
,
0000
0013
0100
0000
1000
0000
0001
0000
,
0102
0000
0000
0000
0000
0003
2100
0000
,
0000
0000
0000
0000
0000
3001
0200
0000
,
0000
0000
0000
0000
0000
0310
2000
0000
,
0000
0000
0000
0000
0000
3000
1100
0000
,
0012
0000
0000
0000
0000
0003
2010
0000
,
0000
0000
0000
0000
0000
3001
0020
0000
,
0000
0000
0000
0000
0000
0130
2000
0000
,
0000
0000
0000
0000
0000
3000
1010
0000
,
1001
0000
0001
0100
0000
0100
0010
0000
,
0010
1000
0000
1000
0002
0000
0023
0000
,
0230
0000
1300
0001
0000
0001
0200
0000
,
0310
1000
0000
1000
0002
0000
0010
0000
,
2003
3020
0230
0302
0023
0230
2300
0000
,
3001
0100
0000
0100
0020
0000
2030
0000
,
3002
0000
0013
0001
0000
0001
2000
0000
,
3020
0000
0230
0000
0320
0000
2030
3000
,
0002
0000
1003
0100
0000
0100
0010
0000
,
0010
0001
0000
0001
0200
0000
0320
0000
,
2030
0000
3001
0100
0000
0100
0020
0000
,
1030
0001
0000
0001
0020
0000
0100
0000
,
0032
2003
3020
0230
0302
0023
0230
0000
,
1300
0001
0000
0001
0200
0000
0320
0000
,
2030
0000
3001
0100
0000
0100
0020
0000
,
2030
3200
0320
0032
,
2003
0000
3001
0010
0000
0010
0001
0000
,
0001
1000
0000
1000
0020
0000
0230
0000
,
0301
0100
0010
1000
0001
1000
0100
1000
0001
0010
0100
1000
0001
0010
0100
0010
,
0001
1000
0001
0100
0010
0100
0001
1000
0020
0000
0000
0000
0230
0000
0320
0000
,
2030
3200
0320
0032
0203
0320
2030
3020
,
0230
0302
0023
0230
2300
0000
3002
0000
,
0203
0000
0000
0000
0000
0000
0000
0000
0000
0000
0000
0000
0301
0100
0010
1000
,
0001
1000
0010
0100
0010
1000
0001
1000
0100
0010
0100
1000
0001
1000
0100
0010
,
0002
0000
1003
0100
0000
0100
0010
0000
,
0010
0001
0000
0001
0200
0000
0320
0000
,
1030
0001
1000
0100
0010
0100
1000
0001
1000
0100
0010
0001
1000
0001
0100
0001
,
1000
0010
1000
0001
0100
0010
1000
0001
1000
0100
1000
0001
0010
0100
0010
0001
,
1000
0100
0010
0100
1000
0001
1000
0001
0100
0010
0100
0001
1000
0001
0100
0010
,
0100
0001
1000
0001
1000
0100
0010
0100
1000
0001
1000
0001
0100
0010
1000
0001
,
2000
0000
0000
0000
0000
0000
0000
0000
0000
0000
0000
0000
3001
0100
0010
1000
,
0001
1000
0100
1000
0001
0010
0100
1000
0001
1000
0010
0100
0002
0000
0023
0000
,
0032
0203
0320
2030
3200
0320
0032
0203
,
0320
2030
3200
0320
0032
0203
0320
2030
,
3002
0023
0230
2300
3020
0230
0302
0023
,
0230
2300
3020
0230
0302
0023
0230
2300
,
3002
0203
0320
2030
3200
0320
0032
0203
,
0320
2030
3200
0320
0032
0203
0320
2030
,
3002
0023
0230
2300
3020
0230
0302
0023
,
0230
2300
3020
0230
0302
0023
0230
2300
,
3001
0010
0001
0000
1000
0000
0010
1000
0010
0000
0100
0000
0001
1000
0001
0000
,
0010
0000
0100
1000
0100
0000
0010
0000
0002
0000
0023
0000
0230
0000
2300
0000
,
3001
0100
0001
0000
1000
0000
0010
0100
0010
0000
1000
0000
0001
0010
0001
0000
,
1000
0000
0100
0010
0100
0000
1000
0000
0002
0000
0203
0000
0320
0000
2030
0000
,
3001
0010
0001
0000
0100
0000
0010
1000
0010
0000
0100
0000
0001
0010
0001
0000
,
1000
0000
0100
0010
0100
0000
1000
0000
0020
0000
2030
0000
3200
0000
0320
0000
,
0031
1000
0001
0000
0100
0000
0010
1000
0010
0000
0100
0000
0001
0010
0001
0000
,
1000
0200
0320
0032
0203
0320
2030
3002
,
1003
0100
0010
0001
1000
0100
0010
0100
1000
0001
1000
0010
0100
0010
1000
0001
,
1000
0010
0100
0001
1000
0001
0100
0010
1000
0001
1000
0100
0010
0100
1000
0001
,
1000
0100
0010
0001
0010
0100
1000
0001
0010
0100
0010
0001
1000
0001
0100
0010
,
0100
0001
1000
0010
0100
0001
0100
0010
1000
0001
1000
0100
0010
0100
1000
0001
,
1000
0010
0100
0001
1000
0001
0100
0010
1000
0001
1000
0100
0010
0100
1000
0001
,
1000
0100
0010
0001
1000
0001
0010
0100
1000
0001
1000
0010
0100
0010
1000
0001
,
1000
0010
0100
0001
0100
0010
1000
0001
0100
0001
1000
0001
0010
0100
0010
0001
,
1000
0001
0010
0100
1000
0001
1000
0100
0010
0001
1000
0001
0100
0010
1000
0010
,
0100
0001
1000
0010
1000
0001
1000
0100
0010
0100
1000
0001
1000
0010
0100
0001
,
0100
0010
1000
0001
1000
0100
0010
0001
1000
0100
0010
0100
1000
0001
0100
0010
,
1000
0001
1000
0010
0100
0010
1000
0001
1000
0100
0010
0100
1000
0001
1000
0010
,
0100
0001
0100
0010
1000
0001
1000
0010
0100
0001
1000
0001
0010
0100
1000
0001
,
0100
0010
0100
0001
1000
0001
0100
0010
1000
0001
1000
0100
0010
0100
1000
0001
,
1000
0100
0010
0001
1000
0001
0100
0010
1000
0001
1000
0100
1000
0001
0010
0100
,
1000
0001
1000
0010
0100
0001
1000
0001
0010
0100
1000
0001
1000
0010
0100
0001
,
1000
0001
0100
0010
1000
0001
1000
0010
0100
0001
1000
0001
0010
0100
1000
0001
,
1000
0010
0100
0001
1000
0001
0010
0100
1000
0001
1000
0010
0100
0001
1000
0001
,
0100
0010
1000
0001
1000
0100
0010
0100
1000
0001
0100
0010
1000
0001
1000
0100
,
0010
0001
1000
0001
0010
0100
1000
0001
1000
0010
0100
0001
1000
0001
0010
0100
,
1000
0001
1000
0100
0010
0001
1000
0001
0100
0010
0100
0001
1000
0001
0010
0100
,
1000
0100
0010
0001
1000
0001
0100
0010
1000
0001
1000
0100
0010
0001
1000
0001
,
0010
0100
1000
0001
1000
0010
0100
0010
1000
0001
0100
0010
1000
0001
1000
0100
,
0010
0001
1000
0001
0010
0100
1000
0001
1000
0010
0100
0001
1000
0001
0010
0100
,
1000
0001
0010
0100
0010
0001
1000
0010
0100
0010
1000
0001
0100
0010
1000
0001
,
1000
0100
0010
0001
1000
0001
0010
0100
1000
0001
1000
0010
0100
0001
1000
0001
,
0100
0010
1000
0001
1000
0100
0010
0100
1000
0001
0010
0100
1000
0001
1000
0010
,
0100
0001
1000
0001
0100
0010
1000
0001
1000
0100
0010
0001
1000
0001
0100
0010
,
1000
0001
1000
0010
0100
0001
1000
0001
0010
0100
0010
0001
1000
0001
0100
0010
,
1000
0010
0100
0001
1000
0001
0010
0100
1000
0001
1000
0010
0100
0001
1000
0001
,
0100
0010
1000
0001
1000
0100
0010
0100
1000
0001
0010
0100
1000
0001
1000
0010
,
0100
0001
1000
0001
0100
0010
1000
0001
1000
0100
0010
0001
1000
0001
0100
0010
,
1000
0001
1000
0010
0100
0001
1000
0001
0100
0010
1000
0001
0010
0001
1000
0100
,
1000
0001
1000
0010
0100
0001
0100
0010
1000
0001
1000
0100
1000
0001
0010
0100
,
1000
0001
1000
0010
1000
0001
0100
0010
1000
0001
1000
0100
1000
0001
0010
0100
,
1000
0001
1000
0010
1000
0001
0100
0010
1000
0001
0100
0010
0100
0001
1000
0001
,
0010
0001
1000
0100
0010
0100
1000
0001
0010
0100
1000
0001
1000
0010
1000
0001
,
0100
0010
1000
0001
0100
0010
0100
0001
1000
0010
1000
0001
1000
0100
1000
0001
,
0010
0100
1000
0100
0010
0001
1000
0100
1000
0001
1000
0010
1000
0001
0100
0010
,
1000
0001
0100
0010
0100
0001
1000
0001
0010
0001
1000
0100
0010
0100
1000
0001
,
0010
0100
1000
0100
0010
0001
1000
0001
0100
0001
1000
0010
0100
0001
1000
0010
,
1000
0001
1000
0100
0010
0001
0010
0100
1000
0001
1000
0010
1000
0001
0100
0010
,
1000
0001
1000
0100
1000
0001
0010
0100
1000
0001
1000
0010
1000
0001
0100
0010
,
1000
0001
1000
0100
1000
0001
0010
0100
1000
0001
0010
0100
0010
0001
1000
0001
,
0100
0001
1000
0010
0100
0010
1000
0001
0100
0010
1000
0001
1000
0100
1000
0001
,
0010
0100
1000
0001
0010
0100
0010
0001
1000
0100
1000
0001
1000
0010
1000
0001
,
0100
0010
1000
0010
0100
0001
1000
0010
1000
0001
1000
0100
1000
0001
0010
0100
,
1000
0001
0010
0100
0010
0001
1000
0001
0100
0001
1000
0010
0100
0010
1000
0001
,
0100
0010
1000
0010
0100
0001
1000
0001
0010
0001
1000
0100
0010
0001
1000
0100
,
1000
0001
0010
0100
0010
0001
1000
0001
0100
0010
1000
0001
0100
0010
0100
0001
,
1000
0010
1000
0001
1000
0100
0010
0001
1000
0001
0010
0100
0010
0001
1000
0100
,
0010
0001
1000
0001
0100
0010
1000
0001
1000
0010
0100
0010
1000
0001
1000
0100
,
0010
0001
1000
0001
0010
0100
1000
0100
0010
0001
1000
0001
0100
0010
1000
0001
,
1000
0010
0100
0001
1000
0001
0100
0010
0100
0001
1000
0001
0010
0100
1000
0001
,
0010
0100
0010
0001
1000
0100
1000
0001
1000
0010
0100
0001
1000
0001
0100
0010
,
1000
0001
0100
0010
1000
0001
1000
0100
0010
0001
1000
0100
0010
0100
1000
0001
,
0010
0100
0010
0001
1000
0001
0100
0010
0100
0001
1000
0010
1000
0001
1000
0100
,
0010
0100
1000
0001
0010
0100
0010
0001
1000
0100
1000
0001
1000
0010
0100
0001
,
0100
0010
1000
0001
1000
0010
0100
0010
1000
0001
1000
0010
0100
0001
1000
0001
,
0010
0100
1000
0001
0010
0100
0010
0001
1000
0100
0010
0100
1000
0001
0010
0100
,
1000
0001
0010
0001
0100
0001
1000
0100
1000
0001
0010
0001
0100
0001
1000
0100
,
1000
0001
0100
0001
1000
0010
1000
0100
1000
0001
0100
0001
1000
0010
1000
0100
,
1000
0001
0100
0001
1000
0100
1000
0001
0010
0001
0100
0001
1000
0100
1000
0001
,
0010
0001
0100
0001
1000
0100
1000
0001
0020
0000
0000
0000
0000
0000
0000
0000
,
0000
0000
0000
0000
0000
0000
0000
0000
0000
0000
0000
0000
0000
0000
0000
0000
0000
0000
0000
0000
0000
0000
0000
0000
0000
0000
0130
0000
0000
1000
0000
0000
,
0002
0003
0000
0000
;

//---------------dance-single - Mad Matt----------------
#NOTES:
     dance-single:
     Mad Matt:
     Challenge:
     22:
     1.000,1.000,0.097,1.000,1.000,1442.000,13.000,167.000,0.000,0.000:

0000
0000
0000
0000
,
0000
0000
0000
0000
,
0000
0000
0000
0000
,
0000
0000
0000
0000
,
0000
0000
0000
0000
,
0000
0000
0000
0000
,
0000
0000
0000
0000
,
0000
0000
0000
0000
,
1001
0000
1000
0001
0000
1000
0200
0000
,
0000
1300
0001
0000
0100
0000
0201
0000
,
0000
0301
1000
0000
0010
0000
2010
0000
,
0000
3010
0100
0000
0001
0000
1000
0000
,
1001
0000
0001
1000
0000
0001
0200
0000
,
0000
0301
1000
0000
0100
0000
1200
0000
,
0000
1300
0001
0000
0010
0000
0012
0000
,
0000
0013
0100
0000
1000
0000
0001
0000
,
0102
0000
0000
0000
0000
0003
2100
0000
,
0000
0000
0000
0000
0000
3001
0200
0000
,
0000
0000
0000
0000
0000
0310
2000
0000
,
0000
0000
0000
0000
0000
3000
1100
0000
,
0012
0000
0000
0000
0000
0003
2010
0000
,
0000
0000
0000
0000
0000
3001
0020
0000
,
0000
0000
0000
0000
0000
0130
2000
0000
,
0000
0000
0000
0000
0000
3000
1010
0000
,
1001
0000
0001
0100
0000
0100
0010
0000
,
0010
1000
0000
1000
0002
0000
0023
0000
,
0230
0000
1300
0001
0000
0001
0200
0000
,
0310
1000
0000
1000
0002
0000
0010
0000
,
2003
3020
0230
0302
0023
0230
2300
0000
,
3001
0100
0000
0100
0020
0000
2030
0000
,
3002
0000
0013
0001
0000
0001
2000
0000
,
3020
0000
0230
0000
0320
0000
2030
3000
,
0002
0000
1003
0100
0000
0100
0010
0000
,
0010
0001
0000
0001
0200
0000
0320
0000
,
2030
0000
3001
0100
0000
0100
0020
0000
,
1030
0001
0000
0001
0020
0000
0100
0000
,
0032
2003
3020
0230
0302
0023
0230
0000
,
1300
0001
0000
0001
0200
0000
0320
0000
,
2030
0000
3001
0100
0000
0100
0020
0000
,
2030
3200
0320
0032
,
2003
0000
3001
0010
0000
0010
0001
0000
,
0001
1000
0000
1000
0020
0000
0230
0000
,
0301
0100
0010
1000
0100
1000
0001
0100
0001
0010
0100
1000
0001
1000
0010
0100
,
0010
1000
0100
0010
0100
1000
0001
1000
0020
0000
0000
0000
0230
0000
0320
0000
,
2030
3200
0320
0032
0203
0320
2030
3020
,
0230
0302
0023
0230
2300
0000
3002
0000
,
0203
0000
0000
0000
0000
0000
0000
0000
0000
0000
0000
0000
0301
0100
0010
1000
,
0100
0010
0001
1000
0010
0100
0001
0010
0100
1000
0001
0100
0010
1000
0100
0010
,
0002
0000
1003
0100
0000
0100
0010
0000
,
0010
0001
0000
0001
0200
0000
0320
0000
,
1030
0001
0010
0001
0100
0001
1000
0010
0100
0001
1000
0001
0010
0100
0010
0001
,
0100
0001
1000
0100
0010
0100
1000
0010
1000
0001
0010
0100
1000
0010
0100
0001
,
1000
0100
0010
0100
0010
0001
1000
0001
0100
0010
0100
0010
1000
0001
0010
0100
,
0010
0100
1000
0001
0100
0010
0100
0010
1000
0001
0010
0100
1000
0001
0100
0010
,
2000
0000
0000
0000
0000
0000
0000
0000
0000
0000
0000
0000
3001
0100
0010
1000
,
0100
1000
0001
0100
0001
0010
0100
1000
0001
1000
0010
0100
0002
0000
0023
0000
,
0032
0203
0320
2030
3200
0320
0032
0203
,
0320
2030
3200
0320
0032
0203
0320
2030
,
3002
0023
0230
2300
3020
0230
0302
0023
,
0230
2300
3020
0230
0302
0023
0230
2300
,
3002
0203
0320
2030
3200
0320
0032
0203
,
0320
2030
3200
0320
0032
0203
0320
2030
,
3002
0023
0230
2300
3020
0230
0302
0023
,
0230
2300
3020
0230
0302
0023
0230
2300
,
3001
0010
0001
0000
1000
0000
0010
1000
0010
0000
0100
0000
0001
1000
0001
0000
,
0010
0000
0100
1000
0100
0000
0010
0000
0002
0000
0023
0000
0230
0000
2300
0000
,
3001
0100
0001
0000
1000
0000
0010
0100
0010
0000
1000
0000
0001
0010
0001
0000
,
1000
0000
0100
0010
0100
0000
1000
0000
0002
0000
0203
0000
0320
0000
2030
0000
,
3001
0010
0001
0000
0100
0000
0010
1000
0010
0000
0100
0000
0001
0010
0001
0000
,
1000
0000
0100
0010
0100
0000
1000
0000
0020
0000
2030
0000
3200
0000
0320
0000
,
0031
1000
0001
0000
0100
0000
0010
1000
0010
0000
0100
0000
0001
0010
0001
0000
,
1000
0200
0320
0032
0203
0320
2030
3002
,
1003
0100
0010
0001
1000
0001
0100
0010
1000
0001
1000
0100
0010
0100
1000
0001
,
1000
0010
0100
0001
1000
0001
0100
0010
1000
0001
1000
0100
0010
0100
1000
0001
,
1000
0010
0100
0001
0100
0010
1000
0001
0100
0001
1000
0001
0010
0100
0010
0001
,
1000
0001
0100
0010
1000
0001
1000
0010
0100
0001
1000
0001
0010
0100
1000
0001
,
0100
0010
0100
0001
1000
0001
0010
0100
1000
0001
1000
0010
0100
0010
1000
0001
,
1000
0100
0010
0001
1000
0001
0010
0100
1000
0001
1000
0010
0100
0010
1000
0001
,
1000
0100
0010
0001
0010
0100
1000
0001
0010
0001
1000
0001
0100
0010
0100
0001
,
1000
0001
0010
0100
1000
0001
1000
0100
0010
0001
1000
0001
0100
0010
1000
0001
,
0010
0100
0010
0001
1000
0001
0100
0010
1000
0001
1000
0100
0010
0100
1000
0001
,
1000
0010
0100
0001
0100
0010
1000
0001
1000
0100
0010
0100
1000
0001
0100
0010
,
1000
0001
1000
0100
0010
0100
1000
0001
0010
0001
1000
0010
0100
0001
1000
0100
,
1000
0001
0100
0010
1000
0001
1000
0010
0100
0001
1000
0001
0010
0100
1000
0001
,
0100
0010
0100
0001
1000
0001
0010
0100
1000
0001
1000
0010
0100
0010
1000
0001
,
1000
0100
0010
0001
1000
0001
0010
0100
1000
0001
0100
0001
1000
0100
0010
0100
,
1000
0001
0100
0010
1000
0001
1000
0100
0010
0100
1000
0001
1000
0010
0100
0001
,
1000
0001
0010
0100
1000
0001
1000
0010
0100
0001
1000
0001
0010
0100
1000
0010
,
1000
0001
0010
0100
0010
0001
0100
0001
1000
0100
0010
0100
1000
0010
1000
0001
,
0100
0010
0100
0001
1000
0100
0010
0001
1000
0001
0100
0010
1000
0100
1000
0001
,
0100
0010
0100
0001
1000
0100
1000
0010
0100
0001
0100
0010
1000
0001
1000
0100
,
0010
0100
1000
0010
1000
0001
0010
0100
0010
0001
0100
0001
1000
0010
0100
0001
,
1000
0100
1000
0010
0100
0010
1000
0100
1000
0001
0010
0001
0100
0010
0100
0001
,
1000
0100
1000
0001
0100
0010
0100
0001
0010
0001
1000
0100
0010
0001
1000
0001
,
0100
0001
0010
0100
0010
0001
1000
0010
1000
0100
0010
0100
1000
0001
0100
0010
,
0100
0001
0010
0001
1000
0100
1000
0010
0100
0010
1000
0001
0100
0010
1000
0100
,
1000
0001
0100
0010
0100
0001
0010
0001
1000
0010
0100
0010
1000
0100
1000
0001
,
0010
0100
0010
0001
1000
0010
0100
0001
1000
0001
0010
0100
1000
0010
1000
0001
,
0010
0100
0010
0001
1000
0010
1000
0100
0010
0001
0010
0100
1000
0001
1000
0010
,
0100
0010
1000
0100
1000
0001
0100
0010
0100
0001
0010
0001
1000
0100
0010
0001
,
1000
0010
1000
0100
0010
0100
1000
0010
1000
0001
0100
0001
0010
0100
0010
0001
,
1000
0010
1000
0001
0010
0100
0010
0001
0100
0001
1000
0010
0100
0001
1000
0001
,
0010
0001
0100
0010
0100
0001
1000
0100
1000
0010
0100
0010
1000
0001
0010
0100
,
0010
0001
0100
0001
1000
0010
1000
0100
0010
0100
1000
0001
0100
0001
1000
0010
,
1000
0001
1000
0100
0010
0001
0100
0010
1000
0001
1000
0100
0010
0100
1000
0001
,
1000
0010
0100
0001
0010
0100
1000
0100
0010
0001
1000
0001
0100
0010
0100
0001
,
1000
0001
0010
0100
1000
0010
0100
0001
1000
0001
0010
0100
0010
0001
1000
0001
,
0100
0010
1000
0100
0010
0001
0100
0010
0100
0001
1000
0100
0010
0100
1000
0010
,
0100
0001
1000
0100
0010
0001
0100
0010
1000
0001
1000
0100
0010
0100
1000
0001
,
1000
0010
0100
0001
0010
0100
1000
0100
0010
0001
1000
0001
0100
0010
0100
0001
,
1000
0001
0010
0100
1000
0010
0100
0001
1000
0001
0010
0100
0010
0001
1000
0001
,
0100
0010
1000
0100
0010
0001
0100
0010
0100
0001
1000
0100
0010
0001
0010
0100
,
1000
0001
1000
0010
0100
0001
0010
0100
1000
0001
1000
0010
0100
0010
1000
0001
,
1000
0100
0010
0001
0100
0010
1000
0010
0100
0001
1000
0001
0010
0100
0010
0001
,
1000
0001
0100
0010
1000
0100
0010
0001
1000
0001
0100
0010
0100
0001
1000
0001
,
0010
0100
1000
0010
0100
0001
0010
0100
0010
0001
1000
0010
0100
0010
1000
0100
,
0010
0001
1000
0010
0100
0001
0010
0100
1000
0001
1000
0010
0100
0010
1000
0001
,
1000
0100
0010
0001
0100
0010
1000
0010
0100
0001
1000
0001
0010
0100
0010
0001
,
1000
0001
0100
0010
1000
0100
0010
0001
1000
0001
0100
0010
0100
0001
1000
0001
,
0010
0100
1000
0010
0100
0001
1000
0010
0100
0010
1000
0001
1000
0100
0010
0001
,
1000
0001
0100
0010
0100
0001
1000
0001
0010
0001
1000
0010
0100
0010
1000
0001
,
0100
0001
1000
0001
0010
0100
0010
0001
1000
0001
0100
0010
0100
0001
1000
0010
,
1000
0001
1000
0100
0010
0100
1000
0001
1000
0010
0100
0010
1000
0001
1000
0100
,
0010
0001
1000
0001
0100
0010
0100
0001
1000
0001
0010
0100
1000
0100
0010
0001
,
1000
0100
0010
0001
1000
0001
0100
0010
0100
0001
1000
0001
0010
0001
1000
0001
,
0100
0010
1000
0001
1000
0100
1000
0001
0010
0100
0010
0001
1000
0001
0100
0010
,
1000
0001
1000
0100
1000
0001
0100
0010
0100
0001
1000
0001
0010
0001
1000
0100
,
0010
0001
0010
0100
1000
0001
1000
0010
0100
0010
1000
0001
1000
0100
1000
0001
,
0010
0001
1000
0001
0100
0010
0100
0001
1000
0100
1000
0001
1000
0010
0100
0001
,
0100
0010
1000
0001
1000
0100
0010
0100
1000
0001
1000
0010
0100
0001
1000
0001
,
0010
0001
1000
0010
0100
0001
0100
0010
1000
0001
1000
0100
0010
0001
1000
0100
,
1000
0001
0010
0001
0100
0001
1000
0100
1000
0001
0010
0001
0100
0001
1000
0100
,
1000
0001
0100
0001
1000
0010
1000
0100
1000
0001
0100
0001
1000
0010
1000
0100
,
1000
0001
0100
0001
1000
0010
1000
0001
0100
0001
0010
0001
1000
0010
1000
0001
,
0100
0001
0010
0001
1000
0010
1000
0001
0200
0000
0000
0000
0000
0000
0000
0000
,
0000
0000
0000
0000
0000
0000
0000
0000
0000
0000
0000
0000
0000
0000
0000
0000
0000
0000
0000
0000
0000
0000
0000
0000
0000
0000
0310
0000
0000
1000
0000
0000
,
0002
0003
0000
0000
;

//---------------dance-single - Mad Matt----------------
#NOTES:
     dance-single:
     Mad Matt:
     Medium:
     21:
     1.000,1.000,0.172,1.000,1.000,1237.000,23.000,181.000,0.000,0.000:






0000
0000
0000
0000
,
0000
0000
0000
0000
,
0000
0000
0000
0000
,
0000
0000
0000
0000
,
0000
0000
0000
0000
,
0000
0000
0000
0000
,
0000
0000
0000
0000
,
0000
0000
0000
0000
,
1001
0000
0001
1000
0000
0001
0020
0000
,
0000
0031
1000
0000
0010
0000
1020
0000
,
0000
1030
0001
0000
0100
0000
0102
0000
,
0000
0103
0010
0000
1000
0000
0001
0000
,
1001
0000
1000
0001
0000
1000
0020
0000
,
0000
1030
0001
0000
0010
0000
0021
0000
,
0000
0031
1000
0000
0100
0000
2100
0000
,
0000
3100
0010
0000
0001
0000
1000
0000
,
2010
0000
0000
0000
0000
3000
0012
0000
,
0000
0000
0000
0000
0000
1003
0020
0000
,
0000
0000
0000
0000
0000
0130
0002
0000
,
0000
0000
0000
0000
0000
0003
0011
0000
,
2100
0000
0000
0000
0000
3000
0102
0000
,
0000
0000
0000
0000
0000
1003
0200
0000
,
0000
0000
0000
0000
0000
0310
0002
0000
,
0000
0000
0000
0000
0000
0003
0101
0000
,
1001
0000
1000
0010
0000
0010
0100
0000
,
0100
0001
0000
0001
2000
0000
3200
0000
,
0320
0000
0031
1000
0000
1000
0020
0000
,
0130
0001
0000
0001
2000
0000
0100
0000
,
3002
0203
0320
2030
3200
0320
0032
0000
,
1003
0010
0000
0010
0200
0000
0302
0000
,
2003
0000
3100
1000
0000
1000
0002
0000
,
0203
0000
0320
0000
0230
0000
0302
0003
,
2000
0000
3001
0010
0000
0010
0100
0000
,
0100
1000
0000
1000
0020
0000
0230
0000
,
0302
0000
1003
0010
0000
0010
0200
0000
,
0301
1000
0000
1000
0200
0000
0010
0000
,
2300
3002
0203
0320
2030
3200
0320
0000
,
0031
1000
0000
1000
0020
0000
0230
0000
,
0302
0000
1003
0010
0000
0010
0200
0000
,
0302
0023
0230
2300
,
3002
0000
1003
0100
0000
0100
1000
0000
,
1000
0001
0000
0001
0200
0000
0320
0000
,
1030
0100
0010
0100
1000
0010
0100
0001
1000
0001
0010
0100
0010
0001
0100
0010
,
1000
0001
0010
0100
1000
0010
1000
0001
0020
0000
0000
0000
0230
0000
0320
0000
,
0032
0203
0320
2030
3020
0230
0302
0023
,
0230
2300
3020
0230
0302
0000
2003
0000
,
3200
0000
0000
0000
0000
0000
0000
0000
0000
0000
0000
0000
1300
0100
0010
0001
,
1000
0001
0100
0010
1000
0100
1000
0010
1000
0001
0100
0001
1000
0100
0010
0100
,
2000
0000
3001
0010
0000
0010
0100
0000
,
0100
1000
0000
1000
0020
0000
0230
0000
,
0301
1000
0100
0010
0100
1000
0010
0100
0001
1000
0100
0010
0100
1000
0001
1000
,
0010
0100
0001
1000
0100
0010
0001
0100
0001
1000
0100
1000
0010
0100
0010
1000
,
0100
1000
0001
0010
0001
1000
0010
0100
0001
1000
0100
1000
0001
0100
0010
1000
,
0100
1000
0001
0100
0010
1000
0001
1000
0100
0010
0001
1000
0001
0100
0010
1000
,
0002
0000
0000
0000
0000
0000
0000
0000
0000
0000
0000
0000
1003
0100
0010
0001
,
1000
0001
0100
0001
1000
0100
0010
0001
1000
0001
0100
0010
2000
0000
3200
0000
,
2300
3020
0230
0302
0023
0230
2300
3020
,
0230
0302
0023
0230
2300
3020
0230
0302
,
2003
3200
0320
0032
0203
0320
2030
3200
,
0320
0032
0203
0320
2030
3200
0320
0032
,
2003
3020
0230
0302
0023
0230
2300
3020
,
0230
0302
0023
0230
2300
3020
0230
0302
,
2003
3200
0320
0032
0203
0320
2030
3200
,
0320
0032
0203
0320
2030
3200
0320
0032
,
1003
0100
1000
0000
0001
0000
0100
0001
0100
0000
0010
0000
1000
0001
1000
0000
,
0100
0000
0010
0001
0010
0000
0100
0000
2000
0000
3200
0000
0320
0000
0032
0000
,
1003
0010
1000
0000
0001
0000
0100
0010
0100
0000
0001
0000
1000
0100
1000
0000
,
0001
0000
0010
0100
0010
0000
0001
0000
2000
0000
3020
0000
0230
0000
0302
0000
,
1003
0100
1000
0000
0010
0000
0100
0001
0100
0000
0010
0000
1000
0100
1000
0000
,
0001
0000
0010
0100
0010
0000
0001
0000
0200
0000
0302
0000
0023
0000
0230
0000
,
1300
0001
1000
0000
0010
0000
0100
0001
0100
0000
0010
0000
1000
0100
1000
0000
,
0001
0020
0230
2300
3020
0230
0302
2003
,
3001
0000
1000
0001
0000
1000
0200
0000
,
0000
1300
0001
0000
0100
0000
0201
0000
,
0000
0301
1000
0000
0010
0000
2010
0000
,
0000
3010
0100
0000
0001
0000
1000
0000
,
1001
0000
0001
1000
0000
0001
0200
0000
,
0000
0301
1000
0000
0100
0000
1200
0000
,
0000
1300
0001
0000
0010
0000
0012
0000
,
0000
0013
0100
0000
1000
0000
0001
0000
,
2001
0000
0000
0000
0000
3000
0012
0000
,
0000
0000
0000
0000
0000
1003
0020
0000
,
0000
0000
0000
0000
0000
0130
0002
0000
,
0000
0000
0000
0000
0000
0003
0011
0000
,
2100
0000
0000
0000
0000
3000
0102
0000
,
0000
0000
0000
0000
0000
1003
0200
0000
,
0000
0000
0000
0000
0000
0310
0002
0000
,
0000
0000
0000
0000
0000
0000
0000
0000
0000
0000
0000
0000
1003
0010
0100
0001
,
1000
0001
0010
0100
0010
0001
0100
0001
1000
0010
1000
0001
0010
0100
1000
0001
,
1000
0010
0100
0001
1000
0001
0010
0100
0010
0001
1000
0001
0100
0010
1000
0100
,
0010
0100
1000
0001
1000
0010
0100
0001
1000
0001
0010
0100
0010
0001
0100
0010
,
1000
0001
1000
0100
0010
0100
1000
0001
1000
0010
0100
0001
1000
0001
0010
0100
,
1000
0001
1000
0010
0100
0010
1000
0100
1000
0001
0010
0001
1000
0010
0100
0001
,
1000
0001
0010
0100
1000
0001
1000
0010
0100
0010
1000
0001
1000
0100
0010
0001
,
0100
0010
0100
0001
1000
0001
0010
0100
1000
0001
1000
0010
0100
0010
1000
0100
,
0010
0001
1000
0001
0100
0010
0100
0001
1000
0001
0010
0100
1000
0001
0100
0010
,
1000
0001
1000
0100
0010
0100
1000
0010
1000
0001
0100
0001
1000
0100
0010
0001
,
1000
0001
0100
0010
1000
0001
1000
0100
0010
0100
1000
0001
1000
0010
0100
0001
,
0010
0100
0010
0001
1000
0001
0100
0010
1000
0001
1000
0100
0010
0100
1000
0010
,
0100
0001
1000
0001
0010
0100
0010
0001
1000
0001
0100
0010
1000
0001
1000
0100
,
0010
0001
1000
0001
0100
0010
0100
0001
0010
0001
1000
0100
1000
0001
0100
0010
,
1000
0001
1000
0100
0010
0001
1000
0001
0100
0010
0100
0001
1000
0001
0010
0100
,
1000
0010
0100
0010
1000
0001
1000
0100
0010
0001
1000
0001
0100
0010
0100
0001
,
0010
0100
1000
0001
1000
0010
0100
0001
1000
0001
0010
0100
1000
0010
0100
0001
,
1000
0100
0010
0100
1000
0010
1000
0001
0100
0010
1000
0001
1000
0100
0010
0100
,
1000
0010
1000
0001
0010
0100
1000
0001
1000
0010
0100
0001
1000
0001
0010
0001
,
0100
0010
1000
0001
1000
0100
1000
0001
0100
0010
1000
0001
1000
0100
0010
0100
,
1000
0010
0100
0001
1000
0001
0010
0100
0010
0001
0100
0010
1000
0001
0010
0100
,
1000
0001
0100
0010
0100
0001
0010
0001
1000
0100
0010
0001
1000
0001
0100
0010
,
0100
0001
0010
0001
1000
0010
0100
0001
1000
0001
0010
0100
1000
0001
1000
0010
,
1000
0100
0010
0001
1000
0001
0100
0001
1000
0100
0010
0001
1000
0001
0100
0010
,
0100
0001
0010
0100
1000
0001
1000
0010
0100
0010
1000
0001
1000
0100
0010
0001
,
1000
0010
0100
0010
1000
0100
1000
0001
0010
0100
1000
0001
1000
0010
0100
0010
,
1000
0100
1000
0001
0100
0010
1000
0001
1000
0100
0010
0001
1000
0001
0100
0001
,
0010
0100
1000
0001
1000
0010
1000
0001
0010
0100
1000
0001
1000
0010
0100
0010
,
1000
0100
0010
0001
1000
0001
0100
0010
0100
0001
0010
0100
1000
0001
0100
0010
,
1000
0001
0010
0100
0010
0001
0100
0001
1000
0010
0100
0001
1000
0001
0010
0100
,
0010
0001
0100
0001
1000
0100
0010
0001
1000
0001
0100
0010
1000
0001
1000
0100
,
1000
0010
0100
0001
1000
0001
0010
0001
1000
0010
0100
0001
1000
0001
0010
0100
,
0010
0001
0100
0010
1000
0001
1000
0100
0010
0100
1000
0001
1000
0010
0100
0001
,
1000
0100
0010
0001
1000
0001
0100
0010
1000
0001
1000
0100
1000
0001
0100
0010
,
0100
0001
1000
0001
0010
0100
0010
0001
1000
0001
0100
0010
1000
0100
1000
0001
,
1000
0010
0100
0001
1000
0001
0010
0001
0100
0010
1000
0001
1000
0100
1000
0010
,
0100
0001
1000
0001
0010
0001
1000
0010
0100
0010
1000
0001
1000
0100
0010
0001
,
1000
0001
0100
0010
1000
0001
1000
0100
1000
0010
0100
0010
1000
0001
1000
0100
,
0010
0001
1000
0001
0100
0010
0100
0001
1000
0100
1000
0010
1000
0001
0100
0010
,
1000
0001
1000
0100
0010
0100
1000
0010
1000
0001
0100
0010
1000
0001
1000
0100
,
0010
0001
1000
0001
0100
0010
0100
0001
1000
0100
1000
0010
1000
0001
0100
0010
,
1000
0001
1000
0100
0010
0100
1000
0010
1000
0001
0100
0010
1000
0001
1000
0100
,
0010
0001
1000
0001
0100
0010
0100
0001
1000
0100
1000
0010
1000
0001
0100
0010
,
1000
0001
1000
0100
0010
0100
1000
0010
1000
0001
0100
0010
1000
0001
1000
0100
,
0010
0001
0100
0001
1000
0010
1000
0001
1000
0100
0010
0100
1000
0001
1000
0010
,
0100
0001
1000
0001
0010
0001
0100
0010
0100
0001
1000
0001
0010
0001
1000
0010
,
0100
0001
1000
0100
1000
0010
0100
0010
1000
0001
1000
0100
1000
0010
0100
0001
,
1000
0001
0010
0100
1000
0001
1000
0010
0200
0000
0000
0000
0000
0000
0000
0000
,
0000
0000
0000
0000
0000
0000
0000
0000
0000
0000
0000
0000
0000
0000
0000
0000
0000
0000
0000
0000
0000
0000
0000
0000
0300
0000
0010
0000
0000
1000
0000
0000
,
0002
0003
0000
0000
;

//---------------dance-single - Mad Matt----------------
#NOTES:
     dance-single:
     Mad Matt:
     Easy:
     20:
     1.000,1.000,0.172,1.000,1.000,1237.000,23.000,181.000,0.000,0.000:










0000
0000
0000
0000
,
0000
0000
0000
0000
,
0000
0000
0000
0000
,
0000
0000
0000
0000
,
0000
0000
0000
0000
,
0000
0000
0000
0000
,
0000
0000
0000
0000
,
0000
0000
0000
0000
,
1001
0000
0001
1000
0000
0001
0020
0000
,
0000
0031
1000
0000
0010
0000
1020
0000
,
0000
1030
0001
0000
0100
0000
0102
0000
,
0000
0103
0010
0000
1000
0000
0001
0000
,
1001
0000
1000
0001
0000
1000
0020
0000
,
0000
1030
0001
0000
0010
0000
0021
0000
,
0000
0031
1000
0000
0100
0000
2100
0000
,
0000
3100
0010
0000
0001
0000
1000
0000
,
2010
0000
0000
0000
0000
3000
0012
0000
,
0000
0000
0000
0000
0000
1003
0020
0000
,
0000
0000
0000
0000
0000
0130
0002
0000
,
0000
0000
0000
0000
0000
0003
0011
0000
,
2100
0000
0000
0000
0000
3000
0102
0000
,
0000
0000
0000
0000
0000
1003
0200
0000
,
0000
0000
0000
0000
0000
0310
0002
0000
,
0000
0000
0000
0000
0000
0003
0101
0000
,
1001
0000
1000
0010
0000
0010
0100
0000
,
0100
0001
0000
0001
2000
0000
3200
0000
,
0320
0000
0031
1000
0000
1000
0020
0000
,
0130
0001
0000
0001
2000
0000
0100
0000
,
3002
0203
0320
2030
3200
0320
0032
0000
,
1003
0010
0000
0010
0200
0000
0302
0000
,
2003
0000
3100
1000
0000
1000
0002
0000
,
0203
0000
0320
0000
0230
0000
0302
0003
,
2000
0000
3001
0010
0000
0010
0100
0000
,
0100
1000
0000
1000
0020
0000
0230
0000
,
0302
0000
1003
0010
0000
0010
0200
0000
,
0301
1000
0000
1000
0200
0000
0010
0000
,
2300
3002
0203
0320
2030
3200
0320
0000
,
0031
1000
0000
1000
0020
0000
0230
0000
,
0302
0000
1003
0010
0000
0010
0200
0000
,
0302
0023
0230
2300
,
3002
0000
1003
0100
0000
0100
1000
0000
,
1000
0001
0000
0001
0200
0000
0320
0000
,
1030
0100
0010
0001
1000
0001
0100
0001
1000
0010
0100
0001
1000
0010
0100
0010
,
1000
0001
1000
0100
0010
0100
1000
0001
0020
0000
0000
0000
0230
0000
0320
0000
,
0032
0203
0320
2030
3020
0230
0302
0023
,
0230
2300
3020
0230
0302
0000
2003
0000
,
3200
0000
0000
0000
0000
0000
0000
0000
0000
0000
0000
0000
1300
0100
0010
0001
,
1000
0001
0010
0100
0010
0001
1000
0001
0100
0010
0100
0001
1000
0001
0100
0010
,
2000
0000
3001
0010
0000
0010
0100
0000
,
0100
1000
0000
1000
0020
0000
0230
0000
,
0301
1000
0001
0100
0010
0100
0001
1000
0001
0100
0010
1000
0001
1000
0100
1000
,
0001
0010
0001
1000
0100
0010
0001
1000
0001
0100
0001
1000
0010
0100
0010
1000
,
0001
0100
0010
0100
0001
1000
0001
1000
0100
0010
0100
1000
0001
1000
0100
0010
,
0100
1000
0001
1000
0001
0100
0010
0100
0001
1000
0001
1000
0100
0010
0001
1000
,
0002
0000
0000
0000
0000
0000
0000
0000
0000
0000
0000
0000
1003
0100
0010
0001
,
1000
0001
0100
0001
1000
0010
0100
0001
1000
0001
0010
0100
2000
0000
3200
0000
,
2300
3020
0230
0302
0023
0230
2300
3020
,
0230
0302
0023
0230
2300
3020
0230
0302
,
2003
3200
0320
0032
0203
0320
2030
3200
,
0320
0032
0203
0320
2030
3200
0320
0032
,
2003
3020
0230
0302
0023
0230
2300
3020
,
0230
0302
0023
0230
2300
3020
0230
0302
,
2003
3200
0320
0032
0203
0320
2030
3200
,
0320
0032
0203
0320
2030
3200
0320
0032
,
1003
0100
1000
0000
0001
0000
0100
0001
0100
0000
0010
0000
1000
0001
1000
0000
,
0100
0000
0010
0001
0010
0000
0100
0000
2000
0000
3200
0000
0320
0000
0032
0000
,
1003
0010
1000
0000
0001
0000
0100
0010
0100
0000
0001
0000
1000
0100
1000
0000
,
0001
0000
0010
0100
0010
0000
0001
0000
2000
0000
3020
0000
0230
0000
0302
0000
,
1003
0100
1000
0000
0010
0000
0100
0001
0100
0000
0010
0000
1000
0100
1000
0000
,
0001
0000
0010
0100
0010
0000
0001
0000
0200
0000
0302
0000
0023
0000
0230
0000
,
1300
0001
1000
0000
0010
0000
0100
0001
0100
0000
0010
0000
1000
0100
1000
0000
,
0001
0020
0230
2300
3020
0230
0302
2003
,
3001
0000
1000
0001
0000
1000
0200
0000
,
0000
1300
0001
0000
0100
0000
0201
0000
,
0000
0301
1000
0000
0010
0000
2010
0000
,
0000
3010
0100
0000
0001
0000
1000
0000
,
1001
0000
0001
1000
0000
0001
0200
0000
,
0000
0301
1000
0000
0100
0000
1200
0000
,
0000
1300
0001
0000
0010
0000
0012
0000
,
0000
0013
0100
0000
1000
0000
0001
0000
,
2001
0000
0000
0000
0000
3000
0012
0000
,
0000
0000
0000
0000
0000
1003
0020
0000
,
0000
0000
0000
0000
0000
0130
0002
0000
,
0000
0000
0000
0000
0000
0003
0011
0000
,
2100
0000
0000
0000
0000
3000
0102
0000
,
0000
0000
0000
0000
0000
1003
0200
0000
,
0000
0000
0000
0000
0000
0310
0002
0000
,
0000
0000
0000
0000
0000
0000
0000
0000
0000
0000
0000
0000
1003
0001
0100
0010
,
1000
0010
0100
0001
1000
0001
0010
0100
1000
0001
1000
0010
0100
0001
1000
0001
,
0100
0010
1000
0001
1000
0010
0100
0010
1000
0001
0100
0010
1000
0001
1000
0100
,
0010
0001
1000
0001
0010
0100
1000
0001
1000
0010
0100
0001
1000
0001
0010
0100
,
1000
0001
1000
0100
0010
0001
1000
0001
0010
0100
0010
0001
1000
0001
0100
0010
,
1000
0010
0100
0001
1000
0001
0010
0100
1000
0001
1000
0010
0100
0001
1000
0001
,
0100
0010
1000
0001
1000
0010
0100
0010
1000
0001
0100
0010
1000
0001
1000
0100
,
0010
0001
1000
0001
0010
0100
1000
0001
1000
0010
0100
0001
1000
0001
0010
0100
,
1000
0001
0010
0100
0010
0001
1000
0100
0010
0100
1000
0001
0010
0100
1000
0001
,
1000
0010
0100
0001
1000
0001
0100
0010
1000
0001
1000
0100
0010
0001
1000
0001
,
0010
0100
1000
0001
1000
0100
0010
0100
1000
0001
0010
0100
1000
0001
1000
0010
,
0100
0001
1000
0001
0100
0010
1000
0001
1000
0100
0010
0001
1000
0001
0100
0010
,
1000
0001
1000
0010
0100
0001
1000
0001
0100
0010
0100
0001
1000
0001
0010
0100
,
1000
0100
0010
0001
1000
0001
0100
0010
1000
0001
1000
0100
0010
0001
1000
0001
,
0010
0100
1000
0001
1000
0100
0010
0100
1000
0001
0010
0100
1000
0001
1000
0010
,
0100
0001
1000
0001
0100
0010
1000
0001
1000
0100
0010
0001
1000
0001
0100
0010
,
1000
0001
1000
0010
0100
0001
1000
0001
0100
0010
1000
0001
0010
0001
1000
0100
,
1000
0001
1000
0010
0100
0001
0100
0010
1000
0001
1000
0100
1000
0001
0010
0100
,
1000
0001
1000
0010
1000
0001
0100
0010
1000
0001
1000
0100
1000
0001
0010
0100
,
1000
0001
1000
0010
1000
0001
0100
0010
1000
0001
0100
0010
0100
0001
1000
0001
,
0010
0001
1000
0100
0010
0100
1000
0001
0010
0100
1000
0001
1000
0010
1000
0001
,
0100
0010
1000
0001
0100
0010
0100
0001
1000
0010
1000
0001
1000
0100
1000
0001
,
0010
0100
1000
0100
0010
0001
1000
0100
1000
0001
1000
0010
1000
0001
0100
0010
,
1000
0001
0100
0010
0100
0001
1000
0001
0010
0001
1000
0100
0010
0100
1000
0001
,
0010
0100
1000
0100
0010
0001
1000
0001
0100
0001
1000
0010
0100
0001
1000
0010
,
1000
0001
1000
0100
0010
0001
0010
0100
1000
0001
1000
0010
1000
0001
0100
0010
,
1000
0001
1000
0100
1000
0001
0010
0100
1000
0001
1000
0010
1000
0001
0100
0010
,
1000
0001
1000
0100
1000
0001
0010
0100
1000
0001
0010
0100
0010
0001
1000
0001
,
0100
0001
1000
0010
0100
0010
1000
0001
0100
0010
1000
0001
1000
0100
1000
0001
,
0010
0100
1000
0001
0010
0100
0010
0001
1000
0100
1000
0001
1000
0010
1000
0001
,
0100
0010
1000
0010
0100
0001
1000
0010
1000
0001
1000
0100
1000
0001
0010
0100
,
1000
0001
0010
0100
0010
0001
1000
0001
0100
0001
1000
0010
0100
0010
1000
0001
,
0100
0010
1000
0010
0100
0001
1000
0001
0010
0001
1000
0100
0010
0001
1000
0100
,
1000
0001
0010
0100
0010
0001
1000
0100
0010
0001
1000
0001
0100
0010
0100
0001
,
1000
0010
1000
0001
0100
0010
0100
0001
1000
0001
0010
0100
0010
0001
1000
0100
,
0010
0001
1000
0001
0100
0010
1000
0001
1000
0010
0100
0010
1000
0001
1000
0100
,
0010
0001
1000
0001
0010
0100
1000
0100
0010
0001
1000
0001
0100
0010
1000
0001
,
1000
0010
0100
0001
1000
0001
0100
0010
0100
0001
1000
0001
0010
0100
1000
0001
,
0010
0100
1000
0001
1000
0010
1000
0001
0100
0010
0100
0001
1000
0001
0100
0010
,
1000
0001
1000
0100
0010
0001
1000
0100
0010
0001
1000
0100
0010
0100
1000
0001
,
1000
0010
0100
0001
0100
0010
1000
0001
0100
0010
1000
0001
1000
0100
1000
0001
,
0010
0100
1000
0001
0010
0100
0010
0001
1000
0100
1000
0001
1000
0010
0100
0001
,
0100
0010
1000
0001
1000
0010
0100
0010
1000
0001
1000
0010
0100
0001
1000
0001
,
0010
0100
1000
0001
0010
0100
0010
0001
1000
0100
0010
0100
1000
0001
1000
0010
,
0100
0001
1000
0010
0100
0010
1000
0001
1000
0100
0010
0100
1000
0001
0010
0100
,
1000
0001
1000
0010
1000
0001
0100
0010
0100
0001
1000
0001
0010
0100
0010
0001
,
1000
0100
0010
0001
1000
0001
0100
0010
1000
0001
0100
0010
1000
0001
1000
0100
,
0010
0001
1000
0100
0010
0001
1000
0001
0200
0000
0000
0000
0000
0000
0000
0000
,
0000
0000
0000
0000
0000
0000
0000
0000
0000
0000
0000
0000
0000
0000
0000
0000
0000
0000
0000
0000
0000
0000
0000
0000
0000
0000
0310
0000
0000
1000
0000
0000
,
0002
0003
0000
0000
;

//---------------dance-single - Aoreo----------------
#NOTES:
     dance-single:
     Aoreo:
     Beginner:
     19:
     1.000,1.000,0.172,1.000,1.000,1172.000,23.000,181.000,0.000,0.000:




0000
0000
0000
0000
,
0000
0000
0000
0000
,
0000
0000
0000
0000
,
0000
0000
0000
0000
,
0000
0000
0000
0000
,
0000
0000
0000
0000
,
0000
0000
0000
0000
,
0000
0000
0000
0000
,
1001
0000
0001
1000
0000
0001
0020
0000
,
0000
0031
1000
0000
0010
0000
1020
0000
,
0000
1030
0001
0000
0100
0000
0102
0000
,
0000
0103
0010
0000
1000
0000
0001
0000
,
1001
0000
1000
0001
0000
1000
0020
0000
,
0000
1030
0001
0000
0010
0000
0021
0000
,
0000
0031
1000
0000
0100
0000
2100
0000
,
0000
3100
0010
0000
0001
0000
1000
0000
,
2010
0000
0000
0000
0000
3000
0012
0000
,
0000
0000
0000
0000
0000
1003
0020
0000
,
0000
0000
0000
0000
0000
0130
0002
0000
,
0000
0000
0000
0000
0000
0003
0011
0000
,
2100
0000
0000
0000
0000
3000
0102
0000
,
0000
0000
0000
0000
0000
1003
0200
0000
,
0000
0000
0000
0000
0000
0310
0002
0000
,
0000
0000
0000
0000
0000
0003
0101
0000
,
1001
0000
1000
0010
0000
0010
0100
0000
,
0100
0001
0000
0001
2000
0000
3200
0000
,
0320
0000
0031
1000
0000
1000
0020
0000
,
0130
0001
0000
0001
2000
0000
0100
0000
,
3002
0203
0320
2030
3200
0320
0032
0000
,
1003
0010
0000
0010
0200
0000
0302
0000
,
2003
0000
3100
1000
0000
1000
0002
0000
,
0203
0000
0320
0000
0230
0000
0302
0003
,
2000
0000
3001
0010
0000
0010
0100
0000
,
0100
1000
0000
1000
0020
0000
0230
0000
,
0302
0000
1003
0010
0000
0010
0200
0000
,
0301
1000
0000
1000
0200
0000
0010
0000
,
2300
3002
0203
0320
2030
3200
0320
0000
,
0031
1000
0000
1000
0020
0000
0230
0000
,
0302
0000
1003
0010
0000
0010
0200
0000
,
0302
0023
0230
2300
,
3002
0000
1003
0100
0000
0100
1000
0000
,
1000
0001
0000
0001
0200
0000
0320
0000
,
1030
0100
0010
0001
1000
0001
0100
0001
1000
0010
0100
0001
1000
0010
0100
0010
,
1000
0001
1000
0100
0010
0100
1000
0001
0020
0000
0000
0000
0230
0000
0320
0000
,
0032
0203
0320
2030
3020
0230
0302
0023
,
0230
2300
3020
0230
0302
0000
2003
0000
,
3200
0000
0000
0000
0000
0000
0000
0000
0000
0000
0000
0000
1300
0100
0010
0001
,
1000
0001
0010
0100
0010
0001
1000
0001
0100
0010
0100
0001
1000
0001
0100
0010
,
2000
0000
3001
0010
0000
0010
0100
0000
,
0100
1000
0000
1000
0020
0000
0230
0000
,
0301
1000
0001
0100
0010
0100
0001
1000
0001
0100
0010
1000
0001
1000
0100
1000
,
0001
0010
0001
1000
0100
0010
0001
1000
0001
0100
0001
1000
0010
0100
0010
1000
,
0001
0100
0010
0100
0001
1000
0001
1000
0100
0010
0100
1000
0001
1000
0100
0010
,
0100
1000
0001
1000
0001
0100
0010
0100
0001
1000
0001
1000
0100
0010
0001
1000
,
0002
0000
0000
0000
0000
0000
0000
0000
0000
0000
0000
0000
1003
0100
0010
0001
,
1000
0001
0100
0001
1000
0010
0100
0001
1000
0001
0010
0100
2000
0000
3200
0000
,
2300
3020
0230
0302
0023
0230
2300
3020
,
0230
0302
0023
0230
2300
3020
0230
0302
,
2003
3200
0320
0032
0203
0320
2030
3200
,
0320
0032
0203
0320
2030
3200
0320
0032
,
2003
3020
0230
0302
0023
0230
2300
3020
,
0230
0302
0023
0230
2300
3020
0230
0302
,
2003
3200
0320
0032
0203
0320
2030
3200
,
0320
0032
0203
0320
2030
3200
0320
0032
,
1003
0100
1000
0000
0001
0000
0100
0001
0100
0000
0010
0000
1000
0001
1000
0000
,
0100
0000
0010
0001
0010
0000
0100
0000
2000
0000
3200
0000
0320
0000
0032
0000
,
1003
0010
1000
0000
0001
0000
0100
0010
0100
0000
0001
0000
1000
0100
1000
0000
,
0001
0000
0010
0100
0010
0000
0001
0000
2000
0000
3020
0000
0230
0000
0302
0000
,
1003
0100
1000
0000
0010
0000
0100
0001
0100
0000
0010
0000
1000
0100
1000
0000
,
0001
0000
0010
0100
0010
0000
0001
0000
0200
0000
0302
0000
0023
0000
0230
0000
,
1300
0001
1000
0000
0010
0000
0100
0001
0100
0000
0010
0000
1000
0100
1000
0000
,
0001
0020
0230
2300
3020
0230
0302
2003
,
3001
0000
1000
0001
0000
1000
0200
0000
,
0000
1300
0001
0000
0100
0000
0201
0000
,
0000
0301
1000
0000
0010
0000
2010
0000
,
0000
3010
0100
0000
0001
0000
1000
0000
,
1001
0000
0001
1000
0000
0001
0200
0000
,
0000
0301
1000
0000
0100
0000
1200
0000
,
0000
1300
0001
0000
0010
0000
0012
0000
,
0000
0013
0100
0000
1000
0000
0001
0000
,
2001
0000
0000
0000
0000
3000
0012
0000
,
0000
0000
0000
0000
0000
1003
0020
0000
,
0000
0000
0000
0000
0000
0130
0002
0000
,
0000
0000
0000
0000
0000
0003
0011
0000
,
2100
0000
0000
0000
0000
3000
0102
0000
,
0000
0000
0000
0000
0000
1003
0200
0000
,
0000
0000
0000
0000
0000
0310
0002
0000
,
0000
0000
0000
0000
0000
0000
0000
0000
0000
1003
0100
0010
,
0100
1000
0010
0100
0001
0010
0100
1000
0001
0100
0001
1000
,
0100
0010
0100
1000
0001
0100
0001
1000
0100
1000
0010
0100
,
0001
1000
0010
1000
0001
0010
0100
0010
0001
0100
0010
1000
,
0100
1000
0001
1000
0010
0100
0010
1000
0001
0010
0100
1000
,
0010
0100
0001
1000
0100
0010
0100
1000
0010
0100
0001
0010
,
0100
1000
0001
0100
0001
1000
0100
0010
0100
1000
0010
0100
,
0001
1000
0100
1000
0001
1000
0010
0100
0001
0010
0100
1000
,
0001
0100
0001
1000
0100
0010
0100
1000
0001
0100
0010
1000
,
0100
0010
0001
1000
0001
0100
0010
0100
0001
1000
0100
0010
,
0100
1000
0010
0100
0010
1000
0001
0010
0100
1000
0010
0100
,
0001
1000
0001
0010
0100
1000
0001
0010
0100
1000
0010
0100
,
0010
1000
0001
0010
0100
1000
0001
0100
0001
0010
0100
1000
,
0010
0100
0010
1000
0001
1000
0100
0010
0001
0100
0001
1000
,
0100
0010
0001
1000
0001
0100
0010
1000
0100
0010
0001
0100
,
0001
1000
0100
1000
0001
0010
0100
1000
0010
0100
0010
1000
,
0001
0100
0001
0010
0100
1000
0010
0100
0001
1000
0100
0010
,
0001
1000
0001
0100
0010
1000
0010
0100
0001
1000
0001
0010
0001
1000
0100
0010
,
0001
1000
0001
0100
0001
1000
0010
0100
0001
1000
0001
0010
0001
1000
0100
0010
,
0001
1000
0001
0100
0001
1000
0010
0100
0001
1000
0010
0100
0010
1000
0001
1000
,
0100
1000
0001
0010
0100
0010
0001
1000
0100
0010
0001
1000
0001
0100
0001
1000
,
0010
0100
0001
1000
0010
0100
0010
1000
0001
0100
0001
1000
0001
0010
0001
1000
,
0100
0010
0001
0010
0100
1000
0001
0010
0001
1000
0001
0100
0001
1000
0010
0100
,
0001
1000
0010
0100
0010
1000
0001
1000
0100
1000
0001
0010
0100
0010
0001
1000
,
0100
0010
0001
0010
0100
1000
0001
1000
0010
1000
0001
0100
0010
1000
0001
0100
,
0001
1000
0001
0010
0100
1000
0100
0010
0001
1000
0001
0100
0001
1000
0010
0100
,
0001
1000
0001
0010
0001
1000
0100
0010
0001
1000
0001
0100
0001
1000
0010
0100
,
0001
1000
0001
0010
0001
1000
0100
0010
0001
1000
0100
0010
0100
1000
0001
1000
,
0010
1000
0001
0100
0010
0100
0001
1000
0010
0100
0001
1000
0001
0010
0001
1000
,
0100
0010
0001
1000
0100
0010
0100
1000
0001
0010
0001
1000
0001
0100
0001
1000
,
0010
0100
0001
0100
0010
1000
0001
0100
0001
1000
0001
0010
0001
1000
0100
0010
,
0001
1000
0100
0010
0100
1000
0001
1000
0010
1000
0001
0100
0010
0100
0001
1000
,
0010
0100
0001
0100
0010
1000
0001
1000
0100
1000
0001
0010
0100
1000
0001
0010
,
0001
1000
0100
0010
0100
1000
0001
0010
0100
1000
0001
1000
0010
0100
0010
1000
,
0001
0100
0001
1000
0010
0100
0010
1000
0001
1000
0100
0010
0100
1000
0001
0010
,
0100
1000
0001
1000
0010
0100
0001
1000
0001
0100
0010
0100
0001
1000
0001
0010
,
0100
1000
0001
1000
0100
0010
0001
0010
0100
1000
0001
1000
0010
0100
0001
1000
,
0001
0100
0010
1000
0001
1000
0010
0100
0010
1000
0001
1000
0100
0010
0001
1000
,
0100
0010
0001
1000
0001
0100
0001
1000
0010
0100
0010
1000
0001
1000
0010
0100
,
0001
1000
0001
0010
0100
1000
0001
0010
0100
1000
0001
0010
0100
0010
0001
1000
,
0001
0100
0010
1000
0010
0100
0001
1000
0010
0100
0001
1000
0001
0010
0001
1000
,
0100
0010
0001
1000
0100
0010
0100
1000
0001
0010
0001
1000
0001
0100
0010
1000
,
0010
0100
0001
1000
0001
0100
0010
0100
0001
1000
0001
0100
0010
1000
0001
1000
,
0100
0010
0001
1000
0100
0010
0100
1000
0001
0010
0100
0010
0001
1000
0001
0100
,
0010
1000
0001
0100
0010
0100
0001
1000
0001
0010
0100
0010
0001
1000
0100
0010
,
0001
1000
0001
0100
0001
1000
0010
0100
0010
1000
0001
1000
0100
0010
0100
1000
,
0001
0010
0100
1000
0001
1000
0010
0100
0001
1000
0010
0100
0001
1000
0001
0010
,
0100
1000
0001
0010
0100
1000
0001
1000
0020
0000
0000
0000
0000
0000
0000
0000
,
0000
0000
0000
0000
0000
0000
0000
0000
0000
0000
0000
0000
0000
0000
0000
0000
0000
0000
0000
0000
0000
0000
0000
0000
0000
0000
0130
0000
0000
0001
0000
0000
,
2000
3000
0000
0000
;
