#TITLE:RED ZONE;
#SUBTITLE:;
#ARTIST:Tatsh & NAOKI;
#TITLETRANSLIT:;
#SUBTITLETRANSLIT:;
#ARTISTTRANSLIT:;
#CREDIT:;
#BANNER:redzone.png;
#BACKGROUND:redzone-bg.png;
#LYRICSPATH:;
#CDTITLE:;
#MUSIC:SPEED RAVE - RED ZONE.mp3;
#OFFSET:-0.218;
#SAMPLESTART:36.184;
#SAMPLELENGTH:12.000;
#SELECTABLE:YES;
#BPMS:0.000=165.000,76.000=329.999,80.000=660.015,88.000=164.999,248.000=1320.005,276.000=660.012,278.000=329.996,279.000=164.997;
#STOPS:;
#BGCHANGES:;
// cache tags:
#FIRSTBEAT:0.000;
#LASTBEAT:322.000;
#SONGFILENAME:Songs/juju steps/RED ZONE  V2/RED ZONE.sm;
#HASMUSIC:1;
#HASBANNER:1;
#MUSICLENGTH:107.839;
// end cache tags

//---------------dance-single - ----------------
#NOTES:
     dance-single:
     :
     Hard:
     11:
     1.000,1.000,1.000,0.056,1.000,746.000,136.000,6.000,0.000,0.000:
0000
0000
0000
0000
,
0000
0000
0000
0000
,
0000
0000
0000
0000
,
0100
0010
0100
0010
0100
0000
1000
0001
0000
1000
0001
0000
0010
0001
0100
0001
,
1001
0100
0000
1000
0100
0000
0001
0100
0000
1000
0100
0000
0001
0000
0010
0000
,
1000
0100
1000
0001
0010
0001
0100
0001
0010
0100
1000
0000
2002
0000
3003
0000
,
1000
0100
0000
0010
0100
0000
0001
0100
0000
0010
0100
0000
0001
0000
0001
0000
,
0010
0000
0000
0100
0000
0000
1000
0000
0000
0001
0000
0000
0100
0000
0000
1000
0000
0000
0001
0000
0000
0010
0000
0000
1001
0000
0000
0000
0000
0000
0110
0000
0000
0000
0000
0000
1001
0000
0000
0000
1001
0000
0000
0000
1001
0000
0000
0000
,
0110
0001
0000
0010
1000
0000
0010
0001
0000
0010
1000
0000
0010
0000
0010
0000
,
1000
0010
1000
0001
0100
0010
0100
0001
0010
0100
0010
0001
1000
0100
0010
0100
,
1000
0001
0000
0100
0001
0000
0010
0001
0000
0100
0001
0100
0010
0000
1000
0010
,
0000
1000
0000
0000
1000
0001
1000
0000
0010
0000
0001
1000
0010
1000
0001
0010
,
0001
0011
0100
0011
1000
1010
0100
1010
,
0100
1001
0100
1001
0010
0101
0010
0101
,
1000
0100
0000
0001
0100
0000
1000
0010
0000
0001
0010
0000
1000
0100
0010
0000
,
0001
0100
0010
1000
0100
0010
0001
0100
0001
0010
0100
1000
0100
0010
0001
0100
,
0001
0011
1000
0011
0100
1010
0001
1010
,
0010
0101
1000
0101
0100
1100
0001
1100
,
1000
0100
0010
0001
0100
0000
1010
0100
0000
0001
0110
1000
0010
0000
0010
0000
,
2002
0000
0000
0000
0000
0000
3003
0000
0001
0010
0100
1000
0010
0100
0001
1000
,
0001
0001
0100
0000
0010
0000
0100
0000
0001
0001
0000
0010
0000
0100
1000
0001
,
0010
0010
0100
0000
1000
0000
0100
0000
0010
0010
0000
0001
0000
0100
0010
0100
,
0010
0010
1000
0000
0001
0000
0100
0000
0001
0001
0000
0010
0000
0100
1000
0001
,
0010
0100
0010
0100
1000
0000
0100
1000
0100
0010
0001
0100
0010
1000
0001
0100
,
0010
0010
1000
0000
0100
0100
0010
0000
0001
0001
1000
0010
0000
0100
0010
1000
,
0001
0001
0100
0000
0010
0010
1000
0000
0100
0100
0010
0001
0000
1000
0001
0100
,
0001
0001
0010
0000
0100
0100
1000
0000
0001
0001
1000
0010
0000
0100
0010
1000
,
0001
0100
0001
1000
0010
0000
0100
0000
0001
0010
0001
0000
0100
0000
0010
0000
,
1001
0000
1100
0000
0011
0000
1001
0101
0000
1010
0000
1100
1001
0000
0011
0000
,
1000
0000
0010
0000
0100
0001
0000
0100
0010
0000
0100
1000
0000
0000
0100
0000
,
0101
0000
1001
0000
0011
0000
1100
1001
0000
1010
0000
0110
0101
0000
1001
0000
,
1000
0010
0100
0001
0010
0100
1000
0010
0100
0001
0010
0100
1000
0001
0010
0100
,
1001
0000
0110
0000
1001
0000
0110
1100
0000
0011
0000
1100
0110
0000
1001
0000
,
0100
0001
0100
0010
0000
0100
1000
0000
0100
0010
0000
0100
0001
0000
0100
0010
,
1000
0001
0100
0010
1000
0100
0010
0001
,
0010
0000
0001
0000
0100
0000
0010
0000
0011
0000
0000
1001
0000
0000
1100
0000
,
1001
0100
1100
0001
1100
0000
1000
0011
,
0000
0100
1010
0100
0011
0101
1010
1100
,
1010
0001
1100
0001
0110
0000
0100
1001
,
1000
0001
0011
0101
0011
0101
1000
0001
,
0110
1000
1001
0100
0101
1000
0010
0101
,
0010
1001
1100
1001
0011
0101
0011
0101
,
1001
1100
1001
0101
0011
0001
0101
0011
,
0001
0100
0010
1000
0100
0010
0001
0100
0001
0010
0100
1000
0010
0100
0001
1000
,
0001
0001
0100
0000
0010
0000
1000
0000
0001
0001
0000
1000
0000
0000
0010
0100
,
0001
0001
0100
0000
0010
0000
1000
0000
0100
0100
0000
0010
0000
0100
0010
0001
,
1000
1000
0100
0000
0010
0000
0001
0000
1000
1000
0000
0010
0000
0000
0100
0010
,
1000
1000
0010
0000
0100
0000
0001
0000
0010
0010
0100
1000
0001
0010
0100
1000
,
0001
0001
0100
0000
0010
0010
1000
0000
0001
0001
1000
0010
0000
0100
0010
1000
,
0001
0001
0010
0000
0100
0100
1000
0000
0001
0001
0010
0100
0000
0010
0100
1000
,
0001
0001
0100
0000
1000
1000
0100
0000
0001
0001
1000
0010
0000
1000
0010
0100
,
0001
0100
0001
0100
0010
0000
1000
0000
0100
0010
0100
0000
1000
0000
0100
0000
,
1001
0000
0110
0000
1001
0000
0110
1100
0000
0011
0000
1100
0110
0000
1001
0000
,
1000
0000
0010
0000
0100
0001
0000
0100
0010
0000
0100
1000
0000
0000
0100
0000
,
1010
0000
1100
0000
0011
0000
0101
1001
0000
1010
0000
1100
0011
0000
1001
0000
,
1000
0100
0010
1000
0100
0010
1000
0100
0010
0000
0100
0010
0001
0100
0010
0000
,
1001
0000
1100
0000
0011
0000
0101
1010
0000
1001
0000
1100
0011
0000
1001
0000
,
1000
0010
0001
0010
0000
1000
0100
0000
0001
0100
0000
1000
0010
0000
0001
0010
,
0001
1000
0100
1000
0001
0010
0001
0100
,
0010
0000
1000
0000
0001
0000
0010
0000
0011
0000
0000
0110
0000
0000
1100
0000
,
2002
0000
0000
0000
0000
0000
0000
3003
,
1000
0100
0010
0100
1000
0001
0010
0100
1000
0100
0010
0001
0100
0010
0100
0001
,
1000
0010
0100
0001
0100
0010
1000
0001
1000
0100
0010
0001
1000
0010
0100
0001
,
1000
0010
0100
0001
0010
0100
1000
0010
0100
0001
0010
0100
1000
0010
0100
0001
,
1000
0100
1000
0001
0100
0001
1000
0100
1000
0001
0100
0001
1000
0010
0100
0001
,
1000
0100
1000
0100
0010
0100
0001
0100
1000
0100
1000
0100
0010
0100
0001
0100
,
1000
0010
1000
0010
0100
0010
0100
0001
1000
0100
0010
0001
1000
0010
0100
0010
,
0001
0010
1000
0001
0010
1000
0001
0100
0001
0100
1000
0001
0100
1000
0001
0010
,
0100
0010
1000
0100
0010
1000
0001
0100
1000
0100
0010
0001
0100
0010
1000
0001
,
0110
0000
0000
1001
0000
0000
0110
0000
0000
0000
0011
0000
1100
0000
0011
0000
,
1100
0000
0000
1010
0000
0000
0101
0000
0000
0000
1010
0000
1100
0000
0101
0000
,
0011
0000
0000
0000
;

//---------------pump-single - ----------------
#NOTES:
     pump-single:
     :
     Challenge:
     13:
     1.000,1.000,1.000,0.436,1.000,895.000,175.000,47.000,69.000,41.000:
1M01M
00100
M00M1
01M00
0010M
00000
00000
00000
00000
00000
00000
00000
,
00M1M
00000
00000
01000
00000
00000
M00M0
00000
00000
0110M
00000
00000
M0000
00000
00000
0M010
00000
00000
0010M
00000
00000
00M00
00000
00000
00000
00000
00000
00000
00000
00000
00000
00000
00000
00000
00000
00000
00000
00000
00000
00000
00000
00000
00000
00000
M1M00
00000
00000
00000
,
00010
0M000
00100
000MM
01000
00000
001M0
0MM00
00000
00000
00000
00000
00000
00000
00000
00000
00000
00000
00000
00000
00000
00000
00000
00000
,
10000
00100
10000
00100
10000
00000
01000
00010
00000
00001
01000
00001
01000
00100
00001
00010
,
00100
01000
00100
01000
00100
01000
00100
01000
00100
01000
00100
01000
00100
01000
00100
01000
,
00100
00000
00000
10000
00000
00000
00100
00000
00000
10000
00000
00000
00100
00000
00000
10000
00000
00000
00100
00000
00000
10000
00000
00000
00100
00000
00000
10000
00000
00000
00100
00000
00000
10000
00000
00000
00100
00000
01000
00000
00010
00000
00100
00000
00000
00001
00000
00000
,
01000
00001
01000
00001
01000
00001
01000
00001
01000
00001
01000
00001
01000
00001
00100
00010
,
00100
00000
00000
01000
00000
00000
00100
00000
00000
10000
00000
00000
00100
00000
00000
00001
00000
00000
00100
00000
00000
00010
00000
00000
10000
00000
00100
00000
00000
00000
00100
00000
00010
00000
00000
00000
00010
00000
01000
00000
00000
00000
01000
00000
00100
00000
00000
00000
,
00001
10000
00001
10000
00001
10000
00001
10000
00001
10000
00001
10000
00001
10000
00001
10000
,
00010
01000
00010
01000
00010
01000
00010
01000
00010
01000
00010
01000
00010
01000
00010
01000
,
00010
00100
10000
00100
10000
00100
10000
00100
10000
00100
10000
00100
10000
00100
10000
00100
,
01000
00010
00100
00000
00000
00000
00001
00000
00000
00000
00011
00000
00000
00000
00010
00000
01000
00100
10000
00000
00000
00000
10000
00010
00200
00000
00000
00000
00000
00000
00000
00000
,
20300
30120
20030
30120
02030
13002
02003
03012
,
02003
03200
10320
02030
03200
02302
03023
20030
,
31000
01000
00100
00010
00100
00010
01000
00010
00100
00100
00100
00001
01000
00010
00100
10000
,
00001
00010
00100
01000
10000
01000
00100
00010
00001
00010
00100
01000
10000
10000
10200
00000
,
00320
00032
00203
02320
03230
20300
31020
00230
,
00302
01023
00230
20300
30210
02302
03013
20010
,
30010
00010
00100
00100
00010
00010
00100
00100
00010
00010
00100
00100
00010
00010
00100
00100
,
10000
01000
00100
00010
00001
00010
00100
01000
10000
01000
00100
00010
,
00001
00000
00010
00000
00100
00000
01000
00000
10000
00000
01000
00000
,
00100
00000
00010
00000
00001
00000
00010
00000
00100
00000
01000
00000
,
10000
10000
00010
00010
01000
01000
00100
00001
00010
00100
10000
00010
01000
00100
00100
00001
,
00001
10000
10000
00010
01000
00100
00010
00100
01000
10000
00100
00100
00001
00001
00010
00010
,
00100
01000
00100
10000
00010
10000
00100
01000
01000
00100
00100
10000
10000
00010
00100
01000
,
10000
00100
01000
00100
00100
00001
00001
00010
00010
00100
00010
00001
00100
00010
01000
00100
,
00010
01000
01000
10000
10000
00010
00010
01000
00100
00001
00010
00100
10000
00001
00001
01000
,
01000
00010
00010
00100
01000
10000
01000
00100
00010
00001
00001
00010
00010
00100
00100
01000
,
10000
01000
00100
00010
00001
00010
00100
00100
01000
01000
10000
10000
00100
01000
00100
00010
,
00001
00100
00010
00100
01000
00100
10000
10000
00010
00010
00100
00100
02100
00000
00000
00000
,
03100
10100
00100
00110
00100
00101
00100
01100
,
00010
00000
00100
00000
00000
00000
00000
01000
00000
00100
00000
00000
00000
00000
10000
00000
00010
00000
00000
00000
00000
00010
00000
01000
00000
00000
00000
00000
01100
00000
00000
00000
,
00100
00101
00100
00110
00100
10100
01001
00101
,
00010
00010
01000
00100
10000
00010
00010
01000
00100
10000
00010
00010
01000
00100
10000
00000
,
01010
01000
01001
00001
10001
10000
10010
00011
,
10000
00100
00100
01000
00010
00100
00100
00001
10000
00100
00100
01000
00010
00100
00100
00001
,
02000
00000
00000
00010
00100
00000
00110
00000
00100
00000
00010
00000
00000
00010
00000
00110
,
00000
00010
00000
00100
00010
00100
00000
00000
03010
00000
00000
00110
00000
00000
01110
00000
,
10000
00110
10000
01010
01000
00101
01000
00110
,
00000
10010
01001
00000
00101
10010
00000
01100
,
00101
01010
10000
10000
00110
10000
01010
00000
,
01100
00110
00000
00011
11000
00000
01100
00110
,
01001
00011
10001
11000
10010
01100
10100
10010
,
00101
00000
00110
00000
01100
00000
01100
00000
01000
00100
01000
00000
10100
00000
00101
00000
,
00100
00010
00100
00000
10010
00000
01010
00000
01000
00001
01000
00000
01101
00000
10110
00000
,
11100
00010
00001
00010
00100
01000
10000
01000
00100
00010
00001
00010
00100
01000
10000
01000
00100
00010
00001
00010
00100
01000
10000
01000
,
00110
00010
00001
01000
00100
10000
00010
00010
01000
00100
10000
00010
00010
01000
00100
00100
,
10000
00001
00100
00100
01000
00010
00100
10000
00100
01000
01000
00010
00100
10000
01000
01000
,
00100
00001
00010
00100
00010
00100
00100
01000
00001
00010
00100
00010
00100
00100
01000
10000
,
01000
01000
01000
00100
00010
00001
00010
00100
01000
01000
01000
00100
00010
00001
00010
00100
,
01000
01000
10000
00010
01000
00100
00010
00100
00001
00001
10000
00010
00100
00001
00001
00010
,
00100
01000
00100
10000
10000
00010
01000
00100
00100
01000
00010
00100
00010
00010
00100
00001
,
00001
00100
00010
01000
00100
10000
10000
10000
00100
01000
00100
00010
00100
00100
00100
00001
,
10010
01010
00100
00001
00100
10010
01010
00100
00001
00100
10010
01010
00100
00001
00100
10010
,
01010
10001
01010
01001
10010
11000
00011
11100
,
00010
00000
01000
00000
00000
00000
00000
01000
00000
00100
00000
00000
00000
00000
00100
00000
00010
00000
00000
00000
00000
00100
00000
00001
00000
00000
00000
00001
01000
00000
00000
00000
,
10010
10100
11000
10011
00101
01001
11001
01110
,
00001
01000
01000
10100
00011
00001
01000
01000
10100
00011
00001
01000
01000
10100
00011
00001
,
11100
00111
10101
01101
01110
10110
01110
10101
,
01010
00100
10000
00010
00100
01000
10010
01010
00100
10000
00010
00100
01000
10010
01010
00100
,
20000
00000
00000
00000
00100
00001
00000
00101
00000
00100
00000
00101
00000
00001
00100
00000
,
00100
00001
00000
00001
00100
00001
00000
00000
30101
00000
00000
00101
00000
00000
10101
00000
,
02020
00000
00000
00000
,
00000
00000
00000
00000
,
00000
00000
00000
00000
,
00000
00000
00000
00000
,
00000
00000
00000
00000
,
00000
00000
00000
00000
,
00000
00000
00000
00000
,
03230
00000
00000
00000
00000
00000
00000
00000
20300
00000
00000
00000
30001
00010
00100
01000
,
10001
01000
00100
00010
00001
00100
00010
10000
00100
10010
00100
01001
00100
00010
10001
00110
,
01000
00001
00110
10000
10001
00110
01001
00110
10000
00010
00101
01000
00010
01100
00001
10000
,
01010
10001
00100
01010
00100
00010
00001
10001
00110
01000
10010
00100
01001
00100
10010
01000
,
00100
00010
00101
01000
00100
00010
00101
01000
00010
01000
10100
00010
01000
10100
01000
01000
,
00010
00101
00001
00010
00100
00100
10010
00100
01001
00001
00001
00100
00010
00010
10000
01100
,
10010
00100
00100
01001
00010
00100
10010
01000
00100
01001
00100
00100
01001
00010
01000
10100
,
01100
01000
00010
00001
00101
00010
01000
00100
10010
00100
01001
00110
00100
10000
01001
00100
,
10010
00100
01001
00100
10010
00100
01001
00100
10010
0000M
MM01M
MM100
0M0M0
M010M
01000
00MM0
,
01MM0
10MM0
00MM0
00000
M11M0
00000
0M1M1
00000
0M11M
00000
0MM00
1MM00
0MM10
0MM00
M0M10
01000
,
00MM0
01MM0
00MM1
00000
00000
1M1M1
00000
M111M
00000
111M1
00000
22M22
00000
00000
00000
00000
,
00000
00000
33033
00000
;
