#TITLE:Crucify;
#SUBTITLE:Elements of Persuasion (2005);
#ARTIST:James LaBrie;
#TITLETRANSLIT:;
#SUBTITLETRANSLIT:;
#ARTISTTRANSLIT:;
#CREDIT:;
#BANNER:Crucify-bn.png;
#BACKGROUND:Crucify-bg.png;
#LYRICSPATH:;
#CDTITLE:!ElectricWerewolf.png;
#MUSIC:James LaBrie - Crucify.mp3;
#OFFSET:-3.986;
#SAMPLESTART:155.820;
#SAMPLELENGTH:12.000;
#SELECTABLE:YES;
#BPMS:0.000=189.990;
#STOPS:39.000=0.316
,70.000=0.316
,71.000=0.316
,172.000=0.316
,173.000=0.316
,330.000=0.316
,331.000=0.316
;
#BGCHANGES:;
// cache tags:
#FIRSTBEAT:3.000;
#LASTBEAT:913.000;
#SONGFILENAME:Songs/Astronomic Metal Collection/Crucify (ElectricWerewolf)/Crucify.sm;
#HASMUSIC:1;
#HASBANNER:1;
#MUSICLENGTH:297.560;
// end cache tags

//---------------dance-single - ----------------
#NOTES:
     dance-single:
     :
     Hard:
     12:
     1.000,1.000,1.000,0.165,1.000,2196.000,643.000,49.000,0.000,4.000:
0000
0000
0000
1000
,
0000
1000
0000
1000
,
1000
0000
1000
1000
1000
1000
1001
0000
,
1000
0001
1000
0000
1000
0000
0010
0100
0001
1000
0101
0000
1001
0000
0000
0000
,
0001
0010
0001
0000
0001
0000
0100
0010
1000
0001
0010
0100
1001
0000
0000
0000
,
0100
0010
0100
0000
0100
0000
0001
1000
0100
0010
1001
0000
1001
0000
0000
0000
,
0001
0100
0001
0000
0001
0000
1000
0010
1000
0001
0100
0010
1001
0000
0000
0000
,
0010
0100
0010
0000
0010
0000
0001
1000
0010
0100
1010
0000
1001
0000
0000
0000
,
1000
0100
1000
0000
1000
0000
0001
0100
0010
1000
0010
0100
1001
0000
0000
0000
,
0100
1000
0100
0000
0100
0000
0010
0001
0100
0010
1001
0000
1001
0000
0000
0000
,
0010
0000
0010
0000
0010
0000
0010
0000
0011
0000
1100
0000
0010
1000
0100
0000
,
0101
0000
0100
0010
0001
0100
0010
1000
0110
0000
0011
0000
1000
0001
1000
0000
,
1010
0000
0010
0100
0001
1000
0001
0100
1010
0000
1100
0000
1000
0100
1000
0000
,
1010
0000
0001
0010
0100
0010
0100
1000
0101
0000
1001
0000
0001
0010
0001
0000
,
1100
0000
1000
0001
0100
0010
0100
0001
1010
0000
1100
0000
0100
0010
0001
0000
,
0110
0000
0001
0100
0010
1000
0100
1000
0011
0000
1010
0000
0001
0100
0001
0000
,
0011
0000
1000
0100
1000
0010
0100
0001
1010
0000
0101
0000
1000
0100
1000
0000
,
0011
0000
1000
0001
0100
0010
1000
0100
0011
0000
1100
0000
0011
0000
1100
0000
,
0011
0000
1001
0000
1000
0100
0010
0000
0011
0000
0010
1000
0001
0100
0001
1000
,
0101
0000
1001
0000
1000
0100
0010
0000
0011
0000
0100
1000
0010
0100
0001
1000
,
0101
0000
1001
0000
0001
1000
0010
0000
0110
0000
0001
0100
0010
1000
0100
1000
,
0011
0000
0110
0000
0010
1000
0100
0000
0011
0000
0001
1000
0001
0100
0010
1000
,
0110
0000
0011
0000
0010
0001
0010
0000
0101
0000
0010
0001
1000
0010
0100
0010
,
1001
0000
0110
0000
0001
0100
0001
0000
1100
0000
1000
0100
1000
0001
0010
0100
,
1010
0000
0101
0000
1000
0100
0010
0000
1010
0000
0100
0010
0001
1000
0001
0100
,
1010
0000
0000
0101
1010
0000
0000
0101
,
1010
0001
0100
0010
1001
0100
0011
0100
,
1010
0001
1000
0100
1010
0001
1100
0010
,
1001
0100
0010
1000
0011
0100
1010
0001
,
1100
0010
0100
1000
0011
1100
0010
0101
,
1010
0001
0100
0010
1001
0100
1010
0001
,
0110
1000
0001
0100
0011
1000
0101
0010
,
1100
0001
0010
0100
1001
0010
0101
0010
,
1100
1001
0100
0010
0101
1000
0010
0100
,
2002
0000
0000
0000
,
0000
0000
0000
0000
0000
0000
0000
0003
0010
0000
0010
0000
0010
0000
3010
0000
,
1100
0000
0011
0000
0100
0010
0001
0000
0101
0000
0100
1000
0100
1000
0010
0100
,
0011
0000
1010
0000
0001
1000
0100
0000
0101
0000
0001
0100
0010
1000
0100
0010
,
1001
0000
0011
0000
0100
1000
0010
0000
1010
0000
0001
0100
0001
1000
0100
0010
,
1001
0000
0101
0000
0010
0100
0010
0000
1100
0000
1000
0100
0010
0001
0100
0001
,
1010
0000
0101
0000
1000
0010
0100
0000
0011
0000
0001
0010
0001
1000
0010
1000
,
0110
0000
0101
0000
0100
0010
1000
0000
1001
0000
0010
0001
0100
0010
1000
0001
,
1010
0000
0011
0000
0100
0010
0100
0000
1100
0000
0100
0010
1000
0001
0010
0100
,
1001
0000
0110
0000
1001
0000
0110
0000
1001
0000
1010
0000
0001
1000
0001
0000
,
1010
0000
0001
0100
0001
1000
0010
0100
1001
0000
1100
0000
0100
0010
0100
0000
,
1010
0000
0001
0100
0001
0010
0100
1000
0110
0000
0101
0000
1000
0010
1000
0000
,
0101
0000
0010
0100
0010
1000
0010
0100
0011
0000
1100
0000
0001
0010
0100
0000
,
1010
0000
1000
0001
0100
0010
1000
0100
0011
0000
1001
0000
0010
0001
1000
0000
,
1100
0000
0010
1000
0010
0100
0001
1000
0011
0000
0110
0000
0001
0100
0001
0000
,
1010
0000
1000
0100
1000
0010
0100
0010
0101
0000
1001
0000
1000
0010
1000
0000
,
0110
0000
0001
0100
0010
0100
0001
1000
0101
0000
0000
0000
0000
0000
1010
0000
,
0101
0000
0000
1010
0101
0001
0011
0010
,
0110
0100
1100
1000
1010
1000
1001
0001
,
0101
0000
0100
0000
0110
0000
0010
0000
1010
0100
0001
1000
0100
0010
1001
0000
,
0100
0010
1000
0000
0110
0000
0010
0000
0011
1000
0001
0100
0010
1000
0101
0000
,
0010
0100
0010
0000
0110
0000
1000
0000
1100
0000
0100
0000
0110
0000
0010
0000
,
1010
0010
0011
0001
0101
0100
0101
0001
,
0011
0000
0001
0000
1001
0000
1000
0000
1100
0010
1000
0001
0010
0100
1010
0000
,
0001
1000
0010
0000
0110
0000
0001
0000
0101
0010
1000
0100
1000
0001
0110
0000
,
0001
0010
0001
0000
1100
0000
0010
0000
0110
0000
0100
0000
0101
0000
0001
0000
,
0011
0010
1010
0010
0110
0100
0101
0100
,
1100
0000
1000
0000
1010
0000
0010
0000
0110
1000
0001
0010
0100
0010
1001
0000
,
0010
1000
0010
0000
0101
0000
1000
0000
1100
0010
0001
1000
0100
1000
0110
0000
,
0100
0001
1000
0000
0101
0000
0001
0000
1001
0000
1000
0000
1100
0000
0100
0000
,
0110
0010
0011
0001
0011
0010
0110
0100
,
1100
0000
1000
0000
1001
0000
0001
0000
0101
1000
0001
1000
0001
1000
0001
1000
,
0101
0000
0000
0000
1010
0001
1000
0001
1000
0001
1000
0001
1010
0000
0000
0000
,
0101
0100
0000
0000
0110
1010
1010
0011
,
1100
1100
0101
0000
2010
3001
0101
0101
,
0101
0101
0101
0101
1010
0110
0110
0101
,
1001
0000
1001
0000
1100
0000
0000
0000
1002
0000
0013
0000
0110
0000
0010
0100
,
0011
0000
0010
0100
0010
0000
0010
0100
1001
0000
1010
0000
1010
0000
0101
0000
,
1001
0000
1001
0000
0110
0000
0000
0000
2100
0000
3001
0000
0010
0001
0010
0000
,
1010
0001
0010
0000
0010
0001
0010
0000
0101
0000
1010
0000
1010
0000
1100
0000
,
0011
0011
0110
0000
1002
0103
0110
0110
,
0110
0000
0110
0000
0110
0000
0110
0000
1001
0000
0110
0000
0001
0010
0001
0000
,
0110
0000
0001
1000
0100
0010
0001
0100
1010
0000
1001
0000
0001
1000
0010
0000
,
0101
0000
0010
1000
0001
0010
0001
0100
1010
0000
0101
0000
1000
0001
0010
0000
,
0101
0000
1000
0010
0100
0001
1000
0001
0110
0000
1010
0000
0001
1000
0001
0000
,
0101
0000
1000
0010
0100
0001
0010
0001
1100
0000
0011
0000
0010
0100
1000
0000
,
1001
0000
0010
1000
0001
0010
0001
0100
1001
0000
1010
0000
0100
0001
0100
0000
,
1010
0000
1000
0100
1000
0010
0100
0001
1010
0000
0101
0000
0001
1000
0100
0000
,
1001
0000
1000
0010
1000
0010
0100
0001
1100
0000
0011
0000
1100
0000
0011
0000
,
0110
0000
1001
0000
0001
0010
0100
0000
0101
0000
1000
0010
0100
0010
0100
0010
,
1001
0000
1010
0000
0010
0100
1000
0000
1001
0000
1000
0100
0010
0001
1000
0010
,
0101
0000
1010
0000
0001
0100
0001
0000
1100
0000
0001
1000
0100
1000
0010
0100
,
1001
0000
0011
0000
0010
0100
0001
0000
0011
0000
1000
0010
0100
0010
1000
0001
,
0110
0000
1100
0000
1000
0001
0100
0000
0011
0000
0100
0010
1000
0010
1000
0001
,
0110
0000
1001
0000
1000
0001
0010
0000
1010
0000
0010
0001
0100
0001
0010
0100
,
1001
0000
0101
0000
1000
0010
0100
0000
1010
0000
0010
0100
1000
0001
0100
0010
,
1001
0000
0000
0110
1001
0000
0000
0110
,
1001
0100
0010
1000
0101
0010
1100
0001
,
0110
1000
0001
0100
1010
0100
1001
0100
,
0011
1000
0001
0010
1100
0001
0110
1000
,
0101
0010
0100
1000
0110
1001
0100
1010
,
0101
0010
1000
0001
1010
0100
0011
1000
,
0110
1000
0010
0100
1001
0010
0101
1000
,
0011
1000
0001
0010
1100
0001
0110
1000
,
0101
1001
0010
0100
1010
0001
1000
0010
,
2002
0000
0000
0000
,
3000
0010
0000
0100
0000
1000
0000
0010
,
0103
0000
0000
0001
0000
0000
0100
0000
,
0000
0000
0001
0000
1000
0010
0100
0001
1000
0100
1000
0010
0100
0010
1000
0001
,
1010
0000
0000
0001
0000
0000
0010
0001
,
1100
1001
0000
1001
0100
1100
0011
0000
,
0110
0000
0000
1000
0000
0000
0010
0000
,
1001
0100
0010
0100
0010
0100
1001
0010
0100
0010
0100
0010
1001
0100
0010
0100
,
1000
0000
0000
0000
0000
0000
0000
0000
1000
0001
0000
0000
0000
0000
0000
0000
0000
0000
0000
0000
0000
0000
0000
0000
0001
0100
0000
0000
0000
0000
0000
0000
0000
0000
0000
0000
0000
0000
0000
0000
0010
1000
0000
0000
0000
0000
0000
0000
0000
0000
0000
0000
0000
0000
0000
0000
1000
0100
0000
0000
0000
0000
0000
0000
,
0000
1010
0101
0101
1001
1100
0011
0110
,
1100
0000
0000
0000
0000
0000
0000
0000
0000
0000
0000
0000
0000
0000
0000
0000
0000
0000
0000
0000
0000
0000
0000
0000
0000
0000
0000
0000
0000
0000
0000
0000
0000
0000
0000
0000
0000
0000
0000
0000
0000
0000
0000
0000
0000
0000
0000
0000
0000
0000
0000
0000
0000
0000
0000
0000
0000
0000
0000
0000
0000
0000
0000
0000
0000
0000
0000
0000
0000
0000
0000
0000
0100
0000
0000
0000
0000
0000
0000
0000
0000
0000
0000
0000
0000
0000
0000
0000
0000
0000
0000
0000
0000
0000
0000
0000
1001
0000
0000
0000
0000
0000
0000
0000
0010
0000
0000
0000
0000
0000
0000
0000
0100
0000
0000
0000
0000
0000
0000
0000
1000
0000
0000
0000
0000
0000
0000
0000
0010
0000
0000
0000
0000
0000
0000
0000
0100
0000
0000
0000
0000
0000
0000
0000
0001
0000
0000
0000
0000
0000
0000
0000
1000
0000
0000
0000
0000
0000
0000
0000
0000
0000
0100
0000
0000
0000
0000
0000
0000
0000
0000
0000
0000
0000
0000
0000
1000
0000
0000
0000
0000
0000
0000
0000
0000
0000
0000
0000
0000
0000
0000
0000
,
0110
0000
0000
0000
0000
0000
0000
0000
0001
0000
0000
0000
0000
0000
0000
0000
1000
0000
0000
0000
0000
0000
0000
0000
0010
0000
0000
0000
0000
0000
0000
0000
0100
0000
0000
0000
0000
0000
0000
0000
0001
0000
0000
0000
0000
0000
0000
0000
0010
0000
0000
0000
0000
0000
0000
0000
0100
0000
0000
0000
0000
0000
0000
0000
0000
0000
1000
0000
0000
0000
0000
0000
0000
0000
0000
0000
0000
0000
0000
0000
0001
0000
0000
0000
0000
0000
0000
0000
0000
0000
0000
0000
0000
0000
0000
0000
1100
0000
0000
0000
0000
0000
0000
0000
0000
0000
0000
0000
0000
0000
0000
0000
0000
0000
0000
0000
0000
0000
0000
0000
0000
0000
0000
0000
0000
0000
0000
0000
0011
0000
0000
0000
0000
0000
0000
0000
0000
0000
0000
0000
0000
0000
0000
0000
0000
0000
0000
0000
0000
0000
0000
0000
0000
0000
0000
0000
0000
0000
0000
0000
0110
0000
0000
0000
0000
0000
0000
0000
0000
0000
0000
0000
0000
0000
0000
0000
0000
0000
0000
0000
0000
0000
0000
0000
0000
0000
0000
0000
0000
0000
0000
0000
,
1001
0000
0000
0000
0000
0000
1000
0001
0100
0001
0010
0100
1000
0000
1000
0000
,
0001
0000
0010
0000
0001
0100
0001
0000
1000
0010
0100
0000
0010
1000
0100
0010
,
0001
1001
0010
0100
0011
1000
0001
1010
,
0100
0010
1010
0001
0100
1100
0010
0100
,
1010
0101
0000
0101
0000
0101
0000
0101
,
1001
0110
0011
1010
0101
0110
0101
0000
,
2002
0000
0000
0000
,
0000
0000
0000
0000
0000
0000
0000
3003
,
0011
0010
1010
0010
0110
0100
1100
0100
,
0101
0100
0110
0010
0011
0001
1001
1000
,
1010
0100
0001
1000
0100
0010
1001
0000
0010
0001
0010
0000
0110
0000
0001
0000
,
1001
0100
0001
1000
0001
0010
1100
0000
0010
0100
0010
0000
1001
0000
0100
0000
,
0101
0001
0101
0100
0110
0010
0011
0010
,
1010
1000
1100
1000
1001
0001
0011
0010
,
0110
0001
1000
0010
0100
0010
1001
0000
0010
1000
0100
0000
0101
0000
1000
0000
,
0011
0100
1000
0001
0010
0001
0110
0000
1000
0001
1000
0000
1001
0000
0001
0000
,
0011
0010
0110
0010
0011
0001
0101
0100
,
0110
0010
1010
1000
1001
1000
1010
0010
,
0110
0001
1000
0010
1000
0001
0110
0000
1000
0010
0100
0000
0101
0000
0010
0000
,
0110
0001
1000
0010
1000
0001
1010
0000
0001
0100
0001
0000
1100
0000
0001
0000
,
1010
0001
0100
0001
1010
0001
1000
0100
,
0011
1000
0001
1010
0001
1000
0110
0001
,
1001
0100
0001
0100
0001
0100
0001
0100
1001
0000
0000
0000
1001
0010
1000
0010
,
1000
0010
1000
0010
1001
0000
0000
0000
0000
0000
0000
0000
0000
0000
0000
0000
,
1001
0110
0110
0101
1010
1010
0011
0000
,
1020
0130
1100
1100
1100
1100
1100
1100
,
1010
0101
0101
1100
0011
0011
0110
0000
,
0021
0000
0130
0000
0100
1000
0100
0000
0101
1000
0100
0000
0100
1000
0100
0000
,
1010
0011
0011
1100
0110
0110
1001
0000
,
2010
0000
3100
0000
1100
0000
1000
0100
1001
0000
1000
0100
1000
0000
1000
0100
,
1010
0101
0101
1100
0011
0011
1001
0000
,
0201
0310
1010
1010
1010
1010
1010
1010
,
0120
0000
0000
0000
0000
0000
0000
0000
0000
0000
0000
0000
0130
1000
0002
0000
,
0000
0000
0000
0000
0000
0000
0100
0000
0100
0000
0100
0000
0103
1000
0010
0100
,
0002
0000
0013
0100
1000
0100
0020
0000
0031
0010
0100
1000
0020
0000
0130
0001
,
1000
0100
0020
0000
0000
0000
0031
0000
0100
0000
0010
0000
1000
0100
0000
0000
,
2010
0000
0000
0000
0000
0000
3000
0000
0001
0010
0100
1000
0001
0010
0100
1000
,
0001
0010
0100
1000
0001
0010
0001
0010
0100
1000
0001
0010
0100
1000
0001
0010
,
0001
0010
0100
1000
0001
0010
0001
0010
0100
1000
0001
0010
0100
1000
0001
0100
,
0010
0000
0000
0000
1000
0000
0100
0000
0000
0010
0000
0000
0001
0000
0000
0100
0000
0000
0010
0000
0000
1000
0000
0000
0001
0000
0000
0010
0000
0000
0100
0000
0000
1000
0000
0000
0200
0000
0000
0000
0000
0000
0300
0000
0000
0000
0000
0000
,
0020
0000
0000
0000
0000
0000
0032
0000
1003
0010
0100
0001
0010
0100
1000
0100
,
0010
0001
1000
0100
0010
0001
1000
0100
0010
0100
1000
0001
0100
0010
1000
0001
,
0100
0000
0000
0010
0000
0000
1000
0000
0000
0010
0000
0000
0100
0000
0000
0001
0000
0000
0010
0000
0000
0100
0000
0000
1000
0000
0000
0100
0000
0000
0010
0000
0000
0001
0000
0000
0100
0000
0010
0000
1000
0000
0100
0000
0000
0010
0000
0000
,
0001
0010
0100
1000
0100
0010
0001
0010
0200
0000
0000
0000
0000
0000
1300
0001
,
0100
0010
0100
0001
0010
0100
1000
0100
1000
0001
0010
0100
0010
0001
0100
0010
,
1000
0100
0010
0001
1000
0010
0100
0001
1000
0100
0010
0100
1000
0001
0010
0100
,
2000
0000
0000
0000
0000
0000
3100
0000
0000
0010
0000
0000
0001
0000
0000
1000
0000
0000
0020
0000
0000
0000
0000
0000
0000
0000
0000
0130
0000
0000
0001
0000
0000
1000
0000
0000
0100
0000
0000
1000
0000
0000
0001
0000
0100
0000
0020
0000
,
0000
0000
0000
0030
2000
0000
0000
0000
3200
0000
0000
0000
0000
0000
0000
0000
,
1300
1000
0001
0001
0100
0100
0010
0010
0100
0100
0001
0001
,
1000
1000
0010
0010
0100
0000
0020
0000
0000
0200
0030
0000
,
2302
0000
0000
0000
0000
0000
0203
0320
,
0032
0000
0000
0000
3000
0000
0203
0320
,
1030
0100
0020
0000
0230
0000
0320
0000
0130
0010
0002
0000
2003
0000
3020
0000
,
0230
0000
0000
0000
0000
0000
0000
0300
,
1000
0010
0100
0001
1000
0100
0010
0001
1000
0010
0100
0001
1000
0100
0010
0001
,
1000
0010
0100
0010
0100
0001
1000
0100
0010
0100
0010
0001
1000
0010
0100
0001
,
0010
0100
1000
0100
0010
0001
0010
0100
1000
0100
0010
0001
1000
0010
0100
0001
,
0010
0100
1000
0010
1000
0010
0100
0001
0020
0000
0000
0000
0000
0000
0030
0000
,
0001
0010
0100
1000
0100
0010
0001
0010
0100
1000
0100
0010
0001
0010
0100
1000
,
0001
1000
0010
0100
0010
1000
0001
1000
0010
0100
0010
1000
0001
1000
0010
0100
,
0001
0100
0010
1000
0010
0100
0001
0100
0010
1000
0010
0100
0001
0100
0010
1000
,
0001
1000
0100
0010
0100
1000
0001
1000
0100
0010
0100
1000
0001
1000
0100
0010
,
1000
0010
0100
0001
0100
0010
1000
0010
0100
0001
0100
0010
1000
0010
0100
0001
,
1000
0001
0010
0100
0010
0001
1000
0001
0010
0100
0010
0001
1000
0001
0010
0100
,
1000
0100
0010
0001
0010
0100
1000
0100
0010
0001
0010
0100
1000
0100
0010
0001
,
1000
0001
0100
0010
0100
0001
1000
0001
0100
0010
0100
0001
1000
0001
0100
0010
,
1100
0000
0110
0000
0011
0000
0101
0000
0110
0000
1010
0000
,
1001
0000
1100
0000
0110
0000
0011
0000
1010
0000
0110
0000
,
0101
0000
0000
1000
0000
0000
0001
0000
,
0000
1000
0011
0000
0101
1000
1001
0100
,
1010
0000
0000
0100
0000
0000
0010
0000
,
0000
0000
0100
0001
0010
0100
1000
0011
1100
0011
0100
1000
0010
1000
0100
0010
,
1001
0000
0000
0100
0000
0000
1000
0000
,
0100
0000
0000
0000
0000
0000
0010
0000
0000
1000
0000
0000
0001
0000
0000
0010
0000
0000
0100
0000
0000
1000
0000
0000
0010
0000
0000
0100
0000
0000
0001
0000
0000
1000
0000
0000
0100
0000
0010
0000
0100
0000
0010
0000
0000
0000
0000
0000
,
1001
0000
0000
1010
0000
0100
0110
0000
,
0000
0101
0000
0010
0011
0000
1010
0000
,
1001
1100
0110
0011
0101
0110
1100
0110
,
0011
0110
1001
0000
1010
0110
0101
0011
,
1001
0000
0010
0001
0010
0000
1100
0000
0010
1000
0001
0000
0110
0000
1000
0001
,
0100
0000
1010
0000
0100
0001
1000
0000
0011
0000
0001
0000
1100
0000
1001
0000
,
0011
0000
1001
0010
0100
0001
0010
0100
1001
0100
0010
1000
0001
0010
1100
0010
,
1000
0001
0100
0010
1001
0100
1000
0001
1010
0000
1100
0000
0110
0000
0011
0000
,
1001
0101
0101
0101
0101
0110
0110
0100
,
1001
1010
0110
0101
1010
0110
0101
1001
,
2002
0000
0000
0000
,
0000
0000
0000
0000
0000
0000
0000
3003
,
1100
1000
1010
1000
1001
0001
0011
0010
,
0110
0100
1100
1000
1100
0100
0110
0100
,
0101
1000
0001
0100
0001
1000
0011
0000
0010
0100
0001
0000
0011
0000
0100
0000
,
0110
0001
1000
0010
0100
0001
1010
0000
1000
0001
0100
0000
1001
0000
0001
0000
,
0101
0100
1100
1000
1100
0100
0110
0010
,
1010
1000
1100
1000
1001
0001
1001
1000
,
1100
0010
0100
1000
0001
1000
0101
0000
0100
0001
0010
0000
1010
0000
0010
0000
,
1100
0010
0001
0100
0010
0100
1001
0000
0010
0100
0001
0000
1001
0000
1000
0000
,
1100
0100
0110
0010
1010
0010
0011
0001
,
0101
0001
1001
1000
1010
0010
0011
0010
,
0110
0001
0010
0100
1000
0010
1001
0000
0010
0001
1000
0000
0011
0000
0100
0000
,
1100
0010
0001
0100
0001
1000
0110
0000
0001
0100
0001
0000
1010
0000
1000
0000
,
1100
0100
0101
0100
0110
0010
0110
0100
,
1100
1000
1010
0010
0110
0100
0101
0001
,
1001
0100
0010
1000
0001
1000
0110
0000
0100
0001
0100
0000
0011
0000
0100
0000
,
0110
0001
1000
0100
0010
0100
1001
0000
0100
0001
0010
0000
0011
0000
0001
0000
,
0101
0001
1001
1000
1100
0100
0110
0010
,
0011
0001
0011
0001
0101
0100
0110
0010
,
1010
0001
0100
0010
0100
0001
1100
0000
1000
0010
0100
0000
1010
0000
1000
0000
,
0101
0010
1000
0001
0100
0010
0101
0000
1000
0001
1000
0000
0101
0000
0010
0000
,
1010
1000
1100
0100
0110
0010
1010
0010
,
0110
0100
0101
0100
1100
1000
1001
0001
,
0011
0100
1000
0010
0100
0001
1100
0000
0001
0010
0100
0000
0101
0000
1000
0000
,
1010
0001
0100
0010
1000
0100
1010
0000
0010
0100
0010
0000
0101
0000
0001
0000
,
0011
0001
1001
1000
1010
0010
0110
0100
,
1100
0100
0101
0001
0011
0010
0110
0100
,
0101
0010
0001
0100
0010
1000
0101
0000
1000
0100
1000
0000
0110
0000
0001
0000
,
0101
1000
0010
0100
0010
1000
0011
0000
0001
1000
0001
0000
0110
0000
0010
0000
,
1010
1000
1001
0001
1001
1000
1010
0010
,
0110
0100
0101
0001
0011
0010
0011
0001
,
1001
0100
0010
0001
0010
0100
1000
0100
0011
0000
0000
0000
1100
0010
0001
0010
,
0100
1000
0100
0010
1001
0000
0000
0000
0000
0000
0000
0000
0000
0000
0000
0000
;

//---------------dance-single - ----------------
#NOTES:
     dance-single:
     :
     Medium:
     11:
     1.000,1.000,0.003,0.165,1.000,2133.000,1.000,49.000,0.000,0.000:
0000
0000
0000
1000
,
0000
1000
0000
1000
,
1000
0000
1000
1000
1000
1000
1000
0000
,
0001
0100
0001
0000
0001
0000
1000
0010
1000
0010
0100
0000
0100
0000
0000
0000
,
0001
0010
0001
0000
0001
0000
1000
0010
0100
0010
1000
0001
0010
0000
0000
0000
,
0010
0100
0010
0000
0010
0000
0001
1000
0001
0010
0100
0000
0100
0000
0000
0000
,
1000
0001
1000
0000
1000
0000
0010
0100
0001
0010
0100
1000
0100
0000
0000
0000
,
0100
1000
0100
0000
0100
0000
1000
0010
0100
0001
0010
0000
0010
0000
0000
0000
,
0010
0100
0010
0000
0010
0000
0001
1000
0010
0100
0010
1000
0100
0000
0000
0000
,
0100
0010
0100
0000
0100
0000
0010
0001
0100
0001
0010
0000
0010
0000
0000
0000
,
0001
0000
0001
0000
0001
0000
0001
0000
1000
0000
0010
0000
0100
0001
0010
0000
,
0001
0000
0100
0010
1000
0010
0100
0001
0010
0000
0001
0000
1000
0100
1000
0000
,
0010
0000
0100
0001
0100
0010
1000
0001
0010
0000
0100
0000
0010
0001
0100
0000
,
0010
0000
1000
0100
0010
0100
1000
0010
0100
0000
0001
0000
0010
0100
1000
0000
,
0010
0000
1000
0001
1000
0100
1000
0010
0100
0000
0001
0000
0010
0001
0010
0000
,
0001
0000
0100
0010
1000
0010
0100
0001
1000
0000
0100
0000
0010
0100
0010
0000
,
0001
0000
0100
0010
0100
0001
1000
0100
0010
0000
0001
0000
0100
0001
0100
0000
,
0010
0000
1000
0001
0010
0100
1000
0010
0100
0000
0100
0000
0100
0000
0100
0000
,
0001
0000
1000
0000
0100
0010
0100
0000
0010
0000
0001
1000
0001
0100
0010
1000
,
0100
0000
0010
0000
0100
1000
0001
0000
0100
0000
0010
1000
0001
0010
0001
0100
,
0010
0000
1000
0000
0100
1000
0100
0000
1000
0000
0010
0100
0001
1000
0100
0010
,
0100
0000
1000
0000
0001
0100
0010
0000
0100
0000
0001
0010
0100
1000
0010
1000
,
0100
0000
0010
0000
0100
1000
0010
0000
0100
0000
0001
1000
0001
0010
0100
0010
,
0100
0000
1000
0000
0010
0100
0010
0000
1000
0000
0001
0100
0010
0100
0001
1000
,
0100
0000
0010
0000
0100
1000
0010
0000
0100
0000
0010
1000
0100
0010
0001
0100
,
0010
0000
0000
0010
0010
0000
0000
0010
,
2000
0000
0000
0100
0010
0000
0001
0000
,
0100
0001
0000
0000
3010
0000
0100
0000
,
1000
0000
0000
0010
0100
0000
0001
0000
,
0010
0000
0100
0000
1000
0001
0000
1000
,
0002
0000
0000
0100
0010
0000
1000
0000
,
0100
1000
0000
0000
0010
0000
0103
0000
,
0001
0000
0000
1000
0010
0000
0100
0000
,
0001
0010
0100
1000
0010
0100
0000
0100
,
0002
0000
0000
0000
,
0000
0000
0000
0000
0100
0100
0100
0103
,
0010
0000
1000
0000
0001
0010
0001
0000
0100
0000
0010
1000
0100
0010
0100
1000
,
0001
0000
0100
0000
0010
1000
0010
0000
0100
0000
0001
0100
0001
1000
0100
0010
,
0100
0000
1000
0000
0010
0100
0010
0000
1000
0000
0100
0010
0001
0100
0010
1000
,
0010
0000
1000
0000
0100
0010
0100
0000
0010
0000
0001
0100
0001
1000
0001
0010
,
0100
0000
1000
0000
0010
0100
0010
0000
1000
0000
0100
0010
0100
1000
0010
0100
,
0001
0000
0010
0000
0100
0010
0100
0000
1000
0000
0100
0010
0001
1000
0010
0100
,
0001
0000
0010
0000
0100
0010
0100
0000
1000
0000
0010
0100
0001
1000
0100
0010
,
0001
0000
0001
0000
0001
0000
0001
0000
0001
0000
0010
0000
0001
1000
0100
0000
,
0010
0000
0100
1000
0010
0100
0001
0100
0001
0000
1000
0000
0100
0010
0100
0000
,
1000
0000
0010
0100
0001
1000
0100
0010
0001
0000
0100
0000
0010
1000
0100
0000
,
1000
0000
0010
0100
0010
1000
0001
1000
0100
0000
0010
0000
0001
0010
0100
0000
,
0010
0000
0001
1000
0010
0100
0010
1000
0100
0000
0010
0000
0001
0010
0100
0000
,
0010
0000
0001
1000
0001
0100
0010
1000
0010
0000
0100
0000
0001
0010
0100
0000
,
1000
0000
0010
1000
0100
0010
0001
1000
0001
0000
0100
0000
0010
1000
0100
0000
,
1000
0000
0001
0010
0100
1000
0010
0100
0010
0000
0000
0000
0000
0000
0010
0000
,
0010
0000
0000
0010
0001
0100
0010
1000
,
0100
0001
0100
1000
0010
0100
0001
0010
,
1000
0000
0010
0000
0100
0000
1000
0000
0001
0100
0010
1000
0010
1000
0001
0000
,
0010
0100
0010
0000
0100
0000
1000
0000
1000
0001
0100
0001
1000
0100
0010
0000
,
0010
0100
0010
0000
0100
0000
1000
0000
0010
0000
0100
0000
0001
0000
1000
0000
,
0100
1000
0001
0100
1000
0100
0001
0010
,
0100
0000
0010
0000
0001
0000
1000
0000
0100
0010
0001
0100
0001
1000
0010
0000
,
1000
0100
1000
0000
0001
0000
0100
0000
0100
0010
1000
0100
0010
0001
0010
0000
,
0001
0100
0010
0000
0100
0000
0010
0000
1000
0000
0001
0000
0010
0000
1000
0000
,
0010
0100
1000
0001
0100
0010
1000
0001
,
0100
0000
0010
0000
1000
0000
0010
0000
0100
0001
1000
0100
0010
0100
0010
0000
,
0001
0100
0001
0000
1000
0000
0010
0000
0010
1000
0001
0010
0001
0100
0010
0000
,
0100
0010
1000
0000
0100
0000
0010
0000
0001
0000
0100
0000
0010
0000
0100
0000
,
0010
1000
0100
0001
0100
1000
0010
0100
,
0001
0000
1000
0000
0100
0000
0010
0000
0001
0100
0001
0100
0001
0100
0001
0100
,
0000
0000
0000
0000
1000
0010
1000
0010
1000
0010
1000
0010
1000
0000
0000
0000
,
0001
0100
0000
0000
0100
0001
0001
0100
,
0001
0001
0100
0000
0020
1030
1000
1000
,
0001
0001
0100
0100
0010
1000
1000
0010
,
1000
0000
1000
0000
0001
0000
0000
0000
0020
0000
0031
0000
0001
0000
0001
0100
,
0001
0000
0001
0100
0001
0000
0001
0100
0001
0000
1000
0000
1000
0000
0001
0000
,
1000
0000
1000
0000
0010
0000
0000
0000
0200
0000
0310
0000
0010
1000
0010
0000
,
0010
1000
0010
0000
0010
1000
0010
0000
0100
0000
0001
0000
0001
0000
0100
0000
,
0001
0001
1000
0000
0020
0130
0100
0100
,
0100
0000
0100
0000
0100
0000
0100
0000
0001
0000
1000
0000
0010
0100
0010
0000
,
1000
0000
0100
0010
0001
1000
0010
1000
0010
0000
0100
0000
0001
0010
0100
0000
,
0010
0000
0001
1000
0001
0100
0010
1000
0010
0000
0100
0000
0001
1000
0001
0000
,
0010
0000
0100
0010
0100
1000
0010
0100
0010
0000
1000
0000
0001
1000
0010
0000
,
0100
0000
0001
0010
0001
0100
0010
1000
0100
0000
1000
0000
0010
0100
0010
0000
,
0100
0000
0001
0010
0100
0010
0001
1000
0100
0000
1000
0000
0010
0100
0001
0000
,
1000
0000
0100
0010
0001
0100
0010
1000
0001
0000
0010
0000
0100
0010
0100
0000
,
1000
0000
0010
0100
0001
0010
0100
1000
0010
0000
0010
0000
0010
0000
0010
0000
,
0100
0000
0001
0000
1000
0100
1000
0000
0010
0000
0100
0001
0010
0100
0010
0001
,
0100
0000
0010
0000
1000
0001
1000
0000
0010
0000
0100
0001
0010
0001
0100
0010
,
1000
0000
0100
0000
0010
0100
1000
0000
0001
0000
0100
0001
1000
0100
0010
0001
,
0100
0000
0010
0000
1000
0001
1000
0000
0010
0000
0100
0010
0100
0010
1000
0001
,
0010
0000
0100
0000
1000
0010
1000
0000
0001
0000
0010
0100
1000
0100
0010
0001
,
0100
0000
0010
0000
1000
0001
1000
0000
0010
0000
0100
0001
1000
0001
0100
0010
,
1000
0000
0100
0000
0010
0001
0010
0000
0001
0000
0100
0010
1000
0100
0010
0001
,
1000
0000
0000
1000
1000
0000
0000
1000
,
0002
0000
0000
1000
0010
0000
0100
0000
,
0010
1000
0000
0000
0013
0000
0100
0000
,
0001
0000
0000
1000
0100
0000
1000
0000
,
0010
0000
0100
0000
0001
0010
0000
0001
,
2000
0000
0000
0001
0010
0000
0100
0000
,
0010
0001
0000
0000
3010
0000
0001
0000
,
0100
0000
0000
0010
1000
0000
0001
0000
,
1000
0100
0010
0100
1000
0010
0000
0010
,
0200
0000
0000
0000
,
0000
0001
0000
0010
0000
0010
0000
0001
,
1300
0000
0000
0010
0000
0000
1000
0000
,
0000
0000
0010
0000
0100
0001
1000
0001
0010
0100
1000
0010
0100
0010
1000
0001
,
0100
0000
0000
0010
0000
0000
0100
0001
,
1000
0010
0000
0010
0000
0010
1000
0000
,
0001
0000
0000
0100
0000
0000
0001
0000
,
1000
0010
0100
0001
0100
0010
1000
0010
0100
0001
0100
0010
1000
0010
0100
0001
,
0010
0000
0000
0000
0000
0000
0000
0000
0001
1000
0000
0000
0000
0000
0000
0000
0000
0000
0000
0000
0000
0000
0000
0000
1000
0010
0000
0000
0000
0000
0000
0000
0000
0000
0000
0000
0000
0000
0000
0000
0010
0100
0000
0000
0000
0000
0000
0000
0000
0000
0000
0000
0000
0000
0000
0000
0100
0001
0000
0000
0000
0000
0000
0000
,
0000
1000
0100
1000
0010
0010
0010
0010
,
0100
0000
0000
0000
0000
0000
0000
0000
0000
0000
0000
0000
0000
0000
0000
0000
0000
0000
0000
0000
0000
0000
0000
0000
0000
0000
0000
0000
0000
0000
0000
0000
0000
0000
0000
0000
0000
0000
0000
0000
0000
0000
0000
0000
0000
0000
0000
0000
0000
0000
0000
0000
0000
0000
0000
0000
0000
0000
0000
0000
0000
0000
0000
0000
0000
0000
0000
0000
0000
0000
0000
0000
0000
0000
0000
0000
0000
0000
0000
0000
0000
0000
0000
0000
0000
0000
0000
0000
0000
0000
0000
0000
0000
0000
0000
0000
0001
0000
0000
0000
0000
0000
0000
0000
0100
0000
0000
0000
0000
0000
0000
0000
0001
0000
0000
0000
0000
0000
0000
0000
0100
0000
0000
0000
0000
0000
0000
0000
0001
0000
0000
0000
0000
0000
0000
0000
0100
0000
0000
0000
0000
0000
0000
0000
0001
0000
0000
0000
0000
0000
0000
0000
0100
0000
0000
0000
0000
0000
0000
0000
0000
0000
0001
0000
0000
0000
0000
0000
0000
0000
0000
0000
0000
0000
0000
0000
0100
0000
0000
0000
0000
0000
0000
0000
0000
0000
0000
0000
0000
0000
0000
0000
,
0010
0000
0000
0000
0000
0000
0000
0000
1000
0000
0000
0000
0000
0000
0000
0000
0010
0000
0000
0000
0000
0000
0000
0000
1000
0000
0000
0000
0000
0000
0000
0000
0010
0000
0000
0000
0000
0000
0000
0000
1000
0000
0000
0000
0000
0000
0000
0000
0010
0000
0000
0000
0000
0000
0000
0000
1000
0000
0000
0000
0000
0000
0000
0000
0000
0000
0010
0000
0000
0000
0000
0000
0000
0000
0000
0000
0000
0000
0000
0000
1000
0000
0000
0000
0000
0000
0000
0000
0000
0000
0000
0000
0000
0000
0000
0000
0001
0000
0000
0000
0000
0000
0000
0000
0000
0000
0000
0000
0000
0000
0000
0000
0000
0000
0000
0000
0000
0000
0000
0000
0000
0000
0000
0000
0000
0000
0000
0000
1000
0000
0000
0000
0000
0000
0000
0000
0000
0000
0000
0000
0000
0000
0000
0000
0000
0000
0000
0000
0000
0000
0000
0000
0000
0000
0000
0000
0000
0000
0000
0000
0001
0000
0000
0000
0000
0000
0000
0000
0000
0000
0000
0000
0000
0000
0000
0000
0000
0000
0000
0000
0000
0000
0000
0000
0000
0000
0000
0000
0000
0000
0000
0000
,
0100
0000
0000
0000
0000
0000
0010
1000
0100
0010
0100
0010
0001
0000
1000
0000
,
0010
0000
0100
0000
0001
0010
0001
0000
0100
0010
0100
0000
0001
1000
0100
0010
,
0100
1000
0010
0100
0001
0100
0010
1000
,
0100
0010
0001
0100
0001
1000
0001
1000
,
0100
0010
0000
0010
0000
0010
0000
0010
,
0001
1000
0001
1000
0001
0100
0010
0000
,
2000
0000
0000
0000
,
0000
0000
0000
0000
0000
0000
0000
3000
,
0001
0100
0001
1000
0010
1000
0100
0010
,
0001
0100
1000
0100
0001
1000
0001
0100
,
0010
1000
0001
0100
0001
0010
0100
0000
1000
0001
0100
0000
0010
0000
1000
0000
,
1000
0001
0010
0100
0010
0001
0100
0000
0010
1000
0001
0000
0100
0000
0010
0000
,
1000
0001
0010
1000
0010
0100
0001
0100
,
1000
0010
0100
0001
1000
0100
0010
0001
,
0100
0001
1000
0010
1000
0100
0010
0000
0001
0100
0001
0000
0100
0000
0010
0000
,
0010
1000
0001
0100
0010
1000
0010
0000
1000
0001
0010
0000
0001
0000
0100
0000
,
0010
1000
0010
0100
0001
0010
0100
0010
,
0001
1000
0010
1000
0001
0010
0100
1000
,
0010
0100
0001
1000
0010
0100
0010
0000
1000
0100
0010
0000
0001
0000
0100
0000
,
0010
0100
0001
0010
0001
1000
0100
0000
0100
0001
1000
0000
0010
0000
0100
0000
,
0001
1000
0100
1000
0010
0100
0001
1000
,
0001
0100
0100
0001
1000
1000
0001
0100
,
0010
1000
0010
1000
0010
1000
0010
1000
0010
0000
0000
0000
0100
0001
0100
0001
,
0100
0001
0100
0001
0100
0000
0000
0000
0000
0000
0000
0000
0000
0000
0000
0000
,
0010
0100
0100
0010
0100
0100
0001
0000
,
2000
3100
0100
0100
0010
0010
0001
0001
,
0100
0010
0010
0100
0010
0010
1000
0000
,
0002
0000
0103
0000
0100
0010
0100
0000
0100
0010
0100
0000
0100
0010
0100
0000
,
0010
1000
1000
0010
1000
1000
0100
0000
,
0020
0000
0031
0000
0001
0000
0001
0010
0001
0000
0001
0010
0001
0000
0001
0010
,
0100
0010
0010
0100
0010
0010
0100
0000
,
2000
0000
3001
0000
0001
1000
0001
0000
0001
1000
0001
0000
0001
1000
0001
0000
,
0020
0000
0000
0000
0000
0000
0000
0000
0000
0000
0000
0000
0031
1000
0002
0000
,
0000
0000
0000
0000
0003
0000
0001
0000
0001
0000
0001
0000
0001
1000
0100
1000
,
0020
0000
0130
0001
1000
0001
0020
0000
0130
1000
0001
0100
0020
0000
1030
0100
,
0010
0001
0200
0000
0000
0000
0301
0000
1000
0000
0100
0000
0010
0001
0000
0000
,
2000
0000
0000
0000
0000
0000
3000
0000
1000
0100
0010
0001
1000
0100
0010
0001
,
1000
0100
0010
0001
1000
0100
1000
0100
0010
0001
1000
0100
0010
0001
1000
0100
,
1000
0100
0010
0001
1000
0100
1000
0100
0010
0001
1000
0100
0010
0001
1000
0010
,
0100
0001
1000
0100
0010
0100
1000
0010
0100
0001
0010
0100
2000
0000
3000
0000
,
0020
0000
0000
0000
0000
0000
2030
0000
3001
0100
0001
1000
0100
0010
0100
1000
,
0010
0100
0010
1000
0001
0010
0001
0100
0010
0100
0001
1000
0010
0100
0001
0100
,
0010
1000
0100
1000
0001
0100
0001
0100
0010
0100
0001
1000
0010
0100
0001
0010
,
0100
1000
0001
0100
0010
1000
0100
0010
0200
0000
0000
0000
0000
0000
1300
0001
,
0100
0010
0100
0001
0010
0100
0010
0001
1000
0010
0100
0001
0010
0001
0100
0001
,
1000
0010
1000
0001
1000
0100
0010
0100
0010
0001
0100
0010
1000
0010
0100
0001
,
2000
0000
3010
0100
0001
1000
0200
0000
0000
0310
0100
1000
0010
0100
0001
0020
,
0000
0000
0000
0030
0002
0000
0000
0000
2003
0000
0000
0000
0000
0000
0000
0000
,
3001
0001
0100
0100
0010
0010
1000
1000
0001
0001
1000
1000
,
0010
0000
0000
0000
0010
0000
0000
0000
0100
0000
0000
0000
0100
0000
0000
0000
0001
0000
0000
0000
0000
0000
0000
0000
2000
0000
0000
0000
0000
0000
0000
0000
0000
0000
0000
0000
3020
0000
0000
0000
0000
0000
0000
0000
0000
0030
0000
0000
,
0202
0000
0000
0000
0000
0000
0000
0000
0000
0000
0000
0300
2000
3000
0020
0030
,
0200
0000
0000
0000
0000
0000
0000
0000
0003
0000
0000
0000
2300
3000
0020
0030
,
0200
0000
0302
0203
0320
0000
2030
3002
,
0203
0000
0000
0000
0000
0000
0000
0300
,
0001
0100
0010
1000
0001
0100
0010
1000
0001
0100
0010
1000
0001
0100
0010
1000
,
0001
0100
0010
0100
0010
1000
0001
0100
0010
0100
0010
1000
0001
0100
0010
1000
,
0001
0010
0001
1000
0010
1000
0001
0100
0010
0100
0001
1000
0100
0010
0100
0010
,
0001
0100
0010
1000
0100
1000
0001
0100
0020
0000
0000
0000
0000
0000
0030
0000
,
1000
0001
0010
0100
0010
0001
1000
0001
0010
0100
0010
0001
1000
0001
0010
0100
,
0010
0001
1000
0100
1000
0001
0010
0001
1000
0100
1000
0001
0010
0001
1000
0100
,
0010
0100
1000
0001
1000
0100
0010
0100
1000
0001
1000
0100
0010
0100
1000
0001
,
0100
0010
1000
0001
1000
0010
0100
0010
1000
0001
1000
0010
0100
0010
1000
0001
,
1000
0100
0010
0001
0010
0100
1000
0100
0010
0001
0010
0100
1000
0100
0010
0001
,
0100
0001
1000
0010
1000
0001
0100
0001
1000
0010
1000
0001
0100
0001
1000
0010
,
1000
0001
0100
0010
0100
0001
1000
0001
0100
0010
0100
0001
1000
0001
0100
0010
,
1000
0010
0100
0001
0100
0010
1000
0010
0100
0001
0100
0010
1000
0010
0100
0001
,
1000
0000
0100
0000
0010
0000
0001
0000
0100
0000
0010
0000
,
1000
0000
0001
0000
1000
0000
0100
0000
0010
0000
0100
0000
,
1000
0000
0000
0001
0000
0000
1000
0000
,
0000
0001
0100
0000
0010
1000
0001
1000
,
0100
0000
0000
0010
0000
0000
0100
0000
,
0000
0000
0010
0001
0100
0010
1000
0001
0010
0001
1000
0010
0100
0001
0010
0100
,
0010
0000
0000
0001
0000
0000
0010
0000
,
0001
0000
1000
0010
0100
0001
1000
0001
0010
0100
1000
0010
0100
0001
0100
0000
,
0010
0000
0000
1000
0000
1000
0010
0000
,
0000
1000
0000
1000
0010
0000
0010
0000
,
0100
0001
1000
0100
0010
1000
0010
0001
,
0100
0010
1000
0000
0001
0100
0010
1000
,
0100
0000
0010
0001
0010
0000
0001
0000
0100
0010
1000
0000
0001
0000
1000
0001
,
1000
0000
0010
0000
0100
0001
1000
0000
0100
0000
0100
0000
0010
0000
0010
0000
,
0001
0000
1000
0001
0010
0100
1000
0010
1000
0001
0100
0001
0010
0100
0010
0100
,
1000
0010
0100
0001
1000
0100
0010
0100
1000
0000
0010
0000
0100
0000
0001
0000
,
0100
0010
1000
0001
0010
0100
0010
0001
,
1000
0100
1000
0001
0010
0100
1000
0001
,
0200
0000
0000
0000
,
0000
0000
0000
0000
0000
0000
0000
0300
,
1000
0010
0100
0001
0010
1000
0010
0001
,
1000
0010
0100
0001
0010
0001
1000
0010
,
0100
0010
1000
0001
0010
0100
0010
0000
0001
0100
0001
0000
1000
0000
0010
0000
,
0100
0001
0010
0100
0010
0001
0100
0000
0010
1000
0010
0000
0100
0000
0001
0000
,
0010
0001
1000
0100
0001
0100
1000
0010
,
0100
0010
1000
0001
0010
0100
0010
0100
,
1000
0010
0100
0001
0100
0001
0010
0000
0100
0010
0100
0000
1000
0000
0010
0000
,
0100
0001
1000
0001
0010
0100
1000
0000
0010
0100
0010
0000
1000
0000
0001
0000
,
0100
0010
1000
0001
0010
0001
0100
1000
,
0100
0001
1000
0010
0100
0001
0010
0100
,
1000
0100
1000
0010
0100
0001
0010
0000
0001
1000
0010
0000
0100
0000
0001
0000
,
1000
0010
0100
0001
1000
0001
0010
0000
0100
1000
0010
0000
0100
0000
0010
0000
,
1000
0001
0100
0010
0100
0001
0010
1000
,
0100
1000
0010
0001
0100
0010
1000
0001
,
1000
0010
1000
0001
0010
0001
0100
0000
0010
0100
0010
0000
1000
0000
0001
0000
,
0010
0100
1000
0001
0100
0001
1000
0000
0001
0100
0010
0000
1000
0000
0001
0000
,
0100
0010
1000
0001
0010
0100
0010
0001
,
1000
0001
1000
0100
0001
0100
0010
0001
,
0100
0001
0010
0100
1000
0010
0100
0000
0001
1000
0001
0000
0100
0000
0010
0000
,
1000
0100
0010
0001
0100
0010
1000
0000
0001
0010
0100
0000
1000
0000
0010
0000
,
0100
0001
1000
0010
0001
0010
1000
0001
,
0100
0001
1000
0010
0100
0001
0100
0010
,
1000
0001
0100
0010
0100
0001
1000
0000
0100
1000
0001
0000
0100
0000
0010
0000
,
1000
0001
0010
0100
0010
0001
0100
0000
0010
1000
0010
0000
0100
0000
0001
0000
,
0100
0010
1000
0100
0010
0100
0001
0100
,
1000
0010
0100
0001
0010
1000
0010
0001
,
0100
0010
0100
0010
0100
0001
1000
0000
0100
1000
0100
0000
0010
0000
0001
0000
,
0100
0010
1000
0001
1000
0100
0010
0000
0100
1000
0001
0000
0100
0000
0010
0000
,
1000
0100
1000
0010
0100
0010
1000
0001
,
0010
1000
0010
0001
0100
0010
1000
0001
,
1000
0001
1000
0001
1000
0001
1000
0001
1000
0000
0000
0000
0010
0100
0010
0100
,
0010
0100
0010
0100
0010
0000
0000
0000
0000
0000
0000
0000
0000
0000
0000
0000
;
