#TITLE:The Five ''Pre ver.'';
#SUBTITLE:;
#ARTIST:cranky;
#TITLETRANSLIT:;
#SUBTITLETRANSLIT:;
#ARTISTTRANSLIT:;
#CREDIT:;
#BANNER:thefivebana.png;
#BACKGROUND:thefivebg.png;
#LYRICSPATH:;
#CDTITLE:cdtitle.png;
#MUSIC:The Five ''Pre ver.''.mp3;
#OFFSET:-0.680;
#SAMPLESTART:96.640;
#SAMPLELENGTH:12.000;
#SELECTABLE:YES;
#BPMS:0.000=160.000,128.000=80.000,144.000=160.000;
#STOPS:;
#BGCHANGES:;
// cache tags:
#FIRSTBEAT:12.000;
#LASTBEAT:282.500;
#SONGFILENAME:Songs/Japanese Collaboration Mix/The Five ''Pre ver.'/The Five ''Pre ver.'.sm;
#HASMUSIC:1;
#HASBANNER:1;
#MUSICLENGTH:117.235;
// end cache tags

//---------------dance-single - Copied from----------------
#NOTES:
     dance-single:
     Copied from:
     Challenge:
     10:
     0.596,0.693,0.674,0.213,0.277,385.000,79.000,25.000,0.000,0.000:
0000
0000
0000
0000
,
0000
0000
0000
0000
,
0000
0000
0000
0000
,
1001
0000
0000
0000
,
0110
0220
0000
0000
0000
0000
0000
0000
,
0000
0000
0000
0000
0000
0000
0330
0110
,
0110
1000
0000
0100
0000
0010
0000
0001
,
1010
0101
0110
1001
,
1000
0000
0100
0000
1000
0100
0000
1000
0000
0000
0001
0000
0001
0000
0001
0000
,
0010
0000
0001
0000
0010
0001
0000
0010
0000
0000
0100
0000
0100
0000
0100
0000
,
1000
0000
0010
0000
1000
0010
0000
1000
0000
0000
0001
0000
0001
0000
0001
0000
,
0010
0000
1000
0000
0010
1000
0000
0010
0000
0000
0100
0000
1000
0000
0010
0000
,
0001
0000
0010
0000
0001
0010
0000
0001
0000
0000
1000
0000
1000
0000
1000
0000
,
0100
0000
1000
0000
0100
1000
0000
0100
0000
0000
0010
0000
0010
0000
0010
0000
,
0001
0000
0100
0000
0001
0100
0000
0001
0000
0000
1000
0000
1000
0000
1000
0000
,
0001
0010
0100
1000
0100
0010
0001
1000
,
0110
0000
1000
0100
0000
0110
0000
0101
,
1000
0000
0100
1000
0000
0000
0110
0000
0001
0000
0010
0001
0000
0000
0110
0000
,
2000
0001
0000
0010
0000
0100
0000
0010
,
0000
0000
0001
0000
0000
0000
3010
0000
0100
0010
0000
0000
0100
0000
1000
0000
,
0110
0000
0001
0010
0000
0110
0000
1010
,
0001
0000
0010
0001
0000
0000
0110
0000
1000
0000
0100
1000
0000
0000
0110
0000
,
0002
1000
0000
0100
0000
0010
0000
0100
,
0000
1000
0000
0103
1010
0000
0101
0000
,
1000
0000
0010
0000
0100
0000
0001
0000
1000
0100
0000
1001
0000
0000
1001
0000
,
0010
0000
0100
0000
0001
0000
1000
0000
0100
0010
0000
0101
0000
0000
0101
0000
,
0010
0000
0100
0000
1000
0000
0010
0000
0001
0100
0000
1010
0000
0000
1010
0000
,
0100
0000
0010
0000
0001
0000
1000
0000
0010
0100
0010
0100
0010
0000
0000
0000
,
0001
0000
0100
0000
0010
0000
1000
0000
0001
0010
0000
1001
0000
0000
1001
0000
,
0100
0000
0010
0000
1000
0000
0001
0000
0010
0100
0000
1010
0000
0000
1010
0000
,
0100
0000
0010
0000
0001
0000
0100
0000
1000
0010
0000
0101
0000
0000
0101
0000
,
0010
0100
1000
0001
0100
0010
1000
0001
,
2000
3002
0203
0000
,
0320
0032
2003
0000
,
3200
0000
0001
0000
1000
1000
0010
0000
,
0320
0000
0000
0000
0000
0000
1000
0000
0000
0000
0000
0000
0001
0000
0000
0001
0000
0000
0200
0000
0000
0000
0330
0000
,
1001
0000
0110
0000
1000
0100
0010
0000
,
0110
0000
1001
0000
0100
0010
0001
0000
,
1000
0100
0010
0000
0001
0010
0100
0000
,
1000
0001
0010
0000
0100
1000
0001
0010
,
1000
0000
0000
0010
0200
0000
0000
0000
0301
0000
0010
0000
0100
0000
0000
0000
,
1000
0010
0100
0000
0001
1000
0101
0000
,
0010
1010
1000
0101
,
1010
0000
0110
0000
0001
0010
0100
1000
,
0011
0000
0000
0110
0000
0000
1100
0000
0000
0000
1000
0000
0100
0000
0010
0000
,
0101
0000
0000
1010
0000
0000
0110
0000
0000
0000
0001
0000
0010
0000
0100
0000
,
1001
0000
0000
0110
0000
0000
0011
0000
0000
0000
0100
0000
1000
0000
0001
0000
,
0110
0000
0000
0011
0000
0000
1100
0000
0000
0000
0010
0000
0100
0000
1000
0000
,
0101
0000
0000
0011
0000
0000
1010
0000
0000
0000
0100
0000
0010
0000
0001
0000
,
1100
0000
0000
0110
0000
0000
0011
0000
0000
0000
1000
0000
0010
0000
0001
0000
,
1010
0000
0000
0101
0000
0000
0110
0000
0000
0000
1000
0000
0001
0000
0100
0000
,
1100
0000
0000
1010
0000
0000
0110
0000
0110
0000
0000
0101
0000
0000
0011
0000
,
2002
0000
0000
0000
,
0000
0000
0000
0000
0000
0000
0000
3003
,
0110
2002
0000
0000
0000
0000
0000
0000
,
0000
0000
0000
3003
0100
0010
0100
0000
,
1001
0220
0000
0000
0000
0000
0000
0000
,
0000
0000
0000
0000
0000
0000
0330
1001
,
1001
1001
0010
0000
0100
0000
0001
0000
,
1000
0000
0001
0000
0100
0000
0010
0100
0000
0010
0100
0000
0010
0100
0010
0100
,
0010
0100
1000
0010
0100
1000
0010
0100
,
1000
0000
0010
0100
0000
0010
0000
0100
0001
0000
0100
0010
0000
0100
0000
0010
,
2000
0010
0000
0001
0000
0010
0000
0100
,
0000
0000
0010
0000
0000
0000
3001
0000
0100
0020
0000
0000
1000
0000
1030
0000
,
0100
0010
0001
0100
0010
0001
0100
0010
,
0001
0000
0100
0010
0000
0100
0000
0010
1000
0000
0010
0100
0000
0010
0000
0100
,
0002
0100
0000
1000
0000
0100
0000
0010
,
0000
0100
0000
1003
0110
0000
1001
0000
,
0100
0010
0000
0010
0000
0100
0000
0100
0002
2000
0000
0000
0000
0000
0000
0000
,
0000
0000
0000
0000
,
0000
0000
0000
0000
0000
3003
0000
0000
;
