#TITLE:Put Your Hands Up;
#SUBTITLE:(DJ Tonka Pre-Full Version);
#ARTIST:Black And White Brothers;
#TITLETRANSLIT:;
#SUBTITLETRANSLIT:;
#ARTISTTRANSLIT:;
#CREDIT:;
#BANNER:;
#BACKGROUND:;
#LYRICSPATH:;
#CDTITLE:;
#MUSIC:Put Your Hands Up (DJ Tonka Pre-Full Ver.).mp3;
#OFFSET:0.000;
#SAMPLESTART:46.987;
#SAMPLELENGTH:5.000;
#SELECTABLE:YES;
#BPMS:0.000=127.695;
#STOPS:;
#BGCHANGES:;
// cache tags:
#FIRSTBEAT:1.000;
#LASTBEAT:200.000;
#SONGFILENAME:Songs/toune 5/Put Your Hands Up/Put Your Hands Up.sm;
#HASMUSIC:1;
#HASBANNER:0;
#MUSICLENGTH:93.884;
// end cache tags

//---------------dance-single - Light----------------
#NOTES:
     dance-single:
     Light:
     Easy:
     2:
     0.300,0.320,0.011,0.128,0.000,184.000,1.000,12.000,0.000,0.000:
0000
0001
0100
0100
,
0010
0010
0100
0001
,
0001
1000
1000
0010
,
0010
0100
0100
0001
,
0001
0100
0100
0010
,
0010
0100
0100
0010
,
0001
1000
0100
1000
,
0010
0100
0001
1000
,
0000
0001
0010
0100
,
0001
1000
0010
0100
,
0010
0001
0100
0010
,
1000
0001
0100
0010
,
0100
0001
1000
0100
,
1000
0010
0100
0010
,
1000
0001
0100
0010
,
1000
0001
0100
0010
,
1000
0001
0100
0010
,
1000
0010
0100
0001
,
0000
1000
0100
1000
,
0001
0100
0010
1000
,
0000
1000
0001
0100
,
0001
0010
0100
1000
,
0000
1000
0010
0100
,
0001
0100
0010
1000
,
0000
0001
0100
0010
,
1000
0001
0100
0010
,
1000
0010
1000
0001
,
0100
0010
1000
0001
,
0000
0100
0010
1000
,
0001
0100
0010
1000
,
0000
0001
0100
0010
,
1000
0001
0100
0020
,
0000
0130
1000
0002
,
0100
0103
0020
2030
,
3100
0001
0200
0010
,
0310
1000
0002
0100
,
0203
0001
0302
0103
,
1000
0010
0100
0002
,
0103
0001
2000
3010
,
0100
0001
1000
0020
,
0100
0130
0001
1000
,
0010
0000
0100
0001
,
0100
0000
0100
0010
,
0100
0000
0001
1000
,
0001
1000
0000
0010
,
0100
0001
0020
1000
,
1030
0001
0100
0010
,
0000
0100
0000
0000
,
0000
1000
0001
0100
,
0010
1000
0001
0100
,
1001
0000
0000
0000
;

//---------------dance-single - Beginner----------------
#NOTES:
     dance-single:
     Beginner:
     Beginner:
     1:
     0.155,0.160,0.011,0.000,0.000,101.000,1.000,0.000,0.000,0.000:
0000
1000
0000
0010
,
0000
0100
0000
0001
,
0000
0100
0000
0010
,
0000
0001
0000
0100
,
0000
0010
0000
1000
,
0000
0001
0000
0100
,
0000
0010
0000
0100
,
0000
0001
0000
1000
,
0000
0010
0000
0100
,
0000
0001
0000
0100
,
0000
0001
0000
0100
,
0000
0010
0000
0100
,
0000
0001
0000
0100
,
0000
0010
0000
1000
,
0000
0010
0000
0100
,
0000
0001
0000
0100
,
0000
0010
0000
1000
,
0000
0010
0000
0100
,
0000
0001
0000
0100
,
0000
0010
0000
1000
,
0000
0010
0000
0100
,
0000
0010
0000
0100
,
0000
0001
0000
0100
,
0000
0010
0000
0100
,
0000
0001
0000
1000
,
0000
0010
0000
0100
,
0000
0001
0000
0100
,
0000
0010
0000
0100
,
0000
0001
0000
1000
,
0000
0001
0000
1000
,
0000
0001
0000
0100
,
0000
0001
0000
0100
,
0000
0001
0000
0010
,
0000
1000
0000
0010
,
0000
1000
0000
0010
,
0000
1000
0000
0100
,
0000
0001
0000
0010
,
0000
1000
0000
0100
,
0000
0001
0000
0010
,
0000
0100
0000
0010
,
0000
1000
0000
0001
,
0000
0100
0000
0010
,
0000
1000
0000
0001
,
0000
0100
0000
0010
,
0000
1000
0000
0001
,
0000
0100
0000
0010
,
0000
1000
0000
0001
,
0000
0100
0000
0010
,
0000
0100
0000
0001
,
0010
0000
0100
0000
,
1001
0000
0000
0000
;

//---------------dance-single - Medium----------------
#NOTES:
     dance-single:
     Medium:
     Medium:
     6:
     0.450,0.399,0.213,0.107,0.000,266.000,20.000,10.000,0.000,0.000:
0000
0000
1000
0000
0010
0001
0100
0000
,
0001
0000
1000
0000
0010
0100
0010
0000
,
0000
0000
0100
0000
0010
0100
0001
0000
,
0001
0100
1000
0000
0001
1000
0001
0000
,
0000
0000
1000
0100
1000
0010
0100
0000
,
0001
0100
1000
0000
0001
0100
0001
0000
,
0000
0000
1000
0100
0010
0000
0100
0000
,
0010
0100
0010
0000
0001
0100
0001
0000
,
0000
0000
1001
0000
0100
0000
0010
0100
,
0010
0000
0001
0000
0110
0000
1000
0100
,
1000
0000
0100
0000
0011
0000
0001
0100
,
1000
0000
1000
0000
1010
0000
0100
0010
,
0100
0000
0001
0000
1010
0000
0100
0001
,
0100
0000
0001
0000
0110
0000
1000
0001
,
1000
0000
0100
0000
1001
0000
0001
0100
,
0001
0000
1000
0000
1100
0000
0200
1000
,
1300
0000
0001
0000
2000
0100
3100
0000
,
1001
0000
0001
0000
0002
0010
0013
0000
,
1100
0000
0002
1000
1000
1000
1003
0000
,
0100
0000
0010
0000
0002
0100
0103
0000
,
1000
0000
0001
1000
0001
1000
0001
0000
,
0100
0000
0010
0000
0100
0010
0100
0000
,
1000
0000
0001
0100
0010
1000
0001
0000
,
1000
0000
1010
0000
0001
0100
0001
0000
,
0000
0000
1000
0010
0100
0001
1000
0000
,
0010
0000
0100
0000
0001
0100
0001
0000
,
0000
0000
0001
0100
0010
1000
1000
0000
,
0010
0000
0100
0000
0001
0010
0010
0000
,
0000
0000
1000
0010
0100
0001
1000
0000
,
0010
0000
0100
0000
0001
0100
0001
0000
,
1000
0000
0001
0100
0001
1000
0010
0100
,
0001
0000
0200
0000
0310
1000
0100
0020
,
0100
0130
0010
0000
2000
0000
3100
0000
,
0001
0100
0001
0000
1100
0000
0100
0010
,
0001
0000
1000
0000
0101
0000
1000
0010
,
0100
0000
0001
0000
0110
0000
1000
0020
,
0100
0130
0010
0000
0101
0000
0001
0100
,
0001
0000
0010
1000
0001
0000
1000
0100
,
1000
0001
0110
1000
,
0110
0000
1000
0000
0001
0000
0001
2000
,
0100
3100
1000
0000
0001
0000
0100
0010
,
0100
0000
0001
0000
0101
0000
0001
0100
,
0001
0000
0010
0000
0101
0000
0001
1000
,
0100
0000
0010
0001
0100
0000
0010
1000
,
1000
1000
0100
0000
0010
0000
0001
0100
,
0001
0000
0010
1000
0010
0000
0100
0001
,
0100
0000
0010
0001
0100
0000
0010
1000
,
0010
0000
0100
0001
0000
0100
0000
0010
,
0000
1000
0001
1000
0001
0100
0001
0000
,
1000
0100
1000
0010
0100
0001
0100
0000
,
1001
0000
0000
0000
;

//---------------dance-single - Heavy----------------
#NOTES:
     dance-single:
     Heavy:
     Hard:
     9:
     0.619,0.533,0.075,0.170,0.485,384.000,7.000,16.000,0.000,0.000:
0000
0000
1000
0100
1000
0100
1000
0000
,
0001
0010
0001
0010
0001
0010
0100
0000
,
1001
0000
0100
0001
0010
0100
0010
0000
,
1001
0000
0001
0100
0001
0100
0001
0000
,
0000
0000
1000
0100
0010
0100
0001
0100
,
0001
0100
0010
1000
0010
0100
0001
0000
,
0000
0000
1000
0100
1000
0010
0100
0001
,
0100
0000
0101
0000
0001
1000
0001
0000
,
0000
0000
0000
0000
1000
0000
0100
0000
1000
0000
0010
0000
0100
0000
0000
0010
,
0000
0100
0010
0000
0100
0000
0000
0000
0001
0000
0100
0000
0002
0000
0000
0000
,
0003
0100
0000
0010
0001
0000
1000
0000
0010
0000
0100
0000
0001
0000
0000
1001
,
0000
0001
1000
0000
0100
0000
0000
0000
0010
0000
0100
0000
0220
0000
0000
0000
,
0330
0000
0000
0010
0100
0000
0001
0000
1000
0000
0001
0000
0200
0000
0000
0310
,
0000
0010
0100
0000
0001
0000
0000
0000
1000
0000
0100
0000
2000
0000
0000
0000
,
3000
0010
0000
0100
0001
0000
1000
0000
0010
0000
0100
0000
0001
0000
0000
0100
,
0000
0010
1000
0000
0100
0000
0000
0000
0010
0000
0001
0000
0020
0000
0000
0030
,
0000
0100
0000
0001
1000
0000
0010
0000
0100
0000
0001
0000
0100
0000
1000
0001
,
0000
1000
0001
0000
0100
0000
0010
0000
0200
0000
0010
0000
0310
0000
0000
0000
,
0000
1000
0000
0100
1000
0000
0010
0000
0100
0000
0001
0000
0100
0000
0000
0010
,
0000
0100
0001
0000
0100
0000
0000
0000
0010
0000
0100
0000
0001
0000
0000
0000
,
0100
1000
0000
1000
0100
0000
0001
0000
1000
0000
0001
0000
0100
0000
0000
0010
,
0000
0100
0010
0000
0200
0000
0000
0000
0310
0000
0100
0000
0020
0000
0000
0000
,
0030
0100
0000
0010
0100
0000
0001
0000
1000
0000
0010
0000
0100
0000
0000
0010
,
0000
0100
0010
0000
0200
0000
0000
0000
0310
0000
0100
0000
0010
0000
0000
0000
,
0000
1000
0000
0100
1000
0000
0010
0000
0100
0000
0001
0000
0100
0000
0000
0010
,
0000
0100
0010
0000
0020
0000
0000
0000
0130
0000
0010
0000
0100
0000
0000
0000
,
0000
0100
0000
1000
0001
0000
1000
0000
0001
0000
1000
0000
0001
0000
0000
0100
,
0000
0010
0100
0000
0020
0000
0000
0000
0130
0000
0001
0000
0100
0000
0000
0000
,
0000
0001
0000
1000
0100
0000
0010
0000
0010
0000
0100
0000
0100
0000
0000
0100
,
0000
1000
0001
0000
0020
0000
0000
0000
0130
0000
0001
0000
0010
0000
0000
0000
,
0000
0100
0000
0010
1000
0000
0001
0000
0100
0000
0010
0000
0100
0000
0000
0001
,
0000
1000
0001
0000
0100
0000
0000
0000
0010
0000
0100
0000
0020
0000
0100
0000
,
0100
0000
0130
0000
1000
0000
0001
0000
1000
0000
0100
1000
0100
0000
0100
1000
,
0000
0000
0100
0000
0001
0000
0100
0000
0001
0000
0100
1000
0100
0000
0010
0001
,
0000
0010
0001
0000
0100
0000
0010
0000
0100
0000
0010
0100
0010
0000
0100
0010
,
0000
0000
0100
0000
0001
0000
1000
0000
0010
0000
0100
1000
0100
0000
0010
0001
,
0010
0000
0100
0000
0000
0000
0010
0000
0000
0100
1000
0100
0000
0001
1000
0000
,
0000
0000
0001
0000
0100
0000
0010
0000
1000
0100
0001
0100
0000
0010
0100
0000
,
0000
0000
0010
0000
1000
0000
0001
0000
0100
0010
0100
0010
0100
0000
0010
0100
,
0000
0000
0001
0000
0100
0000
0010
0000
1000
0001
0100
0001
1000
0000
0100
0000
,
0001
0000
1000
0000
0010
0000
0100
0000
0000
0001
1000
0001
1000
0000
0001
1000
,
0000
0000
2000
0000
0001
0000
3001
0000
0100
0001
0100
0001
0000
1000
0100
0000
,
0000
0000
0100
0000
1000
0000
0010
0000
1000
0001
1000
0001
1000
0000
0001
1000
,
0000
0000
1000
0000
0100
0000
1000
0000
0010
0100
0010
0100
0010
0000
0001
0000
,
1000
0000
1000
0000
0001
0000
1000
0000
0001
0010
0100
1000
0000
1000
0100
0000
,
0000
0000
0010
0000
0001
0000
0100
0000
0010
0100
1000
0100
0010
0000
0100
0001
,
0000
1000
0001
0000
0100
0000
0001
0000
0100
0010
0100
0010
0100
0000
0001
1000
,
0000
1000
0100
0000
1000
0000
0010
0000
0100
0000
0001
0000
1000
0000
0001
1000
,
0000
0001
1000
0000
0001
0000
0100
0000
0001
0000
0100
0000
0010
0000
0000
0100
,
0000
0010
0100
0000
0020
0000
0000
0000
0130
0000
0010
0000
0110
0000
0000
0000
,
1001
0000
0000
0000
;
