#TITLE:Can't Stop the Feeling;
#SUBTITLE:Sexuality Violation;
#ARTIST:Justin Timberlake;
#TITLETRANSLIT:;
#SUBTITLETRANSLIT:;
#ARTISTTRANSLIT:;
#CREDIT:Burn;
#BANNER:cstfbn.png;
#BACKGROUND:cstfbg.png;
#LYRICSPATH:;
#CDTITLE:;
#MUSIC:Justin Timberlake New Single - Can't Stop The Feeling full.ogg;
#OFFSET:0.526;
#SAMPLESTART:151.977;
#SAMPLELENGTH:16.920;
#SELECTABLE:YES;
#BPMS:0.000=226.005;
#STOPS:;
#BGCHANGES:;
// cache tags:
#FIRSTBEAT:31.000;
#LASTBEAT:856.000;
#SONGFILENAME:Songs/Index Tournament 1/Cant stop the feeling - [Burn]/Cant stop the feeling.sm;
#HASMUSIC:1;
#HASBANNER:1;
#MUSICLENGTH:227.610;
// end cache tags

//---------------dance-single - Burn----------------
#NOTES:
     dance-single:
     Burn:
     Challenge:
     18:
     1.000,1.000,0.092,0.259,1.000,1663.000,21.000,59.000,0.000,0.000:
0000
0000
0000
0000
,
0000
0000
0000
0000
,
0000
0000
0000
0000
,
0000
0000
0000
0000
,
0000
0000
0000
0000
,
0000
0000
0000
0000
,
0000
0000
0000
0000
,
0000
0000
0000
1000
,
0001
0010
0001
2000
,
3000
0000
0000
0001
,
1000
0010
2000
3000
,
0000
0000
0000
0001
,
0010
0001
1000
0010
,
0100
0001
1000
0100
,
0010
0001
2000
3000
,
0000
0000
0000
0001
,
0010
0100
0010
0002
,
0003
0000
0000
1000
,
0010
0000
0100
0000
0002
0000
0000
0003
,
0000
0000
0000
1000
,
0001
1000
0100
0010
,
0001
1000
0010
0100
,
0001
0000
1000
0000
0020
0000
0000
0030
,
0000
1000
0001
0000
,
1000
0000
0001
0001
,
1000
0001
0000
0010
0000
0001
0000
0000
,
1000
0010
0100
0010
,
1000
0000
0001
0000
0020
0000
0030
0001
,
1000
0001
0010
0100
,
1000
0001
0000
0100
0000
0001
0000
0000
,
1000
0100
0010
0000
,
0000
0000
0000
0000
0001
0010
0100
1000
0001
0100
0010
1000
0001
0000
0000
0000
,
1000
0010
0100
0010
,
1000
0001
0000
0010
0000
0001
0000
0000
,
1000
0000
0100
0000
0010
0000
0001
0010
,
0000
0100
0010
0000
0002
0000
0003
0000
,
1000
0010
0100
0001
,
1000
0100
0000
0010
0000
0001
0000
0000
,
0000
1000
0010
0000
0200
0000
0300
0000
,
0000
0001
1000
0100
,
0010
0002
0000
0000
,
0003
0100
0001
1000
,
0001
0020
0000
0000
,
0000
0030
0000
0001
,
1000
0000
0001
0000
0020
0000
0000
0030
,
0100
1000
0001
0100
,
0010
2000
0000
0000
,
0000
3000
0000
0001
,
0100
0000
0002
0000
0000
0000
0000
0003
,
1000
0100
1000
0001
,
1000
0020
0000
0000
,
0000
0000
0030
0000
0000
0000
0000
0100
,
0001
0000
0100
0001
0000
2000
0000
0000
,
3001
0000
0010
0100
0000
2000
0000
0000
,
3001
0000
0100
0010
0000
2000
0000
0000
,
0000
0000
0000
0000
3002
0000
0000
1000
,
1003
0000
0000
0000
0000
0000
0000
0000
0001
1000
0001
0100
0010
1000
0001
0100
,
0001
1000
0100
1000
0001
0010
0001
1000
0100
0010
0001
0010
0100
1000
0001
0100
,
0001
1000
0010
0100
0010
1000
0001
0100
0001
1000
0100
0010
0001
1000
0100
1000
,
0001
0100
0001
1000
0010
0100
0001
1000
0100
0010
0001
0010
0100
1000
0001
0100
,
0010
1000
0001
0100
0010
1000
0010
0100
0001
1000
0100
1000
0001
0010
0001
1000
,
0100
1000
0001
0010
0100
1000
0001
0010
0100
1000
0001
0010
0001
1000
0100
1000
,
0001
0100
0010
1000
0001
0100
0001
1000
0100
0010
0001
1000
0010
1000
0001
0100
,
0001
1000
0100
0010
0001
0010
0100
1000
0002
0000
0000
0000
0003
0000
0100
0000
,
0010
0000
0000
0000
0000
0000
0000
0000
1000
0001
1000
0010
0100
0001
1000
0010
,
0100
0001
1000
0010
0100
0001
1000
0100
0010
0001
0010
0100
1000
0001
0010
0100
,
1000
0001
0010
0001
1000
0100
0010
0001
1000
0010
0100
0010
1000
0001
0100
0010
,
1000
0001
1000
0100
0010
0001
1000
0100
2000
0000
0000
0000
3000
0000
0001
0000
,
0200
0000
0000
0000
0000
0000
0301
1000
0010
0100
0001
1000
0010
0100
0001
1000
,
0100
0010
0001
0010
0100
1000
0001
0100
0010
1000
0001
0100
0010
1000
0001
0010
,
0100
1000
0001
0010
0001
1000
0100
0010
0001
1000
0010
1000
0001
0100
0010
1000
,
0002
0000
0000
0000
0003
1000
0010
0000
,
0100
0000
0000
0000
0001
0000
1000
0000
0001
0010
0001
1000
0010
0100
0001
1000
,
0010
0100
0010
1000
0001
0010
0100
1000
0001
0010
0001
1000
0010
0100
0001
1000
,
0010
0100
0001
1000
0010
0100
0010
1000
0001
0010
0100
1000
0001
0010
0100
1000
,
0001
1000
0010
0100
0001
0100
0010
1000
0001
0010
0100
1000
0001
0010
0100
1000
,
0001
0010
0001
1000
0100
0010
0001
1000
0010
0100
0001
1000
0010
1000
0001
0100
,
0010
1000
0010
0100
0001
1000
0010
0100
0001
1000
0100
0010
0001
0010
0100
1000
,
0001
0010
0100
1000
0100
0010
0001
1000
0010
0100
0001
1000
0010
1000
0001
0100
,
0001
1000
0100
0010
0001
0010
0100
1000
0002
0000
0000
0000
0003
0000
0100
0000
,
0010
0000
0000
2000
,
0000
3001
0100
0001
,
1000
0000
0010
0000
2000
0000
0000
3000
,
0000
0000
0000
0001
,
0001
0010
0200
1300
,
1000
0001
0200
0310
,
0010
0000
1000
0000
0002
0000
0000
0003
,
1000
0000
0001
0000
1000
0010
0100
0000
,
0001
1000
0100
0020
,
0000
0032
0003
1000
,
0100
1000
0002
0000
,
0103
0010
0200
0301
,
1000
0001
0010
0100
,
1000
0001
0100
0010
,
1000
0000
0001
0000
2000
0000
0000
3000
,
0000
0000
0001
0100
0001
0000
0000
0000
,
1000
0000
0001
0001
,
0100
0001
0000
1000
0000
0100
0000
0000
,
0010
0100
1000
0001
,
0100
0000
0010
0000
1000
0000
0000
0001
,
1000
0001
0010
0100
,
0010
0001
0000
1000
0000
0010
0000
0000
,
0100
0001
1000
0000
,
0000
0000
0000
0000
0001
0010
0100
1000
0001
0100
0010
1000
0001
0000
0000
0000
,
1000
0010
0100
0010
,
1000
0001
0000
0010
0000
0001
0000
0000
,
1000
0000
0100
0000
0010
0000
0001
0010
,
0000
0001
0010
0000
0002
0000
0003
0000
,
1000
0010
0100
0001
,
1000
0100
0000
0010
0000
0001
0000
0000
,
0000
1000
0010
0000
0200
0000
0300
0000
,
0000
0001
1000
0100
,
0010
0002
0000
0000
,
0003
0100
0001
1000
,
0001
0020
0000
0000
,
0000
0030
0000
0001
,
1000
0000
0001
0000
0020
0000
0000
0030
,
0100
1000
0001
0100
,
0010
2000
0000
0000
,
0000
3000
0000
0001
,
0100
0000
0002
0000
0000
0000
0000
0003
,
1000
0100
1000
0001
,
1000
0020
0000
0000
,
0000
0000
0030
0000
0000
0000
0000
0100
,
0001
0000
0100
0001
0000
2000
0000
0000
,
3001
0000
0010
0100
0000
2000
0000
0000
,
3001
0000
0100
0010
0000
2000
0000
0000
,
0000
0000
3002
0000
,
0003
0000
0000
0000
0000
0000
0000
0000
1000
0001
1000
0010
0100
0001
1000
0010
,
1000
0001
0010
0001
1000
0100
1000
0001
0010
0100
1000
0100
0010
0001
1000
0010
,
1000
0001
0100
0010
0100
0001
1000
0010
1000
0001
0010
0100
1000
0001
0010
0001
,
1000
0010
1000
0001
0100
0010
1000
0001
0010
0100
1000
0100
0010
0001
1000
0010
,
0100
0001
1000
0010
0100
0001
0100
0010
1000
0001
0010
0001
1000
0100
1000
0001
,
0010
0001
1000
0100
0010
0001
1000
0100
0010
0001
1000
0100
1000
0001
0010
0001
,
1000
0010
0100
0001
1000
0010
1000
0001
0010
0100
1000
0001
0100
0001
1000
0010
,
1000
0001
0010
0100
1000
0100
0010
0001
2000
0000
0000
0000
3000
0000
0010
0000
,
0100
0000
0000
0000
0000
0000
0000
0000
0001
1000
0001
0100
0010
1000
0001
0100
,
0010
1000
0001
0100
0010
1000
0001
0010
0100
1000
0100
0010
0001
1000
0100
0010
,
0001
1000
0100
1000
0001
0010
0100
1000
0001
0100
0010
0100
0001
1000
0010
0100
,
0001
1000
0001
0010
0100
1000
0001
0010
0002
0000
0000
0000
0003
0000
1000
0000
,
0020
0000
0000
0000
0000
0000
1030
0001
0100
0010
1000
0001
0100
0010
1000
0001
,
0010
0100
1000
0100
0010
0001
1000
0010
0100
0001
1000
0010
0100
0001
1000
0100
,
0010
0001
1000
0100
1000
0001
0010
0100
1000
0001
0100
0001
1000
0010
0100
0001
,
2000
0000
0000
0000
3000
0001
0100
0000
,
0010
0000
0000
0000
1000
0000
0001
0000
1000
0100
1000
0001
0100
0010
1000
0001
,
0100
0010
0100
0001
1000
0100
0010
0001
1000
0100
1000
0001
0100
0010
1000
0001
,
0100
0010
1000
0001
0100
0010
0100
0001
1000
0100
0010
0001
1000
0100
0010
0001
,
1000
0001
0100
0010
1000
0010
0100
0001
1000
0100
0010
0001
1000
0100
0010
0001
,
1000
0100
1000
0001
0010
0100
1000
0001
0100
0010
1000
0001
0100
0001
1000
0010
,
0100
0001
0100
0010
1000
0001
0100
0010
1000
0001
0010
0100
1000
0100
0010
0001
,
1000
0100
0010
0001
0010
0100
1000
0001
0100
0010
1000
0001
0100
0001
1000
0010
,
1000
0001
0010
0100
1000
0100
0010
0001
2000
0000
3001
0000
0100
0000
0000
0000
,
0100
0000
0000
0000
0001
0000
1000
0000
0001
0010
0001
1000
0010
0100
0001
1000
,
0010
0100
0010
1000
0001
0010
0100
1000
0001
0010
0001
1000
0010
0100
0001
1000
,
0010
0100
0001
1000
0010
0100
0010
1000
0001
0010
0100
1000
0001
0010
0100
1000
,
0001
1000
0010
0100
0001
0100
0010
1000
0001
0010
0100
1000
0001
0010
0100
1000
,
0001
0010
0001
1000
0100
0010
0001
1000
0010
0100
0001
1000
0010
1000
0001
0100
,
0010
1000
0010
0100
0001
1000
0010
0100
0001
1000
0100
0010
0001
0010
0100
1000
,
0001
0010
0100
1000
0100
0010
0001
1000
0010
0100
0001
1000
0010
1000
0001
0100
,
0001
1000
0100
0010
0001
0010
0100
1000
0001
0100
0010
1000
0001
0100
0001
1000
,
0010
0100
0001
1000
0010
0100
0010
1000
0001
0000
0000
0000
0000
0000
0000
0000
,
1001
0000
0000
0000
0001
0000
0000
1000
,
1010
0000
1000
0001
0000
0100
0001
0000
,
0011
0000
1000
0000
1000
0000
0000
0001
,
0101
0000
0010
0000
,
0110
0000
0000
0000
1000
0000
0000
0001
,
1001
0000
0001
1000
0000
0100
1000
0000
,
1100
0000
0010
0000
0010
0001
1000
0010
,
0110
0000
0100
0001
1000
0000
0000
0000
,
1010
0000
0010
0100
0001
0000
1000
0100
,
0110
0000
0010
0001
1000
0000
0010
0100
,
0101
0000
0001
1000
0001
0011
0010
0100
,
1100
0000
1000
0001
0100
0000
0010
1000
,
1001
0000
0001
0010
0100
0000
1000
0001
,
0101
0000
0100
0010
1000
0000
0001
1000
,
1010
0000
0001
0011
0010
1100
0100
1000
,
1001
0000
0001
0000
0000
1000
0001
0000
,
0100
0000
0010
1000
1000
0001
0010
0100
,
1000
0000
0100
0000
0010
0000
0001
0000
1000
0001
1000
0010
0100
0001
1000
0010
,
1000
0001
0010
0001
1000
0100
1000
0001
0010
0100
1000
0100
0010
0001
1000
0010
,
1000
0001
0100
0010
0100
0001
1000
0010
1000
0001
0010
0100
1000
0001
0010
0001
,
1000
0010
1000
0001
0100
0010
1000
0001
0010
0100
1000
0100
0010
0001
1000
0010
,
0100
0001
1000
0010
0100
0001
0100
0010
1000
0001
0010
0001
1000
0100
1000
0001
,
0010
0001
1000
0100
0010
0001
1000
0100
0010
0001
1000
0100
1000
0001
0010
0001
,
1000
0010
0100
0001
1000
0010
1000
0001
0010
0100
1000
0001
0100
0001
1000
0010
,
1000
0001
0010
0100
1000
0100
0010
0001
2000
0000
0000
0000
3000
0000
0010
0000
,
0200
0000
0000
0000
0000
0000
0300
0000
0001
1000
0001
0100
0010
1000
0001
0100
,
0010
1000
0001
0100
0010
1000
0001
0010
0100
1000
0100
0010
0001
1000
0100
0010
,
0001
1000
0100
1000
0001
0010
0100
1000
0001
0100
0010
0100
0001
1000
0010
0100
,
0001
1000
0001
0010
0100
1000
0001
0010
0002
0000
0000
0000
0003
0000
1000
0000
,
0020
0000
0000
0000
0000
0000
1030
0001
0100
0010
1000
0001
0100
0010
1000
0001
,
0010
0100
1000
0100
0010
0001
1000
0010
0100
0001
1000
0010
0100
0001
1000
0100
,
0010
0001
1000
0100
1000
0001
0010
0100
1000
0001
0100
0001
1000
0010
0100
0001
,
2000
0000
0000
0000
3000
0001
0100
0000
,
0010
0000
0000
0000
1000
0000
0001
0000
1000
0010
1000
0001
0100
0010
1000
0001
,
0010
0100
1000
0001
0010
0001
1000
0100
1000
0001
0100
0010
1000
0010
0100
0001
,
1000
0100
0010
0001
0010
0100
1000
0001
0100
0010
1000
0001
0100
0010
0100
0001
,
1000
0010
0100
0001
1000
0100
0010
0001
1000
0100
0010
0001
0010
0100
1000
0001
,
0100
0010
0100
0001
1000
0010
0100
0001
1000
0010
1000
0001
0100
0001
1000
0100
,
1000
0001
0010
0100
1000
0001
0010
0001
1000
0010
0100
0001
1000
0010
1000
0001
,
0010
0001
1000
0100
0010
0001
0010
0100
1000
0001
0100
0010
1000
0001
1000
0010
,
0100
0001
1000
0001
1000
0100
0010
0001
1000
0100
0010
0100
1000
0001
0010
0100
,
1000
0001
0100
0001
1000
0010
0100
0001
1000
0010
1000
0001
0100
0010
1000
0001
,
0010
0100
1000
0001
0010
0001
1000
0100
1000
0001
0100
0010
1000
0010
0100
0001
,
1000
0100
0010
0001
1000
0100
1000
0001
0100
0010
1000
0001
0100
0001
1000
0010
,
0100
0001
1000
0001
0010
0100
1000
0001
0010
0100
0010
0001
1000
0100
0010
0001
,
1000
0010
0100
0001
1000
0010
1000
0001
0100
0010
1000
0001
0100
0010
0100
0001
,
1000
0100
0010
0001
1000
0100
0010
0001
1000
0001
0100
0010
1000
0001
0100
0010
,
1000
0001
0010
0001
1000
0100
1000
0001
0100
0010
1000
0001
0100
0010
0100
0001
,
1000
0010
0100
0001
1000
0100
1000
0001
0010
0001
1000
0100
0010
0001
0010
0100
,
1000
0000
0001
1000
0002
0000
0003
0000
,
1001
1000
0010
0100
,
0101
0001
2000
0000
,
0100
0002
0000
0000
,
3003
0000
0000
0000
;
