#TITLE:Polish Dancecore Destruction;
#SUBTITLE:;
#ARTIST:odaxelagnia;
#TITLETRANSLIT:;
#SUBTITLETRANSLIT:;
#ARTISTTRANSLIT:;
#CREDIT:Tyler;
#BANNER:polish bn.png;
#BACKGROUND:polish bg.png;
#LYRICSPATH:;
#CDTITLE:;
#MUSIC:Polish Dancecore Destruction.ogg;
#OFFSET:0.106;
#SAMPLESTART:31.461;
#SAMPLELENGTH:10.106;
#SELECTABLE:YES;
#DISPLAYBPM:190.000;
#BPMS:0.000=190.000,324.000=95.500,328.000=90.000,332.000=87.500,336.000=85.000;
#STOPS:;
#BGCHANGES:;
// cache tags:
#FIRSTBEAT:4.000;
#LASTBEAT:338.000;
#SONGFILENAME:Songs/SPEEEDCOOOORE 2/Polish Dancecore Destruction - [Tyler]/Polish Dancecore Destruction.sm;
#HASMUSIC:1;
#HASBANNER:1;
#MUSICLENGTH:112.221;
// end cache tags

//---------------dance-single - T. Moore----------------
#NOTES:
     dance-single:
     T. Moore:
     Challenge:
     12:
     1.000,1.000,0.847,0.410,0.700,685.000,95.000,46.000,30.000,0.000:

0000
0000
0000
0000
,
1000
0100
1000
0100
0010
0001
0010
0001
1000
0001
1000
0001
0100
0000
0100
0000
,
0010
1000
0010
1000
0001
0010
0001
0010
0100
1000
0100
1000
0001
0000
0000
0000
,
1000
0100
1000
0100
0010
0001
0010
0001
1000
0001
1000
0001
0100
0000
0100
0000
,
0010
1000
0010
1000
0001
1000
0001
1000
0100
0000
0040
0000
0130
0000
0040
0000
,
0031
1000
0100
0010
0001
0010
0100
1000
0001
0100
0010
1000
0001
0000
0001
0000
,
1000
0010
0100
0001
1000
0001
0100
0010
1000
0100
0010
0001
1000
0000
0000
0000
,
0001
0100
0010
1000
0001
1000
0010
0100
0001
0010
0100
1000
0001
0000
0001
0000
,
1000
0100
0010
0001
1000
0001
0010
0100
1000
0000
0040
0000
1030
0000
0040
0000
,
0130
0000
0001
0000
0010
0000
0001
1000
0001
1000
0100
0000
0010
0000
0001
0010
,
0100
1000
0010
1000
0100
0010
0001
0010
0100
1000
0010
0100
0004
4000
0000
0003
,
3100
0010
0001
0001
1001
1000
0010
0010
,
0100
0000
0000
0010
0000
0000
1000
0000
0000
0100
0000
0000
0010
0000
0000
0100
0000
0000
0010
0000
0000
0001
0000
0000
1000
0000
0000
0000
0000
0000
0001
0000
0000
0000
0000
0000
0100
0000
0001
0000
0100
0000
0001
0000
0100
0000
0001
0000
,
0100
0000
0040
0000
1030
0000
1000
0000
0010
0000
0100
0000
0001
0100
0001
0000
,
0010
0000
0000
0001
0000
0000
0010
0000
0000
0001
0000
0000
1000
0000
0000
0000
0000
0000
0010
0000
0000
0000
0000
0000
1000
0000
0000
0000
0000
0000
0010
0000
0000
0000
0000
0000
0400
0000
0304
0000
0403
0000
0304
0000
0003
0000
0000
0000
,
1000
0001
1000
0100
0010
0000
0010
0000
0010
0000
0001
0000
0400
0000
0340
0000
,
1030
0000
1000
0000
1000
0000
0100
0000
1000
0001
1000
0000
0010
0100
0010
0100
,
M002
0003
0000
0000
0000
0000
0000
0000
0000
0000
0000
0000
0000
0000
0000
0000
0200
0300
0000
0000
0000
0000
0000
0000
0000
0000
0000
0000
0000
0000
0000
0000
0002
0003
0000
0000
0000
0000
0000
0000
0000
0000
0000
0000
0000
0000
0000
0000
1000
0000
0000
0000
0000
0000
0000
0000
0001
0000
0000
0000
0010
0000
0000
0000
,
0200
0300
0000
0000
0000
0000
0000
0000
1000
0000
0000
0000
0000
0000
0000
0000
0002
0003
0000
0000
0000
0000
0000
0000
1000
0000
0000
0000
0000
0000
0000
0000
0200
0300
0000
0000
0000
0000
0000
0000
0000
0000
0000
0000
0000
0000
0000
0000
2000
3000
0000
0000
0000
0000
0000
0000
0000
0000
0000
0000
0000
0000
0000
0000
,
0002
0003
0000
0000
0000
0000
0000
0000
0100
0000
0000
0000
0000
0000
0000
0000
0002
0003
0000
0000
0000
0000
0000
0000
0100
0000
0000
0000
0000
0000
0000
0000
0002
0003
0000
0000
0000
0000
0000
0000
0100
0000
0000
0000
0000
0000
0000
0000
0020
0030
0000
0000
0000
0000
0000
0000
0000
0000
0000
0000
0000
0000
0000
0000
,
2000
3000
0000
0000
0000
0000
0000
0000
0001
0000
0000
0000
0000
0000
0000
0000
2000
3000
0000
0000
0000
0000
0000
0000
0100
0000
0000
0000
0000
0000
0000
0000
2000
3000
0000
0000
0000
0000
0000
0000
0001
0000
0000
0000
0000
0000
0000
0000
0040
0000
0000
0000
0004
0000
0000
0000
0000
0000
0000
0000
0000
0000
0030
0000
,
2003
3000
0000
0000
0000
0000
0000
0000
0000
0000
0000
0000
0000
0000
0000
0000
0002
0003
0000
0000
0000
0000
0000
0000
1000
0000
0000
0000
0000
0000
0000
0000
0200
0300
0000
0000
0000
0000
0000
0000
1000
0000
0000
0000
0000
0000
0000
0000
0001
0000
0000
0000
1000
0000
0000
0000
0001
0000
0000
0000
1000
0000
0000
0000
,
0020
0030
0000
0000
0000
0000
0000
0000
0100
0000
0000
0000
0000
0000
0000
0000
0004
0000
0000
0000
0003
0000
0000
0000
0000
0000
0000
0000
0000
0000
0000
0000
4000
0000
0000
0000
3000
0000
0000
0000
0000
0000
0000
0000
0000
0000
0000
0000
0200
0300
0000
0000
0000
0000
0000
0000
0010
0000
0000
0000
0001
0000
0000
0000
,
2000
3000
0000
0000
0000
0000
0000
0000
0001
0000
0000
0000
0000
0000
0000
0000
2000
3000
0000
0000
0000
0000
0000
0000
0001
0000
0000
0000
1000
0000
0000
0000
0020
0030
0000
0000
0000
0000
0000
0000
1000
0000
0000
0000
0001
0000
0000
0000
2000
3000
0000
0000
0000
0000
0000
0000
0100
0000
0000
0000
0000
0000
0000
0000
,
0020
0030
0000
0000
0000
0000
0000
0000
0001
0000
0000
0000
0000
0000
0000
0000
0200
0300
0000
0000
0000
0000
0000
0000
0010
0000
0000
0000
0000
0000
0000
0000
4000
0000
0000
0000
0000
0000
0000
0000
3040
0000
0000
0000
0000
0000
0000
0000
0430
0000
0000
0000
0000
0000
0000
0000
0304
0000
0000
0000
0003
0000
0000
0000
,
1000
0000
0100
0010
0001
0000
1000
0001
1000
0000
0001
0100
0010
0000
1000
0010
,
0100
0000
0010
0100
0001
0000
0100
0001
1000
0000
0001
1000
0100
0000
0010
0001
,
1000
0000
0001
0010
0100
0000
1000
0010
0100
0000
0001
0100
0010
0000
1000
0001
,
0010
0000
0001
1000
0100
0000
0010
0001
0100
0010
0000
0010
1000
0000
0001
1000
,
0010
0000
1000
0001
0010
0000
0100
1000
0001
0000
1000
0100
0010
0000
0001
1000
,
0001
0000
0100
0010
1000
0000
0001
1000
0010
0000
0100
0001
0100
0000
0010
1000
,
0001
0000
1000
0010
0100
0000
0010
1000
0001
0000
1000
0010
0100
0000
0001
1000
,
0100
0000
0010
0001
1000
0000
0001
0100
0010
1000
0004
0000
1003
0000
0000
0000
,
1001
0000
0000
0000
1000
0100
0010
0001
1000
0000
0000
0000
1010
0000
0000
0000
,
0101
0000
0000
0000
1010
0000
0000
0000
1001
0000
0000
0000
0011
0000
0010
0100
,
1000
1001
0101
1010
,
1001
0000
0011
0000
2001
0000
0000
3000
,
1001
0000
0000
0000
0001
0100
0010
1000
0001
0000
0000
0000
0011
0000
0000
0000
,
1100
0000
0000
0000
0000
0000
0000
0000
0000
0000
0000
0000
0001
0000
1000
0000
0001
0000
1000
0000
0001
0000
1000
0000
0001
0000
0000
0000
0000
0000
0000
0000
0000
0000
0000
0000
0101
0000
0000
0000
0000
0000
0001
0000
0000
0100
0000
0000
,
0010
0000
1010
0000
1001
0000
0011
00MM
,
1100
0000
0000
0000
1001
0000
0000
0000
0010
1000
00M0
0000
0000
0000
0000
0000
,
1001
M00M
0110
0MM0
1100
MM00
0110
0MM0
,
2001
3000
1020
0030
0201
0300
0110
0100
,
0101
0001
1001
1000
1001
0001
1001
1000
,
2010
0000
3000
0000
1200
0000
0300
0000
0021
0000
0000
0000
0000
0000
0000
0030
,
1001
0000
M00M
0000
1010
0000
0000
0000
1001
0000
M00M
0000
0001
0010
0100
1000
,
0001
0000
0000
0000
0000
0000
0110
0000
0000
0000
0000
0000
1010
0000
0000
0000
0000
0000
1001
0000
0000
0001
0010
0001
,
0010
0000
1100
0000
1010
0000
0101
0001
,
1001
0000
0000
0000
1100
0000
0000
0000
0011
0000
0004
0000
1003
0100
1000
0000
,
1001
0000
0001
0000
1000
0010
0100
0001
1000
0000
0001
0000
0010
0000
0001
0000
,
1000
0000
0010
0000
0100
0000
0001
0000
1000
0000
0001
0000
0100
0000
0100
0010
,
1000
0000
0010
0000
0100
0000
0001
0000
1000
0000
0001
0000
0010
0000
0100
1000
,
0001
0000
0100
0000
0010
0000
1000
0000
0002
0000
0000
0000
1003
0001
1000
0001
,
0100
0000
0000
0000
0000
0000
0010
0000
0000
0000
0000
0000
1000
0000
0000
0001
0000
0000
0010
0000
0000
0100
0000
0000
1000
0000
0000
0000
0000
0000
0001
0000
0000
0000
0000
0000
0100
0000
0001
0000
0100
0000
0001
0000
0100
0000
0001
0000
,
0100
0000
0010
0000
1000
0000
1000
0000
0001
0000
1000
0000
0010
0000
0010
0100
,
0001
1000
0001
1000
0100
0010
0100
1000
,
0001
0000
0100
0000
0001
0000
1000
0000
0000
0000
0000
0000
0001
0010
0001
1000
,
0010
0010
0110
0100
0101
0001
1001
1000
,
1100
0000
0100
0000
1100
0000
1000
0000
1001
0000
0001
0000
0100
0001
1000
0100
,
0010
0010
0011
0001
1001
1000
1010
0010
,
1010
0000
0000
1000
0000
0000
1001
0000
0000
0001
0000
0000
0011
0000
0000
0010
0000
0000
0100
1000
0100
1000
0100
1000
,
0100
0010
0011
0001
1001
1000
1001
0001
,
0101
0000
0100
0010
1000
0000
1000
0000
1001
0000
0001
0000
0011
0000
0040
0000
,
0130
0040
0031
0040
0130
4000
3001
0001
,
0100
0000
0100
0000
0110
0000
0010
0000
1000
0010
1000
0010
0100
0001
0100
0001
,
2000
0000
0000
0000
3001
0000
2001
0000
0000
0000
3001
0000
2001
0000
0000
3000
,
1000
1000
0100
1000
1000
0001
0100
0010
,
1000
1000
0001
1000
1000
0001
1000
1000
,
0100
0100
0010
0001
0001
1000
0010
0100
,
0201
0000
0000
0000
0301
0000
0201
0000
0000
0000
0301
0000
0201
0000
0000
0300
,
0100
0100
0001
1000
1000
0100
0010
0001
,
1000
0010
0100
0001
0010
0100
1000
0010
,
0100
0100
0010
1000
1000
0100
0010
0001
,
1002
0000
0000
0000
1003
0000
1002
0000
0000
0000
1003
0000
1002
0000
0000
0003
,
0001
0001
0010
0001
0001
1000
0010
0100
,
0001
0001
1000
0001
0001
1000
0001
0001
,
0010
0010
0100
1000
1000
0001
0100
0010
,
1020
0000
0000
0000
1030
0000
1020
0000
0000
0000
1030
0000
1020
0000
0000
0030
,
0010
0010
1000
0001
0001
0010
0100
1000
,
0001
0100
0010
1000
0100
0010
0001
0100
,
0010
0010
0100
0001
0001
0010
0100
1000
,
1002
M000
M000
M000
,
M000
M000
M000
M000
,
M000
M000
M000
M000
,
M000
M000
M003
0000
;

//---------------dance-double - ----------------
#NOTES:
     dance-double:
     :
     Challenge:
     12:
     1.000,1.000,0.668,0.410,0.566,656.000,75.000,46.000,36.000,0.000:




00000000
00000000
00000000
00000000
,
00100000
00001000
00100000
00001000
00100000
00001000
00100000
00001000
00100000
00001000
00100000
00001000
00010000
00000000
00010000
00000000
,
00000010
00010000
00000010
00010000
00000010
00010000
00000010
00010000
00000010
00010000
00000010
00010000
00001000
00000000
00000000
00000000
,
01000000
00001000
01000000
00001000
00010000
00001000
00010000
00001000
01000000
00001000
01000000
00001000
00010000
00000000
00010000
00000000
,
00000100
00010000
00000100
00010000
00001000
00010000
00001000
00010000
00000010
00000000
00004000
00000000
00003010
00000000
00000400
00000000
,
00000301
00001000
00000001
00001000
00000100
00001000
00000100
00001000
00000100
00010000
00000100
00010000
00001000
00000000
00010000
00000000
,
00001000
01000000
00001000
01000000
00010000
01000000
00010000
01000000
00010000
10000000
00010000
10000000
01000000
00000000
00000000
00000000
,
00100000
01000000
10000000
01000000
00100000
01000000
10000000
00010000
00100000
01000000
00100000
01000000
10000000
00000000
00010000
00000000
,
10000000
00010000
10000000
00010000
01000000
00001000
01000000
00001000
00010000
00000000
00000040
00000000
00010030
00000000
00000040
00000000
,
00010030
00000000
00001000
00000000
00000100
00000000
00000001
00001000
00000001
00000100
00000010
00000000
00001000
00000000
00000010
00000100
,
00000001
00001000
00000100
00001000
00000001
00000010
00000001
00001000
00000100
00010000
00000100
00010000
00004000
00000000
00000000
00000000
,
01003000
00010000
00100000
01000000
01100000
10000000
00100000
01000000
,
00010000
01000000
00100000
10000000
00010000
10000000
00100000
01000000
00010000
00000000
01000000
00000000
00004000
00000000
00000000
00000000
,
00013000
00000000
00000400
00000000
00010300
00000000
00001000
00000000
00010000
00000000
01000000
00000000
10000000
00010000
10000000
00000000
,
00100000
10000000
00100000
10000000
00010000
00000000
01000000
00000000
00100000
00000000
01000000
00000000
00004000
00000000
00003400
00000000
,
00000310
00001000
00000001
00000010
00000100
00000000
00000010
00000000
00000100
00000000
00000100
00000000
00040000
00000000
04030000
00000000
,
13000000
00000000
10000000
00000000
01000000
00000000
00010000
00000000
00001000
00010000
00001000
00000000
00100000
00000010
00100000
00000010
,
M002000M
00030000
00000000
00000000
00000000
00000000
00000000
00000000
00000000
00000000
00000000
00000000
00000000
00000000
00000000
00000000
00000200
00000300
00000000
00000000
00000000
00000000
00000000
00000000
00000000
00000000
00000000
00000000
00000000
00000000
00000000
00000000
02000000
03000000
00000000
00000000
00000000
00000000
00000000
00000000
00000000
00000000
00000000
00000000
00000000
00000000
00000000
00000000
00020000
00030000
00000000
00000000
00000000
00000000
00000000
00000000
10000000
00000000
00000000
00000000
00010000
00000000
00000000
00000000
,
20000000
30000000
00000000
00000000
00000000
00000000
00000000
00000000
01000000
00000000
00000000
00000000
00000000
00000000
00000000
00000000
00200000
00300000
00000000
00000000
00000000
00000000
00000000
00000000
00001000
00000000
00000000
00000000
00000000
00000000
00000000
00000000
00020000
00030000
00000000
00000000
00000000
00000000
00000000
00000000
00000000
00000000
00000000
00000000
00000000
00000000
00000000
00000000
00000020
00000030
00000000
00000000
00000000
00000000
00000000
00000000
00000000
00000000
00000000
00000000
00000000
00000000
00000000
00000000
,
00002000
00003000
00000000
00000000
00000000
00000000
00000000
00000000
00000010
00000000
00000000
00000000
00000000
00000000
00000000
00000000
00002000
00003000
00000000
00000000
00000000
00000000
00000000
00000000
00000001
00000000
00000000
00000000
00000000
00000000
00000000
00000000
00002000
00003000
00000000
00000000
00000000
00000000
00000000
00000000
00000100
00000000
00000000
00000000
00000000
00000000
00000000
00000000
00002000
00003000
00000000
00000000
00000000
00000000
00000000
00000000
00000000
00000000
00000000
00000000
00000000
00000000
00000000
00000000
,
00020000
00030000
00000000
00000000
00000000
00000000
00000000
00000000
00100000
00000000
00000000
00000000
00000000
00000000
00000000
00000000
00020000
00030000
00000000
00000000
00000000
00000000
00000000
00000000
10000000
00000000
00000000
00000000
00000000
00000000
00000000
00000000
00020000
00030000
00000000
00000000
00000000
00000000
00000000
00000000
01000000
00000000
00000000
00000000
00000000
00000000
00000000
00000000
40000000
00000000
00000000
00000000
00000000
00000000
00000000
00000000
00000000
00000000
00000000
00000000
00000000
00000000
00000000
00000000
,
02000000
33000000
00000000
00000000
00000000
00000000
00000000
00000000
00000000
00000000
00000000
00000000
00000000
00000000
00000000
00000000
00200000
00300000
00000000
00000000
00000000
00000000
00000000
00000000
00010000
00000000
00000000
00000000
00000000
00000000
00000000
00000000
00002000
00003000
00000000
00000000
00000000
00000000
00000000
00000000
00000100
00000000
00000000
00000000
00000000
00000000
00000000
00000000
00000010
00000000
00000000
00000000
00000100
00000000
00000000
00000000
00000010
00000000
00000000
00000000
00000100
00000000
00000000
00000000
,
00000002
00000003
00000000
00000000
00000000
00000000
00000000
00000000
00001000
00000000
00000000
00000000
00000000
00000000
00000000
00000000
00000400
00000000
00000000
00000000
00000300
00000000
00000000
00000000
00000000
00000000
00000000
00000000
00000000
00000000
00000000
00000000
00400000
00000000
00000000
00000000
00300000
00000000
00000000
00000000
00000000
00000000
00000000
00000000
00000000
00000000
00000000
00000000
02000000
03000000
00000000
00000000
00000000
00000000
00000000
00000000
00100000
00000000
00000000
00000000
01000000
00000000
00000000
00000000
,
20000000
30000000
00000000
00000000
00000000
00000000
00000000
00000000
00010000
00000000
00000000
00000000
00000000
00000000
00000000
00000000
02000000
03000000
00000000
00000000
00000000
00000000
00000000
00000000
00010000
00000000
00000000
00000000
10000000
00000000
00000000
00000000
00010000
00000000
00000000
00000000
01000000
00000000
00000000
00000000
00010000
00000000
00000000
00000000
01000000
00000000
00000000
00000000
00002000
00003000
00000000
00000000
00000000
00000000
00000000
00000000
01000000
00000000
00000000
00000000
00000000
00000000
00000000
00000000
,
00020000
00030000
00000000
00000000
00000000
00000000
00000000
00000000
00100000
00000000
00000000
00000000
00000000
00000000
00000000
00000000
00002000
00003000
00000000
00000000
00000000
00000000
00000000
00000000
00010000
00000000
00000000
00000000
00000000
00000000
00000000
00000000
00000040
00000000
00000000
00000000
00000000
00000000
00000000
00000000
00004030
00000000
00000000
00000000
00000000
00000000
00000000
00000000
00003004
00000000
00000000
00000000
00000000
00000000
00000000
00000000
00000043
00000000
00000000
00000000
00000030
00000000
00000000
00000000
,
MM000100
00000000
00001000
00000001
00001000
00000000
00000100
00000000
00000010
00000000
00000100
00000000
00001000
00000000
00010000
00000000
,
00100000
01000000
10000000
01000000
00010000
00001000
00000100
00000001
,
00001000
00000000
00000001
00000100
00000001
00000000
00001000
00000000
00000010
00000000
00000100
00000000
00001000
00000000
00010000
00000000
,
00100000
00000000
01000000
00000000
10000000
00000000
01000000
00000000
00010000
10000000
00000000
10000000
00010000
00000000
00100000
00000000
,
00110000
00000000
00010000
10000000
00010000
00000000
01000000
00000000
00001000
00000000
00010000
00000000
00000010
00000000
00001000
00000000
,
00000001
00000000
00000010
00000100
00000010
00000000
00000001
00000000
00001000
00000000
00000100
00000000
00010000
00000000
04000000
00000000
,
13000000
00000000
00100000
10000000
00100000
00000000
01000000
00000000
00010000
00000000
10000000
00000000
00100000
00000000
01000000
00000000
,
00001000
00000000
00010000
00000000
00000100
00000000
01000000
00001000
01000000
00001000
00040000
00000000
00031000
00000000
00010000
00000000
,
00011000
00000000
00000000
00000000
00000100
00010000
00000100
00010000
00001000
00000000
00000000
00000000
00011000
00000000
00000000
00000000
,
01010000
00000000
00000000
00000000
00011000
00000000
00000000
00000000
00001010
00000000
00000000
00000000
00000101
00000000
00000001
00001000
,
00000100
00001100
00011000
00110000
,
10010000
00000000
01001000
00000000
00012000
00000000
00000000
00003000
,
00011000
00000000
00000000
00000000
01000000
00001000
01000000
00001000
00010000
00000000
00000000
00000000
00011000
00000000
00000000
00000000
,
00001100
00000000
00000000
00000000
00000000
00000000
00000000
00000000
00000000
00000000
00000000
00000000
00010000
00000000
00000100
00000000
00010000
00000000
00000100
00000000
00010000
00000000
00000100
00000000
00010000
00000000
00000000
00000000
00000000
00000000
00000000
00000000
00000000
00000000
00000000
00000000
00011000
00000000
00000000
00000000
00000000
00000000
00001000
00000000
00000000
01000000
00000000
00000000
,
00010000
00000000
10010000
00000000
00101000
00000000
00010010
000M00M0
,
00001100
00000000
00000000
00000000
00001001
00000000
00000000
00000000
00000010
00000001
000000M0
00000000
00000000
00000000
00000000
00000000
,
00001001
0000M00M
00010010
000M00M0
00101000
00M0M000
10010000
M00M0000
,
20010000
00000000
30200000
00000000
02300000
00000000
03001000
01000000
,
00001000
10000000
00000100
00100000
00000001
00010000
00000010
01000000
,
01002000
00000000
00003000
00000000
20010000
00000000
30000000
00000000
00210000
00000000
00000000
00000000
00000000
00000000
00000000
00300000
,
10010000
00000000
M00M0000
00000000
00101000
00000000
00M0M000
00000000
00010010
00000000
000M00M0
00000000
00010000
00000010
00010000
00000010
,
00001000
00000000
00000000
00000000
00000000
00000000
00000101
00000000
00000000
00000000
00000000
00000000
00001010
00000000
00000000
00000000
00000000
00000000
00010100
00000000
00000000
00010000
00000100
00010000
,
00001000
00000000
01001000
00000000
00110000
00000000
10010000
10000000
,
01000000
00000000
00000000
00000000
01100000
00000000
00000000
00000000
00110000
00000000
00004000
00000000
00013000
00001000
00010000
00000000
,
00000010
00000000
00001000
00000000
00000001
00000010
00000100
00001000
00000001
00000000
00001000
00000000
00000100
00000000
00010000
00000000
,
00001000
00000000
00100000
00000000
01000000
00000000
10000000
00000000
00010000
00000000
10000000
00000000
00100000
00000000
01000000
00010000
,
01000000
00000000
00010000
00000000
01000000
00000000
00100000
00000000
10000000
00000000
00100000
00000000
01000000
00000000
00010000
01000000
,
00001000
00000000
01000000
00000000
00001000
00000000
00010000
00000000
00000200
00000000
00000000
00000000
00010300
00000100
00010000
00000100
,
01000000
00000000
00000000
00000000
00000000
00000000
00010000
00000000
00000000
00000000
00000000
00000000
10000000
00000000
00000000
00100000
00000000
00000000
01000000
00000000
00000000
00010000
00000000
00000000
10000000
00000000
00000000
00000000
00000000
00000000
00010000
00000000
00000000
00000000
00000000
00000000
01000000
00000000
00010000
00000000
01000000
00000000
00010000
00000000
01000000
00000000
00010000
00000000
,
01000000
00000000
00100000
00000000
10000000
00000000
00001000
00000000
00010000
00000000
00001000
00000000
00100000
00000000
00001000
00010000
,
00000010
00010000
00000010
00001000
00000100
00000010
00000001
00000000
,
00000001
00000000
00001000
00000000
00000001
00000000
00000010
00000000
00000000
00000000
00000000
00000000
00000100
00001000
00000100
00000010
,
00000001
00000010
00001000
00010000
01000000
10000000
00010000
10000000
,
10100000
00000000
00010000
00000000
10000000
00000000
00100000
00000000
00010000
00000000
00001000
00000000
00000100
00000010
00001000
00000001
,
00000100
00001000
00010000
00100000
00010000
00001000
00010000
01000000
,
10000000
00000000
00000000
01000000
00000000
00000000
00100000
00000000
00000000
01000000
00000000
00000000
00100000
00000000
00000000
00010000
00000000
00000000
10000000
00010000
10000000
00010000
10000000
00010000
,
10000000
00100000
00010000
00001000
00000100
00000001
00001000
00000001
,
00000011
00000000
00000010
00000100
00001000
00000000
00000001
00000000
00000010
00000000
00001000
00000000
00010000
00000000
00400000
00000000
,
01300000
00400000
00310000
00400000
10300000
00040000
01030000
01000000
,
00001000
00000000
00001000
00000000
00011000
00000000
00010000
00000000
00000010
00010000
00000010
00010000
00000100
00010000
00000100
00010000
,
00002000
00000000
10003000
20010000
00000000
30001000
00012000
00000000
,
10003000
00000010
00010000
00001000
00100000
00000001
00010000
00001000
,
10000000
00001000
00011000
00010000
00000001
00001001
00001000
00000100
,
01000000
01000000
00001000
10000000
10000000
01000000
00100000
00001000
,
00021000
00000000
00030001
00001002
00000000
00010003
00021000
00000000
,
00030001
00100000
00001000
00010000
00000010
10000000
00001000
00010000
,
01000000
00100000
01000000
00010000
00001000
00010000
01000000
10000000
,
00010000
00010000
01000000
00001000
00001000
00010000
00000010
00001000
,
00001002
00000000
00000000
00000000
01000003
00000000
00012000
00000000
00000000
00000000
10003000
00000000
10020000
00000000
00000000
00030000
,
01000000
00000001
00001000
00000100
00100000
01000000
10000000
00010000
,
10000000
00100000
01000000
00001000
00000100
00000001
00001000
00000001
,
00000010
00000010
00000100
00010000
00010000
00001000
00100000
00010000
,
20010000
00000000
30000010
00021000
00000000
00030001
00002001
00000000
,
00003100
00100000
01000000
10000000
00010000
01000000
00001000
00000100
,
00000001
00010000
00000100
00100000
00010000
10000000
00000010
00001000
,
00000001
00000001
00001000
00000001
00000001
00001000
00000001
00001000
,
M0001002
M0000000
M0000000
M0000000
,
M0000000
M0000000
M0000000
M0000000
,
M0000000
M0000000
M0000000
M0000000
,
M0000000
M0000000
M0000003
00000000
;
