#TITLE:The Hanukkah Song;
#SUBTITLE:;
#ARTIST:Adam Sandler;
#TITLETRANSLIT:;
#SUBTITLETRANSLIT:;
#ARTISTTRANSLIT:;
#CREDIT:jammitch!;
#BANNER:The Hanukkah Song.png;
#BACKGROUND:The Hanukkah Song-bg.png;
#LYRICSPATH:The Hanukkah Song.lrc;
#CDTITLE:jammitch!.png;
#MUSIC:The Hanukkah Song.ogg;
#OFFSET:-0.020;
#SAMPLESTART:110.854;
#SAMPLELENGTH:9.700;
#SELECTABLE:YES;
#BPMS:0.000=92.000,16.000=95.000,32.000=90.000,40.000=91.500,48.000=98.000,56.000=96.500,66.000=94.500,82.000=91.600,88.000=94.000,95.000=88.000,103.000=95.000,111.000=94.000,115.000=98.000,119.000=100.000,123.000=98.000,127.000=96.500,135.000=97.500,143.000=97.520,151.000=98.000,159.000=99.000,166.000=96.500,170.000=88.000,171.000=87.800,173.000=87.000,174.500=65.000,175.000=55.000;
#STOPS:31.000=1.895
,47.000=4.072
,88.000=5.593
,94.000=2.234
,110.000=2.391
,126.000=3.696
;
#BGCHANGES:;
// cache tags:
#FIRSTBEAT:16.000;
#LASTBEAT:176.000;
#SONGFILENAME:Songs/DDRExtreme.co.uk presents ChristmasMix/The Hanukkah Song/The Hanukkah Song.sm;
#HASMUSIC:1;
#HASBANNER:1;
#MUSICLENGTH:135.973;
// end cache tags

//---------------dance-single - Heavy----------------
#NOTES:
     dance-single:
     Heavy:
     Hard:
     7:
     0.345,0.403,0.221,0.000,0.118,298.000,30.000,0.000,0.000,0.000:
0000
0000
0000
0000
,
0000
0000
0000
0000
,
0000
0000
0000
0000
,
0000
0000
0000
0000
,
1000
0100
0010
0000
0001
0100
0010
0000
,
1000
0001
0100
0000
0010
1000
0001
0000
,
1000
0010
0100
0000
0001
0010
0100
0000
,
1000
0010
0100
0010
1000
0001
0100
0000
,
0010
1000
0100
1000
0010
1000
0100
0000
,
0010
0001
0100
0001
0010
0001
0100
0000
,
0010
1000
0100
0010
0001
0100
0010
0000
,
1000
0100
0010
0001
1001
0000
1100
0000
,
1000
0100
0001
0100
1000
0000
1001
0000
,
1001
0100
0100
0000
0100
0000
1001
0000
,
0001
0100
1000
0100
0001
0000
1001
0010
,
0010
0000
0110
1000
1000
0000
1001
0000
,
1000
0010
0100
0001
1000
0010
0100
0001
1000
0000
0100
0000
0010
0000
0001
0000
,
0100
0010
0100
0000
0001
0000
1000
0000
0010
0000
0100
0000
0001
0000
1000
0000
,
0100
0010
0100
0000
1000
0000
0001
0000
0010
0000
0100
0000
1000
0000
0010
0000
,
0100
0001
0100
0000
0010
0000
1000
0000
0001
0000
0100
0000
0010
0000
0100
0000
,
0001
1000
0001
0000
0010
0000
0100
0000
1000
0000
0000
0000
1010
0000
0000
0000
,
0001
0000
0101
0000
0010
0000
1001
1000
,
1000
0001
0100
0010
1000
0000
0010
1000
,
0100
0000
0010
0001
0100
0000
1000
0100
,
0001
0000
1000
0100
0001
0000
1000
0100
,
0001
0100
1000
0010
0100
0000
1000
0010
,
0001
0000
1000
0010
0001
0000
1010
0000
,
0101
0000
0011
0001
1100
0000
0001
0010
,
0100
0010
1001
0000
0100
0010
1000
0100
,
0010
0100
1001
0000
0000
0000
0010
1000
,
0001
0000
0010
0100
1000
0000
0010
0100
,
1010
0000
0100
0010
0101
0000
0010
1000
,
0100
0010
0001
0100
1000
0100
0001
0000
,
0011
0100
1100
0000
1001
0000
1010
1000
,
0100
0000
0010
0000
0011
0000
0001
0000
0100
0000
0010
0000
1000
0000
0001
0100
,
0000
0100
0010
0000
0000
0000
1000
0001
1000
0001
1000
0000
0010
0000
1000
0000
,
0010
0100
0010
1000
0000
1000
0100
0000
0010
0000
0001
0000
1000
0000
0100
0000
,
0010
0001
0010
0100
0000
0100
1000
0000
0010
0000
0100
0000
0001
0000
0010
0000
,
0100
1000
0100
0010
0000
0010
0001
0000
0100
0000
0010
0000
1000
0000
0100
0000
,
0010
0001
1000
0100
0000
0100
0010
0000
0001
0000
0100
0000
0010
0000
1000
0000
,
0001
0100
0001
0010
0001
0100
0001
0000
1000
0000
0100
0000
0010
0000
0001
0000
,
1000
0100
1000
0010
1000
0100
1000
0000
0010
0000
0100
0000
1001
0000
0100
0000
,
1001
0000
0100
0000
0001
0100
0001
0000
0010
0000
0100
0000
1000
0000
1010
0000
,
1000
0000
1100
0000
0001
0000
0011
0000
0001
0000
0101
0000
0001
1000
0001
0000
;

//---------------dance-single - Standard----------------
#NOTES:
     dance-single:
     Standard:
     Medium:
     5:
     0.251,0.275,0.199,0.015,0.000,210.000,27.000,2.000,0.000,0.000:
0000
0000
0000
0000
,
0000
0000
0000
0000
,
0000
0000
0000
0000
,
0000
0000
0000
0000
,
1000
1010
0001
0011
,
1000
1100
0001
0101
,
0100
1001
0100
1001
,
1000
0010
0100
0010
1000
0000
1001
0000
,
1000
0101
0010
0101
,
0001
1100
0010
1100
,
0010
1100
0010
0101
,
1000
0100
0010
0100
1000
0000
1001
0000
,
0001
0100
0010
0100
0001
0000
1000
0000
,
0010
0100
0010
0000
0100
0000
0000
0000
,
1000
0001
0100
0001
1000
0000
1000
0100
,
0010
0000
0001
0100
0010
0000
1001
0000
,
1000
0010
1000
0100
1000
0100
0010
0001
,
0100
0000
1000
0000
0001
0100
0010
1000
,
0100
0000
0001
0000
0010
0100
1000
0010
,
0100
0000
1000
0000
0010
0100
0001
0010
,
0100
0001
1000
0100
,
0001
0000
0100
0000
0010
0000
0001
0100
,
0010
0000
0100
0010
1000
0000
0100
0010
,
0001
0000
0100
0010
1000
0000
1000
0000
,
0001
0010
0100
1000
,
0010
0000
0100
0001
0100
0000
1000
0000
,
0001
0100
0010
1001
,
1001
0000
0010
0100
0000
0000
0001
0000
,
1000
0100
0010
0000
0000
0000
1000
0000
,
0001
0100
0010
0000
0000
0000
0010
1000
,
0100
0000
0010
0001
0100
0000
1001
0000
,
1001
0000
0100
0010
0000
0000
0001
0000
,
1000
0100
1000
0000
0010
0000
1001
0000
,
0110
1001
0000
1010
,
0100
0000
0010
0001
0100
0000
1000
0100
,
1000
0010
1000
0001
1000
0100
0010
0001
,
0100
0010
1000
0000
0100
0000
0010
1000
,
0100
0010
0001
0000
0100
0000
0010
0001
,
1000
0010
0100
0000
1000
0000
0010
1000
,
0001
0010
0100
0000
0001
0000
1000
0100
,
1000
0010
1000
0000
0110
0000
0001
0010
,
0001
0100
0001
0000
0110
0000
0010
1000
,
0010
0100
0010
0000
1001
0000
1000
0100
,
1000
0100
0010
0001
0010
0001
2002
0000
,
3003
0000
0000
0000
;

//---------------dance-single - Light----------------
#NOTES:
     dance-single:
     Light:
     Easy:
     2:
     0.161,0.210,0.132,0.096,0.000,122.000,18.000,13.000,0.000,0.000:
0000
0000
0000
0000
,
0000
0000
0000
0000
,
0000
0000
0000
0000
,
0000
0000
0000
0000
,
1000
0000
0001
0000
,
1000
0000
0001
0000
,
1001
0000
0110
0000
,
1001
0000
0110
0010
,
0010
0000
0100
0000
,
0010
0000
0100
0000
,
0001
0000
1000
0000
,
0001
1000
0001
1000
,
0010
1000
0010
1000
,
0001
0100
0001
0100
,
0001
0010
0001
0010
,
0100
1000
0100
1000
,
0001
0000
0001
1000
,
0200
0000
0310
0001
,
2000
0000
3010
0100
,
0002
0000
1003
0100
,
0020
0000
0030
1000
,
1000
0001
0001
0100
,
0100
0010
0010
1000
,
1000
0001
0001
1000
,
0000
1001
0000
0001
,
0000
1001
0000
1000
,
0100
0010
0001
1001
,
1001
1001
0000
0010
,
0000
0110
0000
0100
,
0000
0110
0000
0010
,
0001
1000
0100
0110
,
0110
0110
0000
0001
,
0001
0001
1000
0100
,
0100
0100
0000
0010
,
0010
0010
0001
1000
,
1000
1001
0000
0010
,
0001
0200
0000
0310
,
1000
0002
0000
0013
,
0100
2000
0000
3001
,
0100
0020
0000
0130
,
1000
0020
0000
0130
,
0001
2000
0000
3100
,
0010
0002
0000
1003
,
1010
1000
1010
2002
,
3003
0000
0000
0000
;
