#TITLE:Sacred;
#SUBTITLE:;
#ARTIST:Gabba Front Berlin;
#TITLETRANSLIT:;
#SUBTITLETRANSLIT:;
#ARTISTTRANSLIT:;
#CREDIT:Rynker;
#BANNER:Bn-Sacred.png;
#BACKGROUND:Bg-Sacred.png;
#LYRICSPATH:;
#CDTITLE:;
#MUSIC:Gabba Front Berlin - Sacred.ogg;
#OFFSET:-0.128;
#SAMPLESTART:43.099;
#SAMPLELENGTH:12.000;
#SELECTABLE:YES;
#DISPLAYBPM:224.000;
#BPMS:0.000=224.000;
#STOPS:;
#BGCHANGES:;
// cache tags:
#FIRSTBEAT:8.000;
#LASTBEAT:621.000;
#SONGFILENAME:Songs/SPEEEDCOOOORE/Sacred - [Rynker]/Sacred.sm;
#HASMUSIC:1;
#HASBANNER:1;
#MUSICLENGTH:167.305;
// end cache tags

//---------------dance-single - Rynker----------------
#NOTES:
     dance-single:
     Rynker:
     Challenge:
     14:
     1.000,1.000,0.903,0.102,0.574,1048.000,151.000,17.000,47.000,0.000:




0000
0000
0000
0000
,
0000
0000
0000
0000
,
MMMM
0000
0000
0000
,
0000
0000
0000
0000
,
0000
0000
0000
0000
,
0000
0000
0000
0000
,
0000
0000
0000
0000
,
0000
0000
0000
0000
,
0101
0001
1001
1000
,
1100
0100
0110
0010
,
0011
0001
1001
1000
,
1M1M
0M10
M11M
010M
,
0101
0001
1001
1000
,
1100
0100
1100
1000
,
1010
0010
0110
0100
,
0101
0000
0000
0000
0000
0000
0000
0000
0000
0000
0000
0000
0000
0000
0000
0000
0000
0000
0000
0000
0000
0000
0000
0000
0000
0000
0000
0000
0000
0000
0000
0000
0000
0000
0000
0000
0000
0000
0000
0000
0000
0000
0000
0000
0000
0000
0000
0000
0101
0000
0000
0000
0000
0000
0000
0000
0000
0000
0000
0000
0000
0000
0000
0000
0000
0000
0000
0000
0000
0000
0000
0000
0000
0000
0000
0000
0000
0000
0000
0000
0000
0000
0000
0000
0000
0000
0000
0000
0000
0000
0000
0000
0000
0000
0000
0000
0001
0000
0000
0000
0000
0000
0000
0000
1000
0000
0000
0000
0000
0000
0000
0000
0002
0000
0000
0000
0000
0000
0000
0000
4000
0000
0000
0000
0000
0000
0000
0000
0000
0000
0000
0000
0000
0000
0000
0000
0000
0000
0000
0000
0000
0003
0000
0000
3001
0000
0000
0000
0000
0000
0000
0000
0000
0000
0000
0000
0000
0000
0000
0000
0000
0000
0000
0000
0000
0000
0000
0000
0000
0000
0000
0000
0000
0000
0000
0000
0000
0000
0000
0000
0000
0000
0000
0000
0000
0000
0000
0000
0000
0000
0000
0000
,
1001
1000
1100
0100
,
0110
0010
0011
0001
,
1001
1001
1010
0110
,
0100
0000
0000
0000
0000
0000
0000
0000
0000
0000
0000
0000
0001
0000
0000
0000
0000
0000
0000
0000
0000
0000
0000
0000
0100
0000
0000
0000
0000
0000
0000
0000
0000
0000
0000
0000
0001
0000
0000
0000
0000
0000
0000
0000
0000
0000
0000
0000
0100
0000
0000
0000
0000
0000
0000
0000
0000
0000
0000
0000
0000
0000
0000
0000
0000
0000
0000
0000
0000
0000
0000
0000
0000
0000
0000
0000
0000
0000
0000
0000
0000
0000
0000
0000
0000
0000
0000
0000
0000
0000
0000
0000
0000
0000
0000
0000
0001
0000
0000
0000
0000
0000
0000
0000
1000
0000
0000
0000
0000
0000
0000
0000
0001
0000
0000
0000
0000
0000
0000
0000
0000
0000
0000
0000
0000
0000
0000
0000
0000
0000
0000
0000
0000
0000
0000
0000
0000
0000
0000
0000
0000
0000
1000
0000
0000
0000
0000
0000
0000
0000
0000
0000
0001
0000
0000
0000
0000
0000
0000
0000
0000
0000
1000
0000
0000
0000
0000
0000
0000
0000
0000
0000
0001
0000
0000
0000
0000
0000
0000
0000
0000
0000
1000
0000
0000
0000
0000
0000
0000
0000
0000
0000
,
0001
0100
0110
0010
,
1010
1000
1001
1MM0
,
1000
0000
0000
0000
0000
0000
0000
0000
0001
0000
0000
0000
0000
0000
0000
0000
1000
0000
0000
0000
0000
0000
0000
0000
0000
0000
0000
0000
0000
0000
0000
0000
0000
0000
0000
0000
0000
0000
0000
0000
0000
0000
0000
0000
0000
0000
0001
0000
0000
0000
0000
0000
0000
0000
0000
0000
1000
0000
0000
0000
0000
0000
0000
0000
0000
0000
0001
0000
0000
0000
0000
0000
0000
0000
0000
0000
1000
0000
0000
0000
0000
0000
0000
0000
0000
0000
0001
0000
0000
0000
0000
0000
0000
0000
0000
0000
1000
0000
0000
0000
0000
0000
0000
0000
0000
0000
0000
0000
0000
0000
0000
0000
0000
0000
0000
0000
0000
0000
0000
0000
0000
0000
0000
0000
0000
0000
0000
0000
0000
0000
0000
0000
0000
0000
0000
0000
0000
0000
0000
0000
0000
0000
0000
0000
1100
0000
0000
0000
0000
0000
0000
0000
0000
0000
0000
0000
0000
0000
0000
0000
0000
0000
0000
0000
0000
0000
0000
0000
0000
0000
0000
0000
0000
0000
0000
0000
0000
0000
0000
0000
0000
0000
0000
0000
0000
0000
0000
0000
0000
0000
0000
0000
,
0110
0000
0000
0000
0000
0000
0011
0000
0000
0000
0000
0000
0001
1000
0001
1000
0001
1000
0001
0000
0000
0000
0000
0000
,
1001
1000
0100
0010
0001
0100
0010
0100
,
0001
0000
1000
0000
0100
0000
0010
0000
0001
0100
0001
0100
0001
0100
0001
0100
,
0010
0000
0100
0000
0001
0000
1000
0000
0100
0000
0010
0000
0100
0000
1000
0001
,
0100
0001
0010
0100
1100
0000
1100
0000
,
1001
0000
1000
0000
0010
0000
0100
0000
0010
0000
1000
0001
1000
0001
1000
0001
,
0010
0010
0100
0100
1000
1000
0001
0001
,
1001
1100
0110
0011
,
0001
0000
0100
0000
0010
0000
0100
0000
0001
1000
0001
1000
0001
1000
0001
1000
,
0010
0000
0000
0000
1010
0000
0000
0000
0110
0000
0000
0000
0101
0000
0000
0001
,
0010
0000
0010
0010
0100
0100
1000
1000
,
1001
0101
0110
1010
,
1001
0000
0000
0000
1001
0000
0000
0000
0011
0000
0000
0000
0001
0010
0001
0010
,
0001
0000
0000
0000
1000
0000
0000
0000
1010
0000
0000
0000
0001
0000
0000
0010
,
0001
0000
1000
0000
1010
0000
0001
1000
,
1100
1001
1010
0110
,
0101
0000
0001
0000
0010
0000
0100
0000
1000
0000
0010
0000
0100
0000
0010
1000
,
0001
0000
0000
0000
0100
0000
0000
0000
1010
0000
0000
0000
0001
0000
0000
1000
,
0100
0000
1000
0000
0101
0000
0101
0001
,
1001
1000
0101
0001
,
1010
0000
0000
0000
1000
0000
0000
0000
1001
0000
0000
0000
1000
0001
1000
0001
,
1000
0000
0000
0000
0001
0000
0000
0000
1100
0000
0000
0000
0100
0000
0000
0010
,
0001
0000
1000
0000
0101
0000
0101
0001
,
1001
1000
0011
0001
,
1010
0000
0000
0000
1000
0000
0000
0000
1001
0000
0000
0000
1000
0001
1000
0001
,
0010
0000
0000
0000
0011
0000
0000
0000
0110
0000
0000
0000
1100
0000
0000
1000
,
0010
0000
0110
0000
0101
0000
1001
0001
,
0011
0110
1100
1001
,
0101
0000
0000
0000
0110
0000
0000
0000
1010
0000
0000
0000
0010
1000
0100
0010
,
0001
0010
0001
0010
0100
1000
0100
1000
,
0001
0000
0100
0000
0001
0000
0100
0000
0010
1000
0010
0100
0001
1000
0001
1000
,
0100
1000
0010
0100
0001
0010
0100
0010
,
0110
0000
0100
0000
1000
0000
0001
0000
01M1
0000
01M0
0000
00M1
0000
0001
1000
,
0001
1000
0001
0100
0010
0100
0001
1000
,
1001
0000
0001
0000
1000
0000
0001
0000
1000
0100
0010
0001
1000
0001
1000
0010
,
0100
0000
0001
0000
1000
0000
0010
0000
0100
0000
0010
0000
1000
0000
1000
0001
,
1000
0000
0010
0000
1000
0000
0001
0000
0011
0000
0000
0001
0010
0000
0100
0000
,
1100
1000
0010
0100
0001
0010
0110
0100
,
1100
0000
1000
0000
0001
0000
0010
0000
0100
1000
0100
1000
0001
1000
0100
0010
,
0001
0000
0100
0000
0010
0000
1000
0000
1100
0000
0100
0000
0010
0000
0010
0001
,
1000
0000
0001
0000
0100
0000
0010
0000
0100
0000
0101
0000
1001
0000
1000
0001
,
1000
0001
0010
0100
1100
1000
0001
0001
,
0101
0000
0100
0000
0010
0000
1000
0000
0001
1000
0001
1000
0010
1000
0010
0100
,
0001
0000
1000
0000
1100
0000
0100
0010
0001
0000
0010
0000
0001
0000
1000
0000
,
1100
0000
0110
0000
0011
0000
1001
0001
,
0102
0103
0010
1000
0001
1000
0002
0013
,
0200
0000
1300
0000
0001
0000
1000
0000
0010
1000
0010
1000
0001
0100
0001
0100
,
0001
0000
0010
0000
0100
0000
0010
0000
0002
0000
1003
0000
0010
0000
0010
1000
,
0002
0000
0013
0000
0001
0000
0000
0000
0101
0000
0001
0000
1001
0000
1000
0001
,
0010
0001
1000
0010
0200
0310
1000
2000
,
3020
0000
0130
0000
0010
0000
1000
0000
0010
0100
0010
0100
0001
1000
0100
1000
,
0200
0000
1300
0000
0001
0000
0001
1000
0100
0000
1000
0000
0001
0000
0100
0000
,
0010
M000
000M
M000
000M
M000
000M
M000
010M
M000
000M
M100
001M
M000
001M
0000
,
1010
0000
0000
0000
1000
0000
0000
0000
0011
0000
0000
0000
0001
0000
0000
0100
,
0010
0000
1000
0000
0101
0000
1001
1000
,
1100
0000
1000
0001
0000
0000
0101
0000
,
0010
0000
0000
0000
1000
0000
0000
0000
1001
0000
0000
0000
0001
1000
0001
1000
,
0100
0000
0000
0000
1000
0000
0000
0000
0011
0000
0000
0000
1001
0000
0000
0001
,
0100
0000
0000
0000
0100
0000
0000
0000
1010
0000
0000
0010
0100
0000
0110
0000
,
1010
0000
1000
0000
0001
0100
0000
0100
,
0101
0000
0000
0000
0001
0000
0000
0000
1100
0000
0000
0100
1000
0001
0010
0001
,
1000
0000
0010
0000
0100
0000
0001
0000
0010
0000
0001
0000
0100
0000
0010
1000
,
0001
0000
0010
0000
0100
0000
1000
0000
0001
1000
0010
0100
0001
0100
0001
1000
,
0100
0000
1000
0000
0100
0000
0010
0000
0001
0000
0100
0000
0010
0000
0100
0010
,
1000
0000
0010
0000
0100
0000
0001
0000
4000
0000
0000
0000
3001
0010
0001
0010
,
0001
0000
1000
0000
0010
0000
0100
0000
0001
0000
0010
0000
0100
0000
0010
0100
,
1000
0000
0000
0000
0000
0000
0000
0000
0000
0000
0000
0000
0000
0000
0000
0000
0000
0000
0000
0000
0000
0000
0000
0000
0100
0000
0000
0000
0000
0000
0000
0000
0000
0000
0000
0000
0000
0000
0000
0000
0000
0000
0000
0000
0000
0000
0000
0000
1000
0000
0000
0000
0000
0000
0000
0000
0000
0000
0000
0000
0000
0000
0000
0000
0000
0000
0000
0000
0000
0000
0000
0000
0001
0000
0000
0000
0000
0000
0000
0000
0000
0000
0000
0000
0000
0000
0000
0000
0000
0000
0000
0000
0000
0000
1000
0000
0000
0000
0000
0000
0000
0000
0000
0000
0001
0000
0000
0000
0000
0000
0000
0000
0000
0000
1000
0000
0000
0000
0000
0000
0000
0000
0000
0000
0001
0000
0000
0000
0000
0000
0000
0000
0000
0000
1000
0000
0000
0000
0000
0000
0000
0000
0000
0000
0001
0000
0000
0000
0000
0000
0000
0000
0000
0000
0000
0000
0000
0000
0000
0000
0000
0000
0000
0000
0000
0000
0000
0000
1000
0000
0000
0000
0000
0000
0000
0000
0000
0000
0000
0000
0000
0000
0000
0000
0000
0000
0000
0000
0000
0000
0000
0000
,
0001
0000
0010
0000
0100
0000
1000
0000
0010
0000
0100
0000
0001
0000
0100
0001
,
0100
0001
1000
1000
0004
0000
1003
1000
,
1001
0000
0000
1000
,
0000
1000
0000
1100
,
1001
0000
0000
0001
0100
0000
0001
0000
,
1001
0000
0000
0000
0000
0000
0000
0000
1000
0000
0001
0000
0011
0000
0010
0100
,
2000
0000
0000
3000
0001
0000
0001
0001
,
1100
0000
0000
0000
0000
0000
0000
0000
1000
0000
0000
1000
0100
0000
0100
0010
,
0001
0000
0001
0000
0000
0001
0000
0100
,
0110
0000
0000
0000
0010
0000
0000
0000
1010
0000
0000
0000
1001
0000
0001
0100
,
0010
0100
0010
1000
0001
0010
0100
0010
,
1000
0001
1000
0010
0100
0010
0001
1000
,
0010
0100
1000
0001
1000
0100
0010
0100
,
0001
1000
0100
0010
0100
0001
1000
0001
,
0100
0010
0001
1000
0001
0100
0010
0100
,
1000
0001
1000
0100
0010
0100
0001
1000
,
0100
1000
0100
0010
0001
1000
0010
0100
,
0101
0000
0001
0000
1000
0000
0100
0000
0110
0000
0010
0000
0001
1000
0001
0100
,
0010
1000
0001
0100
0010
1000
0100
0010
,
0100
0000
1000
0000
0010
0000
0100
0000
0001
0010
0100
1000
0010
0100
0010
1000
,
0001
0000
1000
0000
0100
0000
0010
0000
0001
0000
0100
0000
0010
0000
1000
0001
,
0100
0001
0010
0100
1100
0000
1100
0000
,
1001
0000
1000
0000
0010
0000
0100
0000
0001
0000
1000
0100
0010
0100
1000
0010
,
0100
0001
0010
0100
0010
0001
1000
0010
,
0110
0000
M00M
0000
0110
0000
M00M
0000
0110
0000
M00M
0000
0110
0000
0010
1000
,
0001
0000
0000
0000
0000
0000
0000
0000
1000
0000
0000
0000
0000
0000
0000
0000
0100
0000
0000
0000
0000
0000
0000
0000
0010
0000
0000
0000
0000
0000
0000
0000
0001
0000
0000
1000
0000
0000
0001
0000
0000
1000
0000
0000
0001
0000
0000
1000
0000
0000
0001
0000
0000
1000
0000
0000
0001
0000
0000
1000
0000
0000
0002
0000
,
0000
0000
0000
0000
0100
0003
0000
0000
0001
0000
0000
0000
1000
0000
0000
0000
0100
0000
0000
0000
0010
0000
0000
0000
0001
0000
0000
0000
1000
0000
0001
0000
,
0100
0000
0010
0000
1000
0000
0100
0000
0010
0001
0010
0100
1000
0001
0100
0010
,
0100
0000
0001
0000
1000
0000
0100
0000
0010
0000
0001
0000
0100
0000
0010
1000
,
0100
0000
0000
0000
0000
0000
1000
0001
1000
0004
0000
0000
1003
0000
0000
0000
0000
0000
0001
1000
0001
4000
0000
0000
,
3001
0000
1000
0000
0001
0000
0010
0000
0100
0000
1000
0001
0100
0010
1000
0001
,
1000
0001
0010
0100
1000
0001
0100
0100
,
0101
0101
1001
1100
,
1000
0000
0100
0000
0010
0000
0001
0000
1000
0001
0100
0010
0100
0010
1000
0001
,
0100
0001
1000
0100
0010
0001
0100
0010
,
1000
0000
0001
0000
0010
0000
0100
0000
1000
0100
0010
0001
1000
0010
0100
0001
,
1000
0000
0100
0000
0010
0000
0100
0000
1000
0000
0001
0000
0010
0000
0100
1000
,
0001
0100
0001
0100
0101
0000
0101
0000
,
1001
0000
0001
0000
1000
0000
0010
0000
0100
0000
0010
1000
0001
0010
0001
1000
,
0010
0000
0100
0000
0001
0000
1000
0000
0100
1000
0100
1000
0100
1000
0100
1000
,
0100
0000
1000
0000
0001
0000
1000
0000
0001
0000
1000
0000
0001
0000
1000
0001
,
0100
0000
0000
0000
0000
0000
0000
0000
0000
0000
0000
0000
0001
0000
1000
0000
0001
0000
4000
0000
0000
0000
0000
0000
3100
0000
0000
0010
0000
0000
0001
0000
0000
1000
0000
0000
0004
0000
0000
0100
0000
0000
0000
0000
0000
1003
0000
0000
,
0100
0000
0010
0000
0001
0000
1000
0000
0001
0000
0010
0000
0100
0000
1000
0100
,
1000
0000
0010
0000
0100
0000
0010
0000
1000
0001
0010
0001
1000
0100
1000
0001
,
0100
0000
0010
0000
1000
0000
0100
0000
0010
0000
0001
0000
1000
0000
0010
0100
,
0001
0000
1000
0000
0100
0000
0010
0000
0001
0000
0000
0000
1000
0001
1000
0001
,
1000
0000
0010
0000
0100
0000
0010
0000
1000
0000
0100
0010
0001
0010
0001
1000
,
0010
0000
1000
0000
0010
0000
1000
0000
0001
0010
0100
1000
0001
1000
0010
0100
,
0010
0000
0000
0000
1010
0000
0000
0000
1001
0000
0000
0000
0011
0000
0001
1000
,
0100
0000
0010
0000
0100
0000
1000
0000
0001
0100
0001
0010
0100
1000
0001
0100
,
0020
0030
0100
0000
0001
0000
0010
0000
,
0100
0010
0001
0010
,
0200
0300
1000
0000
0010
0000
0100
0000
,
0001
0010
0100
0010
,
0002
0003
1000
0000
0100
0000
1000
0000
,
0010
0100
0001
0010
,
0002
0003
0010
0000
0100
0000
0010
0000
,
0001
1000
0010
1000
,
0020
0030
0100
0000
0001
0000
0010
0000
,
0100
1000
0100
0010
,
0001
0100
0010
1000
,
MMMM
0000
0000
0000
,
0000
0000
0000
0000
0000
0000
0000
0000
MMMM
0000
0000
0000
,
0000
0000
0000
0000
,
0000
0000
0000
0000
,
0000
MMMM
0000
0000
;
