#TITLE:Wanna Do;
#SUBTITLE:~Hardhouse Mix~;
#ARTIST:Nina;
#TITLETRANSLIT:;
#SUBTITLETRANSLIT:;
#ARTISTTRANSLIT:;
#CREDIT:;
#BANNER:Wanna Do ~Hardhouse Mix~-banner.png;
#BACKGROUND:Wanna Do ~Hardhouse Mix~-bg.png;
#LYRICSPATH:;
#CDTITLE:;
#MUSIC:music.ogg;
#OFFSET:0.005;
#SAMPLESTART:35.360;
#SAMPLELENGTH:9.980;
#SELECTABLE:YES;
#BPMS:0.000=149.250;
#STOPS:215.500=1.600
;
#BGCHANGES:-10000.000=songbackground=1.000=0=0=1,
0.000=Wanna Do ~Hardhouse Mix~-bg.png=1.000=0=0=1,
264.000=Wanna Do ~Hardhouse Mix~-bg.png=1.000=0=0=1,
99999=-nosongbg-=1.000=0=0=0 // don't automatically add -songbackground-
;
// cache tags:
#FIRSTBEAT:14.000;
#LASTBEAT:264.000;
#SONGFILENAME:Songs/In The Groove 2 (Official)/Wanna Do/Wanna Do ~Hardhouse Mix~.sm;
#HASMUSIC:1;
#HASBANNER:1;
#MUSICLENGTH:110.150;
// end cache tags

//---------------dance-single - K. Ward----------------
#NOTES:
     dance-single:
     K. Ward:
     Hard:
     7:
     0.471,0.539,0.218,0.218,0.132,315.000,24.000,24.000,0.000,0.000:













0000
0000
0000
0000
,
0000
0000
0000
0000
,
0000
0000
0000
0000
,
0000
0000
0011
1100
,
0010
0000
0000
0000
0100
0000
0000
0000
0010
0000
1000
0100
0000
0000
0000
0000
,
0010
0000
0000
0000
0100
0000
0000
0000
0010
0000
0001
0010
0000
0000
0000
0000
,
0001
0000
0000
0000
1000
0000
0000
0000
0010
0000
0100
0010
0000
0000
0000
0000
,
0100
0000
1000
0000
0100
1010
0000
0000
,
0000
0000
0100
0010
0100
0000
0000
0000
0000
0000
0011
0000
0000
0000
0000
0000
,
0000
0000
0100
0010
0100
0000
0000
0000
0000
0000
1100
0000
0000
0000
0000
0000
,
0000
0000
0010
0100
0010
0000
0000
0000
0000
0000
0011
0000
0000
0000
0000
0000
,
0100
1000
0100
0001
1000
0001
0010
0001
,
0200
0000
0000
0010
0320
0000
0000
1000
,
2030
0000
0000
0001
3002
0000
0000
0010
,
0023
0000
0000
0001
0032
0000
0000
1000
,
2003
0000
0000
0100
3100
0000
0000
0000
,
0000
0000
1000
0100
1000
0000
0000
0000
0000
0000
0110
0000
0000
0000
0000
0000
,
0000
0000
0001
0010
0001
0000
0000
0000
0000
0000
0011
0000
0000
0000
0000
0000
,
0000
0000
0100
0010
0100
0000
0000
0000
0000
0000
1001
0000
0000
0000
0000
0000
,
0000
0010
0110
0000
0000
1001
0000
0000
,
0200
0000
1000
0000
,
0302
1000
0023
0100
,
0130
1000
0100
0010
0001
0000
0001
0100
,
1000
0000
1000
0100
0001
0000
0001
0000
,
0010
0100
0010
0001
1000
0000
1000
0000
,
0001
0100
1000
0100
0001
0000
0100
0000
,
0010
0100
0001
1000
0200
0000
0000
0010
,
0320
0000
0000
0001
0032
0000
0000
0000
,
0103
0000
0010
0000
0001
0000
0010
0000
0100
0000
0000
1000
0000
0000
0100
0000
,
0020
0100
0001
0130
,
1000
0000
0000
0100
0000
0000
0010
0000
0001
0000
0000
0100
0000
0000
0010
0000
,
1000
0000
0000
0010
0000
0000
0100
0000
0001
0000
0000
1000
0000
0000
0001
0000
,
0010
0000
0000
0100
0000
0000
0010
0000
0001
0000
0000
1000
0000
0000
0010
0000
,
0100
0000
0000
1000
0000
0000
0100
0000
0020
0000
0000
0000
1030
0000
0000
0000
,
0001
0000
0010
0000
0001
0000
0000
0000
0100
0000
0000
1000
0000
0000
0000
0000
,
0100
0000
0000
0001
0000
0000
0010
0000
0001
0000
0000
0001
0000
0000
0000
0000
,
1000
0000
0100
0000
0010
0000
0000
0000
0100
0000
0000
0010
0000
0000
0000
0000
,
0001
0100
1000
0100
0001
0000
0020
0000
,
0031
0000
1000
0000
0010
0100
1000
0000
,
0100
0000
0001
0010
0000
1000
0100
0000
,
0010
0001
0000
0100
1000
0000
0100
0000
,
0001
0010
0001
0000
0010
0000
0110
0000
,
0000
0000
1001
0000
1000
0100
1000
0000
,
0010
0000
0100
0101
0000
0000
0000
0000
,
1000
0010
0100
0000
0010
0100
0001
0000
,
0010
0100
0010
0000
0000
0100
1001
0000
,
0000
1000
0100
0000
0000
0100
0010
0000
,
0000
0010
0001
0000
0000
0001
1000
0000
,
0000
0010
0200
0000
0000
0301
0010
0000
,
0000
0100
0010
0000
0000
0001
1000
0000
,
0000
0010
0001
0010
0000
0100
1010
0000
,
0000
0100
0011
0000
0000
0010
0110
0000
,
0000
0001
1001
0000
0000
0010
1100
0000
,
0000
0010
0100
0001
0010
0100
0010
2001
,
3010
0000
0001
0000
0010
0000
0100
0000
1000
0000
0100
0010
0000
0000
1000
0000
,
0001
0000
0010
0001
0000
0000
0010
0000
0100
0000
0010
0000
0001
0000
0000
0000
,
1000
0000
0010
0000
0100
0000
0001
0000
0010
0000
0001
1000
0000
0000
0100
0000
,
0010
0000
0100
1000
0000
0000
0010
0000
0100
0000
0001
0000
0001
0000
0000
0000
,
0100
0000
1000
0000
0100
0000
0001
0000
1000
0000
0100
0010
0000
0000
0100
0000
,
1000
0000
0010
0100
0000
0000
0010
0000
0001
0000
0010
0000
0100
0000
0000
0000
,
1000
0000
0100
0000
0010
0000
0100
0000
0001
0000
1000
0100
0000
0000
0010
0000
,
0100
0000
1000
0001
0000
0000
0100
0000
0010
0000
0001
0000
0010
0000
0100
0000
,
2001
0000
0000
0000
0200
0000
0000
3000
,
0320
0100
0000
0200
0000
0000
0000
0330
,
2002
0000
0000
3003
,
0100
0010
0001
0010
0100
0001
1000
0010
,
1001
0000
0000
0000
;

//---------------dance-single - K. Ward----------------
#NOTES:
     dance-single:
     K. Ward:
     Medium:
     6:
     0.320,0.389,0.100,0.127,0.000,222.000,11.000,14.000,0.000,0.000:

0000
0000
0000
0000
,
0000
0000
0000
0000
,
0000
0000
0000
0000
,
0000
0000
1000
0001
,
0010
0000
0100
0000
0010
0001
0000
0000
,
0100
0000
0010
0000
1000
0100
0000
0000
,
0010
0000
0100
0000
1000
0001
0000
0000
,
0100
0000
0010
0000
0100
0001
0010
0000
,
0000
0100
0100
0000
0000
0010
0000
0001
,
0000
1000
1000
0000
0000
0100
0000
0010
,
0000
0100
0100
0000
0000
1000
0000
0010
,
0100
0001
0010
0100
,
1001
0000
0000
0000
,
0000
0000
0000
0000
0000
0000
0000
1000
,
2000
0100
3000
0000
,
0000
0000
0000
0000
0000
0000
0000
0100
,
0200
0010
0300
0000
,
0000
0000
0000
0000
0000
0000
0000
1000
,
0100
0000
0000
0100
0010
0000
0000
0010
,
0001
1000
0010
0100
,
1001
0000
0000
0000
,
0000
0000
0000
0000
,
0010
0100
0001
0000
0010
0100
1000
0000
,
0010
0100
0020
0000
0000
0000
0031
0000
,
0100
0010
1000
0000
0100
0010
0001
0000
,
0100
0010
0200
0000
0000
0000
1300
0000
,
0010
0100
0010
0000
0001
0010
0001
0000
,
0100
1000
0200
0000
0000
0000
0310
0000
,
1000
0100
1000
0000
0010
0001
0010
0000
,
0100
0001
1000
0001
,
0000
1100
0000
0110
,
0000
0000
1001
0000
0000
0100
0100
0000
,
0000
0011
0000
1100
,
0000
0000
0110
0000
0000
0001
0001
0000
,
0000
1000
1000
0000
0000
0010
0010
0000
,
0000
0100
0100
0000
0000
0001
0001
0000
,
0000
1000
0000
0110
,
0000
0010
0100
1001
,
0000
1000
0000
0001
,
0000
0000
1000
0100
0000
0000
1000
0000
,
0000
0001
0000
0001
,
0000
1000
0100
0000
0000
0100
0010
0000
,
0000
0100
1000
0000
0010
0001
0010
0000
,
1000
0000
0001
0010
0000
0000
0000
0000
,
0001
0001
0001
0000
0000
0000
0000
0000
,
1000
1000
1000
0000
0000
0000
0000
0000
,
0010
0001
0100
1000
,
0010
0100
0010
0100
,
1000
0010
0001
1000
,
0100
0010
0100
0000
1000
0000
0010
0000
,
0001
0000
0100
0000
0000
0010
0010
0000
,
0000
1000
1000
0000
0000
0100
0010
0000
,
0000
0010
0100
0000
0000
1000
0001
0000
,
0000
0100
0010
0100
0000
0001
1000
0001
,
0010
0000
0010
0000
0010
0001
0010
0000
,
0200
0000
0320
0000
,
0031
0000
1000
0000
0100
0010
0100
0000
,
2000
0000
0000
0001
0002
0000
3000
0000
,
0103
0100
0100
0000
0010
0000
1000
0000
,
0001
0010
0000
0010
0001
0000
0000
0000
,
1000
0100
0010
0000
0001
0000
1000
0000
,
0010
0100
0010
0200
0010
0000
0310
0000
,
2000
0000
0020
3000
,
0200
0030
0002
0300
,
1003
0000
0000
0000
,
0100
0010
0001
0000
0010
0100
0010
0000
,
1001
0000
0000
0000
;

//---------------dance-single - K. Ward----------------
#NOTES:
     dance-single:
     K. Ward:
     Easy:
     3:
     0.248,0.300,0.100,0.127,0.000,166.000,11.000,14.000,0.000,0.000:












0000
0000
0000
0000
,
0000
0000
0000
0000
,
0000
0000
0000
0000
,
0000
0000
0110
0000
,
1001
0001
0001
0000
,
1000
1000
1000
0000
,
0010
0100
0001
0000
,
1000
0100
0010
0100
,
2000
0000
3100
0000
,
0002
0000
0013
0000
,
0200
0000
0310
0000
,
1000
0001
0010
0100
,
1001
0000
0000
0000
,
0000
0000
0000
0000
,
0200
0000
0000
0000
,
0310
0000
0000
0000
,
0002
0000
0000
0000
,
1003
0000
0000
0000
,
0010
0001
0100
1000
,
0010
0100
0001
0010
,
1001
0000
0000
0000
,
0000
0000
0000
0000
,
0001
0010
0001
0100
,
0001
0001
0001
0000
,
1000
0100
1000
0010
,
0100
0100
0100
0000
,
0001
0000
0001
0000
0010
0001
0010
0000
,
0001
1000
1000
0000
,
0010
0000
0100
0000
0001
0010
0001
0000
,
1000
0000
0010
0100
,
1001
0000
1100
0000
,
0011
0000
0110
0000
,
0001
0000
1000
0000
0010
0100
0010
0000
,
0100
0000
0100
0000
,
0001
0010
0001
0000
,
1000
0000
0001
0000
,
0100
0100
0010
0000
,
0010
0001
0100
1000
,
1001
0000
1000
0000
,
0001
0000
1000
0000
,
0001
0000
1000
0000
,
0001
0000
0100
0010
,
1000
0001
0000
0010
,
0000
0100
0000
0010
,
0000
0100
0000
0010
,
0000
0100
0100
1000
,
0002
0000
0013
0000
,
2000
0000
3100
0000
,
0002
0000
0013
0000
,
2000
0000
3100
0000
,
0010
0100
1000
0000
,
0010
0001
0010
0000
,
0100
0010
0001
1000
,
0010
0000
0100
0000
0002
0000
0000
1003
,
0100
0100
0100
0000
,
2000
0000
3002
0000
,
0103
0100
0100
0000
,
0010
0000
1001
0000
,
0010
0100
0010
0000
1000
0000
0000
0000
,
0001
0010
0001
0000
,
1000
1000
0001
0010
,
0100
0010
0001
1000
,
0200
0000
0300
0000
,
2000
0000
3000
0000
,
0010
0000
0100
0000
,
0010
0001
0100
1000
,
1001
0000
0000
0000
;

//---------------dance-single - K. Ward----------------
#NOTES:
     dance-single:
     K. Ward:
     Beginner:
     1:
     0.092,0.150,0.073,0.000,0.000,63.000,8.000,0.000,0.000,0.000:







0000
0000
0000
0000
,
0000
0000
0000
0000
,
0000
0000
0000
0000
,
0000
0000
0000
0000
,
1000
0000
0000
0000
,
0001
0000
0000
0000
,
0001
0000
0000
0000
,
1000
0000
0000
0000
,
0010
0000
0010
0000
,
0000
0000
0000
0000
,
0100
0000
0100
0000
,
0000
0000
0000
0000
,
0001
0000
0000
0000
,
1000
0000
0000
0000
,
0010
0000
0000
0000
,
0100
0000
0000
0000
,
0001
0000
0000
0000
,
1000
0000
0000
0000
,
1000
0000
0000
0000
,
1001
0000
0000
0000
,
1001
0000
0000
0000
,
0000
0000
0000
0000
,
0010
0000
0010
0000
,
0000
0000
0000
0000
,
0100
0000
0100
0000
,
0000
0000
0000
0000
,
0010
0000
0010
0000
,
0000
0000
0000
0000
,
1000
0000
0001
0000
,
0000
0000
0000
0000
,
1001
0000
0000
0000
,
0001
0000
0000
0000
,
1001
0000
0000
0000
,
1000
0000
0000
0000
,
0010
0000
0000
0000
,
0100
0000
0000
0000
,
0010
0000
0000
0000
,
1000
0000
0001
0000
,
1001
0000
0000
0000
,
0001
0000
0000
0000
,
0001
0000
0000
0000
,
0001
0000
0000
0000
,
1000
0000
0000
0000
,
1000
0000
0000
0000
,
1000
0000
0000
0000
,
1000
0000
0000
0000
,
0010
0000
0010
0000
,
0000
0000
0000
0000
,
0010
0000
0010
0000
,
0000
0000
0000
0000
,
0010
0000
0010
0000
,
0000
0000
0000
0000
,
0100
0000
0100
0000
,
0010
0000
0010
0000
,
1000
0000
0000
0000
,
0001
0000
0000
0000
,
0001
0000
0000
0000
,
1000
0000
0000
0000
,
0100
0000
0000
0000
,
0010
0000
0000
0000
,
0010
0000
0000
0000
,
0100
0000
0000
0000
,
1001
0000
0000
0000
,
0000
0000
0000
0000
,
0110
0000
0000
0000
,
0000
0000
0000
0000
,
1001
0000
0000
0000
;

//---------------dance-double - M. Emirzian----------------
#NOTES:
     dance-double:
     M. Emirzian:
     Easy:
     2:
     0.113,0.150,0.018,0.018,0.000,83.000,2.000,2.000,0.000,0.000:












00000000
00000000
00000000
00000000
,
00000000
00000000
00000000
00000000
,
00000000
00000000
00000000
00000000
,
00000000
00000000
00000000
00000000
,
00000001
00000000
00000000
00000000
,
00000100
00000000
00000000
00000000
,
00010000
00000000
00000000
00000000
,
10000000
00000000
00000000
00000000
,
00001000
00000000
00000000
00000000
,
00000100
00000000
00000000
00000000
,
00000001
00000000
00000000
00000000
,
00010000
00000000
00001000
00000000
,
01000000
00000000
00000000
00000000
,
00000000
00000000
00000000
00000000
,
10000000
00000000
00000000
00000000
,
00000000
00000000
00000000
00000000
,
00001000
00000000
00000000
00000000
,
00000000
00000000
00000000
00000000
,
00000001
00000000
00000000
00000000
,
00000000
00000000
00000000
00000000
,
00002200
00000000
00000000
00000000
,
00000000
00000000
00000000
00003300
,
00000001
00000000
00001000
00000000
,
00000100
00000000
00010000
00000000
,
00000000
00000000
00001000
00000000
,
01000000
00000000
00010000
00000000
,
00000000
00000000
10000000
00000000
,
01000000
00000000
10000000
00000000
,
00000000
00000000
00010000
00000000
,
01000000
00000000
00001000
00000000
,
00000000
00000000
00010000
00000000
,
00000010
00000000
00001000
00000000
,
00000000
00000000
00000001
00000000
,
00000010
00000000
00000100
00000000
,
00000000
00000000
00010000
00000000
,
00001000
00000000
00000100
00000000
,
00000000
00000000
00001000
00000000
,
00010000
00000000
00100000
00000000
,
10000000
00000000
00000000
00000000
,
00010000
00000000
00000000
00000000
,
01000000
00000000
00000000
00000000
,
00001000
00000000
00000000
00000000
,
00000001
00000000
00000000
00000000
,
00000010
00000000
00000000
00000000
,
01000000
00000000
00000000
00000000
,
00010000
00000000
00000000
00000000
,
00100000
00000000
00001000
00000000
,
00010000
00000000
00001000
00000000
,
01000000
00000000
00001000
00000000
,
00010000
00000000
00000010
00000000
,
00001000
00000000
00000100
00000000
,
00001000
00000000
00000001
00000000
,
00001000
00000000
00000100
00000000
,
00010000
00000000
00001000
00000000
,
00010000
00000000
00001000
00000000
,
01000000
00000000
00010000
00000000
,
00000000
00000000
10000000
00000000
,
00010000
00000000
01000000
00000000
,
00000000
00000000
00100000
00000000
,
01000000
00000000
00010000
00000000
,
00000000
00000000
00100000
00000000
,
00001000
00000000
00010000
00000000
,
00000000
00000000
00000010
00000000
,
00001000
00000000
00000001
00000000
,
00000000
00000000
00000010
00000000
,
00000100
00000000
00001000
00000000
,
00011000
00000000
00000000
00000000
;

//---------------dance-double - M. Emirzian----------------
#NOTES:
     dance-double:
     M. Emirzian:
     Medium:
     5:
     0.302,0.389,0.163,0.018,0.000,213.000,18.000,2.000,0.000,0.000:












00000000
00000000
00000000
00000000
,
00000000
00000000
00000000
00000000
,
00000000
00000000
00000000
00000000
,
00000000
00000000
00000000
00000000
,
00100000
00000000
10010000
00000000
00000000
01010000
00000000
00000000
,
00001000
00000000
00011000
00000000
00000000
00010010
00000000
00000000
,
00001000
00000000
00001100
00000000
00000000
00001001
00000000
00000000
,
00000010
00000000
00001100
00000000
00000000
00010100
00000000
00000000
,
00010000
00000000
00011000
00000000
00000000
01001000
00000000
00000000
,
00100000
00000000
00110000
00000000
00000000
10010000
00000000
00000000
,
00100000
00000000
00101000
00000000
00000000
00011000
00000000
00000000
,
00010000
00001000
00011000
00001010
,
00000000
00000001
00001000
00000100
00000000
00000000
00000000
00000000
,
00000000
00010000
00001000
00000100
00000000
00000000
00000000
00000000
,
00000000
10000000
01000000
00010000
00000000
00000000
00000000
00000000
,
00000000
00010000
00001000
00000010
00000000
00000000
00000000
00000000
,
00000000
00000001
00000100
00001000
00000000
00000000
00000000
00000000
,
00000000
00000010
00010000
00001000
00000000
00000000
00000000
00000000
,
00000000
00100000
00010000
00001000
00000000
00000000
00000000
00000000
,
00000000
01000000
10000000
00010000
00000000
00000000
00000000
10000000
,
20020000
00000000
00000000
00000000
,
00000000
00000000
00000000
30030000
,
10000000
00000000
00000000
01000000
00100000
00000000
00000000
00010000
,
10000000
00000000
00000000
01000000
00010000
00000000
00000000
00000000
,
00001000
00000000
00000000
00010000
00000100
00000000
00000000
00001000
,
00000100
00000000
00000000
00000010
00000001
00000000
00000000
00000000
,
00001000
00000000
00000000
00000010
00001000
00000000
00000000
00000100
,
00010000
00000000
00000000
00001000
01000000
00000000
00000000
00000000
,
00010000
00000000
00000000
10000000
00010000
00000000
00000000
01000000
,
00100000
00000000
00000000
00001000
00010000
00000000
00000000
00000000
,
00010000
00000000
00000000
00001000
00000100
00000000
00000000
00000001
,
00001000
00000000
00000000
00000100
00000010
00000000
00000000
00000000
,
00000100
00000000
00000000
00001000
00000010
00000000
00000000
00000100
,
00000001
00000000
00000000
00000100
00001000
00000000
00000000
00000000
,
00010000
00000000
00000000
00001000
00000100
00000000
00000000
00001000
,
00010000
00000000
00000000
00100000
00010000
00000000
00000000
00000000
,
00100000
00000000
00000000
10000000
00010000
00000000
00000000
10000000
,
01000000
00000000
00000000
00100000
00010000
00000000
00000000
00000000
,
01000000
10000000
01000000
00010000
,
00100000
00000000
00000000
10000000
00000000
00000000
00000000
00000000
,
00100000
00010000
01000000
00001000
,
00010000
00000000
00000000
00000100
00000000
00000000
00000000
00000000
,
00000001
00000100
00001000
00000100
,
00000001
00000000
00000000
00000010
00000000
00000000
00000000
00000000
,
00000100
00010000
00001000
01000000
,
00100000
00000000
10000000
00000000
01000000
00000000
00100000
00010000
,
01000000
00100000
10000000
01000000
,
00010000
00000000
00000000
00001000
00000000
00000000
00000000
00000000
,
00010000
00001000
00000010
00000001
,
00000100
00000000
00000000
00000010
00000000
00000000
00000000
00000000
,
00001000
00000100
00010000
00001000
,
00100000
00000000
00000000
01000000
00000000
00000000
00000000
00000000
,
10000000
00100000
00010000
00100000
,
10000000
01000000
00100000
00010000
00100000
00001000
00010000
00000100
,
00001000
00000000
00000000
00000100
00000010
00000000
00000000
00000001
,
00001000
00000000
00000000
00000100
00010000
00000000
00001000
00000000
,
00010000
00000000
00000000
00001000
01000000
00000000
00000000
00010000
,
10000000
00000000
00000000
01000000
00100000
00000000
00010000
00000000
,
01000000
00000000
00000000
00001000
00010000
00000000
00000000
01000000
,
00010000
00000000
00000000
00001000
00000010
00000000
00001000
00000000
,
00010000
00000000
00000000
00001000
00000100
00000000
00000001
00000100
,
00000000
00000000
00000000
00000010
00001000
00000000
00000100
00000000
,
00010000
00000000
00000000
00001000
01000000
00000000
00000000
00010000
,
00100000
00000000
00000000
00010000
10000000
00000000
01000000
00000000
,
00100000
00000000
00000000
00010000
01000000
00000000
00000000
00001000
,
00010000
00000000
00000000
00000100
00001000
00000000
00000010
00000000
,
00000101
00000000
00000000
00000000
;

//---------------dance-double - M. Emirzian----------------
#NOTES:
     dance-double:
     M. Emirzian:
     Hard:
     9:
     0.530,0.569,0.572,0.091,0.259,336.000,63.000,10.000,0.000,4.000:














00000000
00000000
00000000
00000000
,
00000000
00000000
00000000
00000000
,
00000000
00000000
00000000
00000000
,
00000000
00000000
00000000
00000000
,
00000001
00000000
00000000
00000100
00000000
00000000
00001000
00000000
00000010
00000000
00010000
00001000
00000000
00000000
00000010
00000000
,
00000001
00000000
00000000
00001000
00000000
00000000
00000100
00000000
00000001
00000000
00001000
00000010
00000000
00000000
00001000
00000000
,
01000000
00000000
00000000
00100000
00000000
00000000
00010000
00000000
10000000
00000000
01000000
00010000
00000000
00000000
10000000
00000000
,
01000000
00000000
00000000
00010000
00000000
00000000
00000100
00000000
00010000
00000000
00100000
00010000
00000000
00000000
00001000
00000000
,
00000010
00000000
00000000
00001000
00000000
00000000
01000000
00000000
10000000
00000000
00010000
00100000
00000000
00000000
00010000
00000000
,
00001000
00000000
00000000
00000010
00000000
00000000
00000001
00000000
00001000
00000000
00000100
00010000
00000000
00000000
00001000
00000000
,
00000100
00000000
00000000
00001000
00000000
00000000
00010000
00000000
00100000
00000000
01000000
00010000
00000000
00000000
10000000
00000000
,
10010000
00110000
01001000
00010010
,
00000000
00001100
00000000
00000000
00010100
00000000
00000000
00000000
00000000
00000000
00000000
00000000
00000000
00000000
00000000
00000000
,
00000000
00000011
00000000
00000000
00000000
00000000
00000000
00000000
,
00000000
01001000
00000000
00000000
00011000
00000000
00000000
00000000
00000000
00000000
00000000
00000000
00000000
00000000
00000000
00000000
,
00000000
01000100
00000000
00000000
00000000
00000000
00000000
00000000
,
00000000
00010010
00000000
00000000
00001100
00000000
00000000
00000000
00000000
00000000
00000000
00000000
00000000
00000000
00000000
00000000
,
00000000
10010000
00000000
00000000
00000000
00000000
00000000
00000000
,
00000000
00000011
00000000
00000000
00010100
00000000
00000000
00000000
00000000
00000000
00000000
00000000
00000000
00000000
00000000
00000000
,
00000000
00100010
00000000
00000000
00000000
00000000
10000000
00001000
,
00022000
00000000
00000000
00000000
,
00000000
00000000
00000000
00000000
00000000
00000000
00000000
00000000
00033000
00000000
00000000
00000000
00000100
00000010
00000001
00000010
,
00000001
00000000
00000100
00000000
00000010
00000000
00001000
00000000
00000100
00000000
00000001
00000100
00000000
00000000
00010000
00000000
,
00001000
00000000
01000000
10000000
00000000
00000000
01000000
00000000
00010000
00000000
10000000
01000000
00000000
00000000
01100000
00000000
,
00000000
00000000
10010000
00000000
00000000
00000000
00100000
00000000
00010000
00000000
01000000
00001000
00000000
00000000
00010000
00000000
,
00000100
00000000
00001000
00000001
00000000
00000000
00000010
00000000
00000100
00000000
00001000
00000001
00000000
00000000
00001100
00000000
,
00000000
00000000
00010010
00000000
00000000
00000000
00001000
00000000
00000100
00000000
00001000
00000100
00000000
00000000
00001000
00000000
,
00010000
00000000
00100000
00010000
00000000
00000000
00100000
00000000
10000000
00000000
01000000
00100000
00000000
00000000
00110000
00000000
,
00000000
00000000
01001000
00000000
00000000
00000000
00100000
00000000
00010000
00000000
00001000
00010000
00000000
00000000
00000100
00000000
,
00010100
01000100
00011000
00010001
,
00001000
00000000
00000100
00000000
00000001
00000000
00000100
00000000
00001000
00000000
00000001
00000100
00000000
00000000
00000010
00000000
,
00001000
00000000
00000100
00010000
00000000
00000000
00100000
00000000
00010000
00000000
00001000
00010000
00000000
00000000
01001000
00000000
,
00000000
00000000
00110000
00000000
00000000
00000000
01000000
00000000
10000000
00000000
00010000
01000000
00000000
00000000
10000000
00000000
,
00010000
00000000
00100000
10000000
00000000
00000000
01000000
00000000
00010000
00000000
00001000
01000000
00000000
00000000
00010010
00000000
,
00000000
00000000
00001100
00000000
00000000
00000000
00000001
00000000
00000100
00000000
00001000
00000001
00000000
00000000
00000010
00000000
,
00001000
00000000
00010000
00000100
00000000
00000000
00010000
00000000
00100000
00000000
10000000
00010000
00000000
00000000
01100000
00000000
,
00000000
00000000
10010000
00000000
00000000
00000000
00100000
00000000
01000000
00000000
00001000
00010000
00000000
00000000
00000100
00000000
,
01001000
00011000
00010010
00001001
,
00000000
00000200
00000000
00002000
,
00000000
00000000
00010010
00003300
00000000
00000000
00020000
00000000
,
00000000
00000000
02000000
00000000
00000000
00000000
00101000
03030000
,
00000000
01000000
00011000
00000001
,
00001100
00000020
00000000
00002000
,
00000000
00000000
00010100
00003030
00000000
00000000
00002000
00000000
,
00000000
00000200
00000000
00013310
,
00000000
01001000
00010000
00101000
,
00010000
10000000
01000000
00010000
10000000
00100000
00001000
00100000
,
00010000
01000000
10000000
01000000
00001000
01000000
00100000
00010000
,
00001000
00010000
00000010
00000001
00001000
00000100
00000001
00010000
,
00000100
00000010
00000100
00001000
00000100
00000001
00000100
00000010
,
00000001
00000100
00001000
00000001
00000010
00010000
00100000
10000000
,
00010000
01000000
10000000
00010000
00001000
00000001
00000100
00001000
,
00000001
00000100
00001000
00000100
00000010
00010000
00001000
01000000
,
00110000
00000000
01001000
00000000
00001100
00000000
00001001
00000110
,
00000001
00000000
00001000
00000000
00000100
00000000
00000001
00000000
00000100
00000000
00010000
00001000
00000000
00000000
00000100
00000000
,
00001000
00000000
00010000
00000100
00000000
00000000
00010000
00000000
01000000
00000000
00100000
00010000
00000000
00000000
01010000
00000000
,
00000000
00000000
10010000
00000000
00000000
00000000
01000000
00000000
00100000
00000000
00010000
01000000
00000000
00000000
00001000
00000000
,
00010000
00000000
00100000
00010000
00000000
00000000
00001000
00000000
00010000
00000000
00000100
00000010
00000000
00000000
00001100
00000000
,
00000000
00000000
00000110
00000000
00000000
00000000
00000001
00000000
00000100
00000000
00000010
00001000
00000000
00000000
00000100
00000000
,
00010000
00000000
00001000
01000000
00000000
00000000
00100000
00000000
10000000
00000000
00010000
00100000
00000000
00000000
10010000
00000000
,
00000000
00000000
01100000
00000000
00000000
00000000
01000000
00000000
00010000
00000000
00001000
00010000
00000000
00000000
00000010
00000000
,
00001000
00000000
00000100
00000010
00000000
00000000
00000001
00000000
00001000
00000000
00000010
00000100
00000000
00000000
00000001
00000000
,
00001000
00000000
00000000
00001100
00000000
00000000
00000000
00000000
00000000
00000000
10100000
00000000
00000000
00000000
00000000
00000000
,
00000000
00000000
00000000
00001010
00000000
00000000
00000000
00000000
00000000
00000000
11000000
00000000
00000000
00000000
00000000
00000000
,
00000000
00000000
00000000
00001001
00000000
00000000
00000000
00000000
00000000
00000000
10010000
00000000
00000000
00000000
00000000
00000000
,
00001000
00000000
00000010
00000000
00000001
00000000
00001000
00000000
00000100
00000000
00000001
00000000
00000100
00001000
00000100
00001000
,
00001001
00000000
00000000
00000000
;

//---------------dance-double - M. Emirzian----------------
#NOTES:
     dance-double:
     M. Emirzian:
     Challenge:
     11:
     0.773,0.869,0.100,0.127,0.713,571.000,11.000,14.000,0.000,6.000:



00000000
00000000
00000000
00000000
,
00000000
00000000
00000000
00000000
,
00000000
00000000
00000000
00000000
,
00000000
00000000
00000000
00000000
,
00001000
00000000
01000000
00100000
10000000
00000000
01000000
00100000
00001000
00000000
00100000
00001000
00010000
00000000
00000100
00010000
,
00001000
00000000
00000100
00000001
00001000
00000000
00000100
00000010
00000001
00000000
00000010
00001000
00000010
00000000
00000001
00001000
,
00000100
00000000
00010000
00001000
01000000
00000000
00100000
10000000
01000000
00000000
00100000
00001000
00010000
00000000
00001000
00010000
,
00100000
00000000
10000000
00010000
01000000
00000000
00001000
00010000
00000100
00000000
00000010
00000100
00001000
00000000
00000001
00000100
,
00001000
00000000
00000100
00001000
00010000
00000000
00001000
00010000
00100000
00000000
10000000
01000000
00010000
00000000
01000000
10000000
,
00010000
00000000
01000000
00100000
00010000
00000000
00001000
00010000
00100000
00000000
00010000
00001000
01000000
00000000
00010000
00000100
,
00001000
00000000
00000010
00000100
00000001
00000000
00000010
00000100
00001000
00000000
00000001
00000100
00001000
00000000
00000100
00000001
,
00001000
00000100
00000010
00000100
00001000
00000010
00001000
00000100
00010000
00001000
00010000
00001000
01000000
00010000
10000000
01000000
,
00100000
00000000
00000000
10010000
00000000
00000000
00100000
00000000
01000000
00000000
00010000
10000000
00000000
00000000
01000000
00000000
,
00010000
00000000
00000000
00000100
00000000
00000000
00000001
00000000
00001000
00000000
00000010
00000001
00000000
00000000
00001000
00000000
,
00000010
00000000
00000000
00010000
00000000
00000000
00100000
00000000
10000000
00000000
01000000
00100000
00000000
00000000
01000000
00000000
,
00010000
00000000
00000000
00000010
00000000
00000000
00010000
00000000
00001000
00000000
00000100
00000001
00000000
00000000
00001000
00000000
,
00000100
00000000
00000000
00010000
00000000
00000000
00000100
00000000
00001000
00000000
00000001
00000100
00000000
00000000
00001000
00000000
,
00010000
00000000
00000000
00100000
00000000
00000000
10000000
00000000
01000000
00000000
00100000
00001000
00000000
00000000
01000000
00000000
,
00100000
00000000
00000000
00010000
00000000
00000000
00100000
00000000
01000000
00000000
00001000
00010000
00000000
00000000
00000100
00000000
,
00000010
00000000
00000000
00000001
00000000
00000000
00001000
00000000
00000010
00000000
00000100
00000000
00000001
00001000
00000100
00000010
,
00002002
00000000
00000000
00000000
,
00000000
00000000
00000000
00000000
00000000
00000000
00000000
00000000
00003003
00000000
00000000
00000000
01000000
00100000
10000000
01000000
,
00100000
00000000
00010000
10000000
00100000
00000000
01000000
00001000
00010000
00000000
00001000
01000000
00100000
00000000
01000000
00010000
,
10000000
00000000
01000000
00010000
00001000
00000000
00010000
00000010
00001000
00000000
00000010
00001000
00000100
00000000
00000001
00000100
,
00000010
00000000
00000001
00001000
00000010
00000000
00000001
00000010
00000001
00000000
00000010
00001000
00000001
00000000
00000010
00000100
,
00010000
00000000
00001000
01000000
00100000
00000000
01000000
00001000
00010000
00000000
01000000
10000000
00010000
00000000
10000000
00100000
,
00010000
00000000
00001000
00000000
01000000
00000000
00001000
00000000
00010000
00000000
00001000
00100000
00000000
00000000
01000000
00000000
,
00010000
00000000
00001000
00000100
00000000
00000000
00000001
00000000
00001000
00000000
00000100
00000010
00000000
00000000
00000001
00000000
,
00001000
00000000
00000100
00010000
00000000
00000000
00001000
00000000
00000100
00000000
00001000
00000000
00010000
00000000
00100000
00000000
,
10000000
00010000
10000000
00010000
00100000
01000000
00100000
00010000
00100000
00001000
00010000
00000010
00001000
00000100
00000010
00000001
,
00000100
00000000
00000010
00001000
00000001
00000000
00000010
00000100
00001000
00000000
00000001
00000100
00001000
00000000
00000100
00001000
,
00010000
00000000
00001000
00010000
00100000
00000000
00010000
00100000
10000000
00000000
10000000
01000000
00100000
00000000
00001000
01000000
,
00100000
00000000
00010000
00001000
00100000
00000000
01000000
00010000
00001000
00000000
00000010
00000100
00001000
00000000
00000001
00010000
,
00001000
00000000
00010000
00000100
00001000
00000000
00000010
00000100
00001000
00000000
00010000
00000100
00001000
00000000
00000010
00000100
,
00001000
00000000
00010000
00000000
00000100
00000000
00010000
00000000
00001000
00000000
01000000
00100000
00000000
00000000
01000000
00000000
,
00010000
00000000
10000000
01000000
00000000
00000000
00100000
00000000
00001000
00000000
00000100
00000010
00000000
00000000
00000100
00000000
,
00000001
00000000
00001000
00000100
00000000
00000000
01000000
00000000
00001000
00000000
00010000
00000000
00100000
00000000
10000000
00000000
,
00010000
00100000
00010000
00100000
01000000
10000000
00010000
01000000
00001000
00010000
00001000
00000100
00000001
00001000
00000100
00001000
,
00000001
00000010
00001000
00000001
00000100
00001000
00100000
01000000
,
00001000
00000010
00000001
00001000
00000010
00000001
00000010
00100000
,
00001000
00010000
00001000
00000100
00000001
00001000
00000010
00000100
,
00000002
00000000
00000000
00000000
00002000
00000000
00000000
00000000
00000110
00003003
00000000
00000000
00000000
00000000
00000000
00000000
,
00000010
00001000
00000100
00000001
00000100
00010000
00100000
10000000
,
00010000
01000000
10000000
01000000
00001000
00000100
00001000
00010000
,
00100000
00010000
00001000
00000010
00000001
00010000
00000001
00000100
,
00002000
00000200
00013310
00000000
,
00000100
00010000
01000000
10000000
00010000
00100000
10000000
00100000
,
00001000
00010000
00000010
00000100
00001000
00000100
00000001
00010000
,
00000100
00001000
00000010
00010000
00100000
00010000
00001000
01000000
,
00200000
00000000
00000000
00000000
00020000
00000000
00000000
00000000
01001000
00330000
00000000
00000000
00000000
00000000
00000000
00000000
,
00010000
10000000
01000000
00010000
01000000
00100000
00000100
00001000
,
00000001
00000100
00001000
00000001
00000010
00010000
00000100
00000010
,
00001000
00010000
00000100
01000000
00100000
00010000
00001000
00100000
,
00001000
00010000
00001000
00010000
00001000
01000000
00010000
10000000
01000000
00100000
00010000
10000000
00100000
01000000
00010000
00000000
,
00010000
00000000
10000000
01000000
00010000
00000000
01000000
00100000
00010000
00000000
01000000
00100000
10000000
00000000
00010000
01000000
,
00001000
00000000
01000000
00010000
00100000
00000000
00001000
00010000
00000100
00000000
00000010
00000100
00001000
00000000
00000010
00000100
,
00000001
00000000
00000100
00000010
00001000
00000000
00000010
00010000
00001000
00000000
00000100
00001000
00000100
00000000
00001000
00010000
,
00001000
00000000
00010000
00100000
00010000
00000000
00100000
10000000
00010000
00000000
10000000
01000000
00010000
00000000
01000000
00010000
,
00001000
00000000
00000100
00000000
00000001
00000000
00001000
00000000
00000100
00000000
00000010
00000100
00000000
00000000
00001000
00000000
,
00000001
00000000
00000100
00001000
00000000
00000000
01000000
00000000
10000000
00000000
01000000
00010000
00000000
00000000
10000000
00000000
,
00100000
00000000
00010000
00001000
00000000
00000000
00100000
00000000
01000000
00000000
10000000
00000000
00100000
00000000
01000000
00000000
,
00010000
10000000
01000000
00100000
00010000
00100000
00001000
00010000
00001000
00010000
00000010
00001000
00000100
00000010
00000001
00000100
,
00000010
00000000
00000000
00002200
00000000
00000000
00000000
00000000
00000000
00000000
00013301
00000000
00000000
00000000
00000000
00000000
,
00000000
00000000
00000000
00022000
00000000
00000000
00000000
00000000
00000000
00000000
01000100
00033000
00000000
00000000
00000000
00000000
,
00000000
00000000
00000000
20020000
00000000
00000000
00000000
00000000
00000000
00000000
01100000
30030000
00000000
00000000
00000000
00000000
,
10000000
00100000
10000000
01000000
00100000
00001000
00010000
00001000
00000100
00000001
00001000
00000010
00001000
00000001
00001000
00000001
,
00000010
00000000
00000000
00000000
;

//---------------dance-single - K. Ward----------------
#NOTES:
     dance-single:
     K. Ward:
     Challenge:
     10:
     0.735,0.809,0.036,0.145,0.604,547.000,4.000,16.000,0.000,0.000:












0000
0000
0000
0000
,
0000
0000
0000
0000
,
0000
0000
0000
0000
,
0000
0000
0000
0000
,
1000
0000
0010
0100
0001
0000
0100
0010
1000
0000
0010
1000
0002
0000
0000
0000
,
0013
0000
0100
1000
0010
0000
0100
0010
0100
0000
0001
1000
0200
0000
0000
0000
,
0310
0000
0001
1000
0100
0000
0010
0100
1000
0000
0010
0100
0002
0000
0000
0000
,
0103
0010
0000
0010
1000
0000
0010
0000
0100
0000
0001
0000
0011
0000
0000
0000
,
1000
0000
0100
1000
0001
0000
1000
0001
0010
0000
0001
0010
0001
0000
0100
0000
,
1000
0000
0100
0010
1000
0000
0001
0100
0010
0000
1000
0000
0001
0000
1000
0000
,
1000
0000
0100
0010
0001
0000
0100
0010
1000
0000
0001
0000
0001
0000
1000
0000
,
1000
0100
1000
0100
0010
0100
0010
0100
1000
0010
1000
0010
0100
0010
0100
0010
,
0100
0000
0000
0000
0000
0000
0010
0000
1000
0000
0001
0010
0000
0000
0001
0000
,
0100
0000
0000
0000
0000
0000
1000
0000
0100
0000
0010
0100
0000
0000
0001
0000
,
1000
0000
0000
0000
0000
0000
0100
0000
1000
0000
0010
0001
0000
0000
0010
0000
,
0100
0000
0000
0000
0000
0000
0001
0000
1000
0000
0100
0010
0000
0000
0100
0000
,
1000
0000
0000
0001
0000
0000
0100
0000
0010
0000
0001
0010
0000
0000
0100
0000
,
0001
0000
0000
1000
0000
0000
0100
0000
0010
0000
0100
1000
0000
0000
0010
0000
,
0001
0000
0000
0010
0000
0000
0100
0000
0001
0000
1000
0100
0000
0000
0010
0000
,
0100
0000
0000
1000
0000
0000
0010
0000
0100
0000
0001
1000
0000
0000
0000
0000
,
0002
2000
0000
0000
0000
0000
0000
0000
0000
0000
0000
0000
0000
0000
0000
0000
,
3003
0000
0000
0000
0000
0000
0000
0000
0000
0000
0000
0000
0100
1000
0100
1000
,
0001
0000
0010
0001
1000
0000
0100
0010
0001
0000
1000
0000
0010
0000
0000
0000
,
0100
0000
0010
1000
0100
0000
0010
0100
2000
0000
0100
0000
3100
0000
0000
0000
,
0001
0000
0100
0010
1000
0000
0010
0100
0001
0000
1000
0000
1000
0000
0001
0000
,
0100
0000
0010
1000
0100
0000
0010
0100
1000
0000
0010
0000
0110
0000
0000
0000
,
1000
0000
0010
0000
0100
0000
0010
0000
0001
0000
0010
1000
0000
0000
0100
0000
,
0010
0000
0100
1000
0000
0000
0001
0000
0010
0000
0001
0000
0001
0000
0000
0000
,
0100
0000
0010
0000
1000
0000
0010
0000
0100
0000
0001
0010
0000
0000
0001
0000
,
0100
0010
0100
0010
1000
0100
1000
0001
1000
0100
1000
0100
0010
0100
0010
0100
,
1000
0000
0001
0010
0001
0000
0100
0010
1000
0000
0010
0100
0001
0000
1000
0100
,
1000
0000
0010
0100
0001
0000
1000
0100
1000
0000
0010
0100
0001
0000
0010
0000
,
0001
0000
1000
0100
1000
0000
0010
0100
0001
0000
0010
0100
0010
0000
0001
1000
,
0100
0000
0010
0100
1000
0000
0010
0100
0001
0000
1000
0000
1000
0000
0010
0100
,
0001
0000
0010
0000
0001
0000
0010
0000
0100
0000
1000
0100
0000
0000
0010
0000
,
0001
0000
0100
1000
0000
0000
0100
0000
0010
0000
1000
0001
0000
0000
0010
0000
,
0100
0000
1000
0000
0001
0000
0001
0000
0100
0000
1000
0100
0000
0000
0001
0000
,
1000
0010
1000
0010
0100
0010
0100
0010
1000
0010
1000
0010
2000
0000
0000
0000
,
3001
0001
0010
0100
1000
0010
0001
0010
,
1000
0100
0010
0001
1000
0010
0100
1000
,
0100
0000
0001
0000
0010
0000
0001
1000
0100
0000
0010
0000
0100
0000
1000
0000
,
0010
0100
0000
0100
0001
0000
0010
0000
0100
0000
0010
0000
0011
0000
0000
0000
,
1000
1000
0010
0100
0010
0001
0010
0100
,
1000
0100
0001
0010
0100
0010
0001
1000
,
0100
0000
1000
0000
1000
0000
0000
0000
0001
0010
0001
0010
0001
0000
0000
0000
,
0100
0010
0000
0010
0100
0000
0001
0000
1000
0000
0001
0000
0001
0000
0000
0000
,
0100
1000
0100
0010
0001
0010
0100
1000
,
0100
0001
0010
0001
0001
1000
0100
0010
,
0100
0100
1000
0001
0001
0100
0100
0010
,
1000
0000
1000
0000
0001
0000
0001
0000
0100
0000
1000
0000
0100
0000
0001
0010
,
0001
1000
0100
0100
0010
0001
1000
1000
,
0010
0001
0010
0100
1000
0100
0001
0010
,
0001
0001
0100
0100
0001
0001
1000
1000
,
0010
0100
0010
0100
0001
0100
0001
0100
0010
0100
0010
0100
0001
0100
0001
0000
,
0010
0000
0100
0001
0010
0000
0001
1000
0100
0000
1000
0010
0100
0000
0001
0010
,
0001
0000
1000
0100
1000
0000
0010
0100
0001
0000
1000
0000
1000
0000
0000
0000
,
0010
0000
0100
0001
0010
0000
0001
1000
0100
0000
0010
0100
1000
0000
0010
0100
,
0001
0000
0010
0001
1000
0000
0100
0000
0010
0001
0000
0001
0010
0000
0000
0000
,
0001
0000
0100
0010
1000
0000
0010
0100
0001
0000
1000
0100
1000
0000
0010
0100
,
0001
0000
1000
0100
0000
0000
0010
0000
0001
0000
0100
1000
0000
0000
0000
0000
,
0100
0000
0010
0100
0001
0000
0010
0001
1000
0000
0010
0100
0001
0000
1000
0000
,
0010
0100
0001
1000
0100
0010
0100
1000
0010
0100
0001
0010
0001
0000
1000
0000
,
2000
0000
0000
0020
0000
0000
0000
0000
3000
0000
0230
0000
0000
0000
0000
0000
,
0302
0020
0003
0001
0000
0230
0000
0000
,
2300
0000
0000
0002
0000
0000
0000
3000
0000
0000
0020
0000
0000
0000
0003
0000
,
0031
1000
0001
0000
0100
0010
0100
0000
0001
1000
0001
1000
0010
0000
0100
0000
,
1001
0000
0000
0000
;
