#TITLE:Planet Gemini;
#SUBTITLE:-OMG WTF DDR Mix-;
#ARTIST:Michael Angelo Batio;
#TITLETRANSLIT:;
#SUBTITLETRANSLIT:;
#ARTISTTRANSLIT:;
#CREDIT:;
#BANNER:gemini-banner.png;
#BACKGROUND:gemini-bg.png;
#LYRICSPATH:;
#CDTITLE:;
#MUSIC:michael angelo - planet gemini.mp3;
#OFFSET:0.260;
#SAMPLESTART:29.133;
#SAMPLELENGTH:12.000;
#SELECTABLE:YES;
#BPMS:0.000=198.000,385.000=195.000,455.000=198.000,577.000=202.000,704.000=198.000;
#STOPS:;
#BGCHANGES:;
// cache tags:
#FIRSTBEAT:1.000;
#LASTBEAT:881.500;
#SONGFILENAME:Songs/hard shit/gemini/gemini.sm;
#HASMUSIC:1;
#HASBANNER:1;
#MUSICLENGTH:279.222;
// end cache tags

//---------------dance-single - ----------------
#NOTES:
     dance-single:
     :
     Challenge:
     1:
     1.000,1.000,0.193,0.663,1.000,1834.000,54.000,185.000,35.000,6.000:


0000
0000
1000
0001
0100
0100
0001
0000
,
0001
0010
0100
1000
0001
0001
1000
0000
,
1000
0010
0100
0001
0010
0010
0100
0000
,
1000
0000
0001
1000
0001
0000
1000
0100
1000
0000
0010
1000
0010
0000
0100
0000
,
0100
0110
0000
0001
0010
0100
1000
0000
,
1000
0010
0100
0001
0100
0100
0010
0000
,
1000
0100
0001
0100
1000
1000
0001
0000
,
1000
0000
0001
0100
0001
0000
0010
0100
0010
0000
1000
0100
1000
0000
0001
0000
,
0001
1001
0000
0001
0100
0010
1000
0000
,
1000
0010
0001
0010
1000
1000
0001
0000
,
1000
0100
0010
0001
0010
0010
0100
0000
,
1000
0000
0001
0100
0001
0000
1000
0100
1000
0000
0100
0010
0100
0000
0100
0000
,
0100
1100
0000
0001
1000
0010
0100
0000
,
0001
0100
0010
1000
0100
0100
0010
0000
,
0001
0010
0100
1000
0010
0010
0100
0000
,
0001
0000
1000
0001
1000
0000
0010
0100
0010
0000
1000
0010
1000
0000
1000
0000
,
1000
1001
0000
1001
0000
0000
1000
0000
,
0000
1100
0000
0001
,
0000
0011
0000
0100
,
0000
0101
0000
0101
0000
0101
0000
0101
,
0011
1001
0000
1001
0000
0000
0000
0000
,
0000
1001
0000
0000
,
0000
1010
0000
0000
,
0000
1100
0000
1100
0000
1100
0000
1100
,
1001
2000
0000
0000
0000
0000
3020
0230
,
0302
0000
0023
0000
0230
0000
2300
0002
,
0000
0000
0000
0000
0000
0000
0000
0000
0000
0000
0000
0000
0000
0000
0000
0000
0000
0000
0000
0000
0000
0000
0000
0000
0000
0000
0000
0000
0000
0000
0000
0000
3003
0000
0000
0000
0000
0000
0000
0000
0000
0000
0000
0000
0000
0000
0000
0000
0000
0001
0000
0000
0010
0000
0000
0100
0000
0000
1000
0000
0000
0000
0000
0000
,
0001
1000
0001
1000
0001
1000
0100
2000
,
0000
0000
3200
0000
0000
0000
0320
0032
,
0000
2003
3002
2003
0000
3020
0230
0302
,
0000
0000
0000
0000
2003
0000
0000
0000
3200
0000
0000
0320
0000
0032
0000
0003
0000
0000
0000
0000
0000
0000
0000
0000
2000
0000
3200
0000
0000
0000
0000
0000
,
0000
0000
0320
0032
0000
0000
2003
0000
,
0000
3002
0000
2003
0000
3020
0000
0230
,
0000
0302
0000
0023
0000
0000
0000
0230
,
0000
0000
2300
0000
0000
3002
0000
0000
0203
0000
0000
0320
0000
0000
2030
0000
,
0000
3002
0000
0000
0023
0000
0200
0030
0000
0000
2300
0000
0000
3002
0000
0000
,
0203
0000
0010
0300
0010
0000
1000
0000
0010
0000
1000
0000
0010
0000
1000
0000
,
0010
1000
0100
1000
0100
0010
0100
0010
,
0100
0010
0001
0010
0001
0010
0100
1000
,
0010
1000
0010
1000
0010
1000
0010
1000
,
0001
1000
0001
1000
0001
1000
0001
1000
,
0001
1000
0010
1000
0010
1000
0100
1000
,
0100
0010
0100
0010
0100
0010
0001
0010
,
0001
0010
0001
0010
0100
0010
0100
0010
,
0100
1000
0100
1000
0100
1000
0010
1000
,
0010
1000
0010
0100
0010
0100
0010
1000
,
0001
1000
0001
1000
0010
1000
0010
0100
,
0010
0100
0010
0100
0001
0100
0001
0010
,
0001
0020
0000
0000
0000
0000
0000
0000
,
0000
0000
0000
0000
,
0130
0100
0200
0000
1000
0000
2300
0000
,
3001
2000
0000
0000
3002
0000
0000
0000
,
0000
0000
0000
0000
0103
0010
1000
0010
,
0200
0000
0000
0000
0300
0000
0001
0200
0000
0000
0000
0000
0000
0000
0000
0000
,
0000
0000
0000
0000
0000
0000
0000
0000
0000
0000
0000
0000
0000
0000
0000
0000
0301
0000
0000
0010
0000
0000
0100
0000
0000
1000
0000
0000
0001
0000
0000
0010
0000
0000
0100
0000
0000
1000
0000
0000
0001
0000
0000
0010
0000
0000
0100
0000
0000
1000
0000
0000
0001
0000
0000
0010
0000
0000
0100
0000
0000
1000
0000
0000
,
0100
0000
0000
0010
0000
0000
0001
0000
0000
1000
0000
0000
0100
0000
0000
0010
0000
0000
0001
0000
0000
1000
0000
0000
0100
0000
0000
0010
0000
0000
0001
0000
0000
1000
0000
0000
0100
0000
0000
0010
0000
0000
0001
0000
0000
1000
0000
0000
0100
0000
0000
0010
0000
0000
0001
0000
0000
1000
0000
0000
0100
0000
0000
0010
,
0000
0000
0001
0000
0000
1000
0000
0000
0100
0000
0000
0000
0000
0000
0000
0000
0100
0000
0000
0000
0000
0000
0000
0000
0020
0000
0000
0000
0000
0000
0000
0000
0000
0000
0000
0000
0000
0000
0000
0000
0000
0000
0000
0000
0000
0000
0000
0000
0031
0000
0000
0000
0000
0000
0000
0000
0010
0000
0000
0000
0000
0000
0000
0000
,
0200
0000
1300
0000
1000
0000
1000
0200
,
0000
0000
0000
0000
0320
0000
0000
0000
0000
0000
0030
0000
0001
0010
0100
1000
,
0010
1000
0001
1000
0010
1000
0100
2000
,
0000
0000
3002
0000
0000
0003
0002
0000
,
0000
0003
0002
0000
0000
0003
0002
0000
,
0000
0003
MMM0
M00M
M00M
MMM0
0000
MMMM
,
0MM0
0000
0MM0
0000
MMMM
0000
0000
0000
MMMM
0000
M000
0MMM
M000
0000
MMMM
0000
,
0000
0000
0000
0000
0000
0000
0000
0000
0000
0000
0000
0000
0000
0000
1000
0000
0000
0100
0000
0000
0010
0000
0000
0001
0000
0000
0100
0000
0000
0010
0000
0000
1000
0000
0000
0100
0000
0000
0010
0000
0000
0001
0000
0000
0010
0000
0000
0100
0000
0000
1000
0000
0000
0001
0000
0000
0010
0000
0000
0100
0000
0000
1000
0000
,
0000
0010
0000
0000
0100
0000
0000
0001
0000
0000
0010
0000
0000
0001
0000
0000
1000
0000
0000
0100
0000
0000
1000
0000
0000
0010
0000
0000
0100
0000
0000
0001
0000
0000
0010
0000
0000
0100
0000
0000
1000
0000
0000
0100
0000
0000
0010
0000
0000
0100
0000
0000
1000
0000
0000
0001
0000
0000
1000
0000
0000
0001
0000
0000
,
1000
0000
0000
0100
0000
0000
0010
0000
0000
0001
0000
0000
0010
0000
0000
0100
0000
0000
1000
0000
0000
0001
0000
0000
0010
0000
0000
0100
0000
0000
1000
0000
0000
0010
0000
0000
0100
0000
0000
0001
0000
0000
0010
0000
0000
0001
0000
0000
1000
0000
0000
0100
0000
0000
1000
0000
0000
0010
0000
0000
0100
0000
0000
0001
,
0000
0000
0010
0000
0000
0100
0000
0000
1000
0000
0000
0100
0000
0000
0010
0000
0000
0100
0000
0000
1000
0000
0000
0001
0000
0000
1000
0000
0000
0001
0000
0000
1000
0000
0000
0100
0000
0000
0010
0000
0000
0100
0000
0000
1000
0000
0000
0001
0000
0000
1000
0000
0000
0001
0000
0000
0100
0000
0000
0010
0000
0000
1000
0000
,
0000
0001
0000
0000
0010
0000
0000
0100
0000
0000
0010
0000
0000
0001
0000
0000
1000
0000
0000
0010
0000
0000
0100
0000
0000
0001
0000
0000
0100
0000
0000
0010
0000
0000
1000
0000
0000
0001
0000
0000
0010
0000
0000
0001
0000
0000
0010
0000
0000
0100
0000
0000
0010
0000
0000
0100
0000
0000
1000
0000
0000
0010
0000
0000
,
0100
0000
0000
0001
0000
0000
0100
0000
0000
0010
0000
0000
1000
0000
0000
0010
0000
0000
0100
0000
0000
0001
0000
0000
0010
0000
0000
0100
0000
0000
1000
0000
0000
0001
0000
0000
0010
0000
0000
0100
0000
0000
1000
0000
0000
0100
0000
0000
0010
0000
0000
0001
0000
0000
1000
0000
0000
0100
0000
0000
0010
0000
0000
0001
,
0000
0000
1000
0000
0000
0001
0000
0000
0100
0000
0000
0001
0000
0000
0010
0000
0000
0100
0000
0000
1000
0000
0000
0001
0000
0000
1000
0000
0000
0001
0000
0000
0100
0000
0000
0010
0000
0000
1000
0000
0000
0001
0000
0000
1000
0000
0000
0001
0000
0000
0010
0000
0000
0100
0000
0000
1000
0000
0000
0100
0000
0000
0010
0000
,
0000
0001
0000
0000
1000
0000
0000
0001
0000
0000
1000
0000
0000
0001
0000
0000
1000
0000
0001
0000
0000
1000
0000
0000
0001
0000
0000
0000
0000
0000
0000
0000
0001
0000
0000
0000
0000
0000
0000
0000
2000
0000
0000
0000
0000
0000
0000
0000
0000
0000
0000
0000
0000
0000
0000
0000
0000
0000
0000
0000
0000
0000
0000
0000
,
0000
3200
0000
0000
0000
0000
0000
0000
,
0320
0000
0000
0000
,
0032
0000
0000
0000
,
0203
0000
0000
0000
0000
0000
0000
0010
,
0010
0320
0000
0000
0000
0000
0000
0000
,
2030
0000
0000
0000
,
3200
0000
0000
0000
,
0000
0302
0000
0000
,
0000
0113
0000
0110
0000
0000
0000
0000
,
0000
1100
0000
0000
,
0000
1001
0000
0000
,
0000
0000
0001
1000
0001
0000
1000
0001
1000
0000
0001
1000
0001
0000
1000
0000
,
1000
1001
0000
1001
0000
0000
0000
0000
,
0000
0101
0000
0000
,
0000
0011
0000
0000
,
0000
1001
0000
1001
0000
1001
0000
1001
,
1001
2000
0000
0000
0000
0000
3020
0230
,
0302
0000
0023
0000
0230
0000
2300
3002
,
0003
0000
0000
0000
0000
0000
0000
0000
0000
0000
0000
0000
0001
0000
0000
0010
0000
0000
0100
0000
0000
1000
0000
0000
0001
0000
0000
1000
0000
0000
0010
0000
0000
0100
0000
0000
0001
0000
0000
0010
0000
0000
0100
0000
0000
1000
0000
0000
0001
0000
0000
1000
0000
0000
0001
0000
0000
0100
0000
0000
0001
0000
0000
0010
,
0000
0000
0100
0000
0000
1000
0000
0000
0001
0000
0000
1000
0000
0000
0010
0000
0000
1000
0000
0000
0100
0000
0000
0010
0000
0000
0001
0000
0000
1000
0000
0000
0100
0000
0000
0010
0000
0000
0100
0000
0000
1000
0000
0000
0010
0000
0000
0100
0000
0000
0001
0000
0000
0010
0000
0000
0100
0000
0000
1000
0000
0000
0001
0000
,
0000
1000
0000
0000
0001
0000
0000
0010
0000
0000
0100
0000
0000
1000
0000
0000
0200
0000
0000
0000
0000
0000
0000
0000
0000
0000
0000
0000
0000
0000
0000
0000
0320
0000
0000
0000
0000
0000
0000
0000
0000
0000
0000
0000
0000
0000
0000
0000
0230
0000
0000
0000
0000
0000
0000
0000
0320
0000
0000
0000
0000
0000
0000
0000
,
0230
0000
2300
0000
3020
0000
0230
0302
,
0003
0000
0000
0000
0000
0000
0000
0000
0001
0000
0000
0100
0000
0000
0001
0000
0000
0010
0000
0000
0100
0000
0000
1000
0000
0000
0100
0000
0000
0010
0000
0000
0200
0000
0000
0000
0000
0000
0000
0000
0000
0000
0000
0000
0000
0000
0000
1300
0000
0000
0100
0000
0000
0010
0000
0000
0001
0000
1000
0000
0000
0100
0000
0000
,
0010
0000
0000
0100
0000
0000
1000
0000
0000
0001
0000
0000
0100
0000
0000
0001
0000
0000
0000
0000
0000
0000
0000
0000
0001
0000
0000
0000
0000
0000
0000
0000
0001
0000
0000
0000
0000
0000
0000
0000
0001
0000
0000
0000
0000
0000
0000
0000
0001
0000
0000
0000
0000
0000
0000
0000
0001
0000
0000
0000
0000
0000
0000
0000
,
0001
0000
0001
0000
1001
0000
1001
0000
0000
0000
0000
0000
1000
0100
0010
0100
,
1000
0010
0100
0001
0010
0100
1000
0001
0100
0001
1000
0100
1000
0100
0010
0001
,
1000
0000
0000
0000
0100
0000
0000
0000
0010
0000
0000
0000
0001
0000
0000
0000
0010
0000
0000
0000
0100
0000
0000
1000
0000
0000
0100
0000
0000
1000
0000
0000
0100
0000
0000
0000
0100
0000
0000
0000
0010
0000
0000
0000
0001
0000
0000
0000
0010
0000
0000
0000
0100
0000
0000
1000
0000
0000
0100
0000
0000
1000
0000
0000
,
0100
0000
0000
0000
0100
0000
0000
0000
0010
0000
0000
0000
0001
0000
0000
0000
0010
0000
0000
0000
0100
0000
0000
1000
0000
0000
0100
0000
0000
1000
0000
0000
0200
0000
0000
0000
0000
0000
0000
0000
0000
0000
0000
0000
0000
0000
0000
0000
0000
0000
0000
0000
0000
0000
0000
0000
0000
0000
0000
0000
0000
0000
0000
0000
,
0300
0000
0000
0000
0000
0000
0000
0000
0000
0000
0000
0000
0000
0000
0000
0000
1000
0000
0000
0100
0000
0000
0010
0000
0000
0001
0000
0000
0010
0000
0000
0100
0000
0000
1000
0000
0000
0001
0000
0000
0010
0000
0000
0100
0000
0000
1000
0000
0000
0010
0000
0000
0100
0000
0000
0001
0000
0000
0010
0000
0000
0001
0000
0000
,
1000
0000
0000
0100
0000
0000
1000
0000
0000
0010
0000
0000
0100
0000
0000
0001
0000
0000
0010
0000
0000
0100
0000
0000
1000
0000
0000
0100
0000
0000
0010
0000
0000
0100
0000
0000
1000
0000
0000
0001
0000
0000
1000
0000
0000
0001
0000
0000
1000
0000
0000
0100
0000
0000
0010
0000
0000
0001
0000
0000
0010
0000
0000
0100
,
0000
0000
1000
0000
0000
0001
0000
0000
0010
0000
0000
0100
0000
0000
1000
0000
0000
0010
0000
0000
0100
0000
0000
0001
0000
0000
0010
0000
0000
0001
0000
0000
1000
0000
0000
0100
0000
0000
1000
0000
0000
0010
0000
0000
0100
0000
0000
0001
0000
0000
0010
0000
0000
0100
0000
0000
1000
0000
0000
0100
0000
0000
0010
0000
,
0000
0100
0000
0000
1000
0000
0000
0001
0000
0000
1000
0000
0000
0001
0000
0000
1000
0000
0000
0100
0000
0000
0010
0000
0000
0100
0000
0000
1000
0000
0000
0001
0000
0000
1000
0000
0000
0001
0000
0000
0100
0000
0000
0010
0000
0000
1000
0000
0000
0001
0000
0000
0010
0000
0000
0100
0000
0000
0010
0000
0000
0001
0000
0000
,
1000
0000
0000
0010
0000
0000
0100
0000
0000
0001
0000
0000
0100
0000
0000
0010
0000
0000
1000
0000
0000
0001
0000
0000
0010
0000
0000
0001
0000
0000
0010
0000
0000
0100
0000
0000
0010
0000
0000
0100
0000
0000
1000
0000
0000
0010
0000
0000
0100
0000
0000
0001
0000
0000
0100
0000
0000
0010
0000
0000
1000
0000
0000
0010
,
0000
0000
0100
0000
0000
0001
0000
0000
0010
0000
0000
0100
0000
0000
1000
0000
0000
0001
0000
0000
0010
0000
0000
0100
0000
0000
1000
0000
0000
0100
0000
0000
0010
0000
0000
0001
0000
0000
1000
0000
0000
0100
0000
0000
0010
0000
0000
0001
0000
0000
1000
0000
0000
0001
0000
0000
0100
0000
0000
0001
0000
0000
0010
0000
,
0000
0100
0000
0000
1000
0000
0000
0001
0000
0000
1000
0000
0000
0001
0000
0000
1000
0000
0000
0100
0000
0000
0010
0000
0000
0001
0000
0000
1000
0000
0000
0001
0000
0000
0100
0000
0000
0010
0000
0000
1000
0000
0000
0100
0000
0000
0010
0000
0000
0001
0000
0000
1000
0000
0000
0001
0000
0000
1000
0000
0000
0010
0000
0000
,
1000
0000
0000
0100
0000
0000
0010
0000
0000
0001
0000
0000
1000
0000
0000
0001
0000
0000
0100
0000
0000
0001
0000
0000
0010
0000
0000
0100
0000
0000
1000
0000
0000
0001
0000
0000
0010
0000
0000
0100
0000
0000
0010
0000
0000
0001
0000
0000
0100
0000
0000
0010
0000
0000
1000
0000
0000
0100
0000
0000
0010
0000
0000
0001
,
0000
0000
1000
0000
0000
0001
0000
0000
1000
0000
0000
0100
0000
0000
0010
0000
0000
0001
0000
0000
0010
0000
0000
0100
0000
0000
1000
0000
0000
0001
0000
0000
0100
0000
0000
0010
0000
0000
1000
0000
0000
0010
0000
0000
0100
0000
0000
0001
0000
0000
0010
0000
0000
0100
0000
0000
1000
0000
0000
0100
0000
0000
0010
0000
,
0000
0001
0000
0000
1000
0000
0000
0010
0000
0000
0100
0000
0000
0001
0000
0000
1000
0000
0000
0001
0000
0000
0010
0000
0000
0100
0000
0000
1000
0000
0000
0100
0000
0000
0010
0000
0000
0100
0000
0000
1000
0000
0000
0001
0000
0000
0000
0000
2000
0000
0000
0000
0000
0000
0000
0000
0000
0000
0000
0000
0000
0000
0000
0000
,
0000
0000
3100
0000
0000
0010
0000
0000
,
0001
0000
0000
0100
0000
0000
0010
0000
,
1010
0000
2000
3200
0320
0000
0032
0203
,
0320
0000
2030
0000
3002
0000
0023
0230
,
0000
0000
2300
0000
0000
0000
3001
0100
,
0001
0010
0100
0010
0001
0100
0010
2000
,
0000
0000
3200
0000
0000
0000
0310
0001
,
0010
0100
1000
0001
1000
0001
0100
0001
,
0010
0001
0100
0010
0100
0001
1000
0100
,
0010
0100
1000
0002
0000
0000
0203
0000
,
0000
0000
0300
0020
0000
1030
0100
0010
,
0001
2000
0000
0000
0000
0000
0000
3000
,
0100
0010
0001
0010
0100
1000
0100
0010
,
0001
0100
0010
1000
0010
0100
0001
2000
,
0000
0000
0000
0000
0000
0000
0000
3200
,
0000
0000
0000
0000
0000
0000
0000
0300
,
0010
0001
0010
1000
0010
0001
0100
1000
,
0100
0002
0000
0000
0000
0000
0000
0000
,
0000
0003
1000
0000
0000
0000
0100
0000
,
0000
1000
0000
0001
,
0000
0100
0000
0001
,
0000
0000
0001
0010
0100
0000
1000
0001
1000
0000
1000
0010
0100
0000
0100
0000
,
0100
0000
0001
0100
0000
0010
1000
0010
,
1000
0000
0100
0000
0010
0000
0001
0000
1000
0000
0100
0000
0010
0001
0010
0000
,
0100
0000
1000
0000
0001
0000
1000
0000
0010
1000
0010
0000
1000
0000
0001
0000
,
0100
0001
0010
0100
0001
0100
1000
0010
,
0100
0000
0000
0000
0000
0000
0000
0000
0000
0000
0000
0000
0000
0000
0000
0000
1000
0000
0000
0100
0000
0000
1000
0000
0000
0100
0000
0000
1000
0000
0000
0100
0000
0000
0000
0000
0000
0000
0000
0000
0001
0000
0000
0010
0000
0000
0001
0000
0000
0010
0000
0000
0001
0000
0000
0010
0000
0000
0000
0000
0000
0000
0000
0000
,
0001
0000
0000
0100
0000
0000
0001
0000
0000
0100
0000
0000
0001
0000
0000
0100
0000
0000
0000
0000
0000
0000
0000
0000
0010
0000
0000
1000
0000
0000
0010
0000
0000
1000
0000
0000
0010
0000
0000
1000
0000
0000
0000
0000
0000
0000
0000
0000
0010
0000
0000
0100
0000
0000
0001
0000
0000
0010
0000
0000
0100
0000
0000
1000
,
0000
0000
0010
0000
0000
0100
0000
0000
0001
0000
0000
0010
0000
0000
0100
0000
0000
1000
0000
0000
0001
0000
0000
0100
0000
0000
0010
0000
0000
1000
0000
0000
0001
0000
0000
1000
0000
0000
0001
0000
0000
0010
0000
0000
0001
0000
0000
1000
0000
0000
0001
0000
0000
1000
0000
0000
0100
0000
0000
0010
0000
0000
0100
0000
,
0000
1000
0000
0000
0001
0000
0000
0100
0000
0000
0001
0000
0000
0010
0000
0000
0001
0000
0000
0100
0000
0000
0010
0000
0000
1000
0000
0000
0001
0000
0000
1000
0000
0000
0100
0000
0000
0010
0000
0000
0100
0000
0000
1000
0000
0000
0001
0000
0000
1000
0000
0000
0000
0000
0000
0000
0000
0000
0000
0000
0000
0000
0000
0000
,
0000
0000
0000
0000
0000
0000
0000
0000
0000
0000
0000
0000
0000
0000
0000
0000
0000
0100
0000
0000
1000
0000
0000
0100
0000
0000
0010
0000
0000
0001
0000
0000
0100
0000
0000
0010
0000
0000
0100
0000
0000
0010
0000
0000
1000
0000
0000
0100
0000
0000
0010
0000
0000
0001
0000
0000
1000
0000
0000
0100
0000
0000
1000
0000
,
0000
0001
0000
0000
0100
0000
0000
0001
0000
0000
0010
0000
0000
0100
0000
0000
1000
0000
0000
0001
0000
0000
1000
0000
0000
0100
0000
0000
0010
0000
0000
0001
0000
0000
0010
0000
0000
0100
0000
0000
0010
0000
0000
0001
0000
0000
1000
0000
0000
0010
0000
0000
1000
0000
0000
0010
0000
0000
0100
0000
0000
0001
0000
0000
,
0010
0000
0000
0000
0000
0000
0000
0000
0100
0000
0000
0000
0000
0000
0000
0000
0000
0000
0000
0000
1000
0000
0000
0100
0000
0000
0010
0000
0000
0100
0000
0000
1000
0000
0000
0010
0000
0000
0100
0000
0000
0001
0000
0000
0100
0000
0000
0010
0000
0000
1000
0000
0000
0001
0000
0000
0010
0000
0000
0001
0000
0000
0100
0000
,
0000
0010
0000
0000
1000
0000
0000
0000
0000
0000
0000
0000
0000
0000
0000
0000
0000
0000
0000
0000
1000
0000
0000
0000
0000
0000
0010
0000
0000
0000
0000
0000
0000
0000
1000
0000
0000
0010
0000
0000
1000
0000
0000
0000
0000
0000
0000
0000
0010
0000
0000
0000
0000
0000
0000
0000
0000
0000
0000
0000
0000
0000
0000
0000
,
0000
2000
0000
3200
,
0000
0320
0000
0032
,
0000
2003
0000
3020
,
0000
0230
0000
0302
,
0000
2003
0000
3200
,
0000
0320
0000
0032
,
0000
0000
2203
0000
0000
0300
3220
0000
,
0000
0030
0322
0000
0000
0003
2032
0000
,
3003
0000
0000
0000
0000
0000
0000
0000
0000
0000
0000
0000
0000
0000
0000
0000
1000
0000
0000
0000
0010
0000
0000
0000
0100
0000
0000
0000
0001
0000
0000
0000
0010
0000
0000
0000
0100
0000
0000
0000
1000
0000
0000
0100
0000
0000
0010
0000
0000
0001
0000
0000
1000
0000
0000
0000
0001
0000
0000
0000
0100
0000
0000
0000
,
0001
0000
0000
0000
0010
0000
0000
0000
0100
0000
0000
1000
0000
0000
0001
0000
0000
0100
0000
0000
0001
0000
0000
0000
0100
0000
0000
0000
0001
0000
0000
0000
0010
0000
0000
0000
0100
0000
0000
0000
1000
0000
0000
0100
0000
0000
0010
0000
0000
0100
0000
0000
1000
0000
0000
0000
0100
0000
0000
0000
0010
0000
0000
0000
,
0100
0000
0000
0000
1000
0000
0000
0000
0001
0000
0000
0100
0000
0000
0001
0000
0000
0010
0000
0000
0001
0000
0000
0000
0010
0000
0000
0000
0100
0000
0000
0000
1000
0000
0000
0000
0001
0000
0000
0000
1000
0000
0000
0100
0000
0000
0010
0000
0000
0100
0000
0000
1000
0000
0000
0000
0001
0000
0000
0000
0100
0000
0000
0000
,
0001
0000
0000
0000
1000
0000
0000
0000
0100
0000
0000
0010
0000
0000
0001
0000
0000
1000
0000
0000
0010
0000
0000
0000
0100
0000
0000
0000
0001
0000
0000
0000
1000
0000
0000
0000
0001
0000
0000
0000
0010
0000
0000
0100
0000
0000
1000
0000
0000
0001
0000
0000
1000
0000
0000
0000
0001
0000
0000
0000
0100
0000
0000
0000
,
0001
0000
0000
0000
1000
0000
0000
0000
0100
0000
0000
0010
0000
0000
0001
0000
0000
0010
0000
0000
0100
0000
0000
0000
1000
0000
0000
0000
0010
0000
0000
0000
0100
0000
0000
0000
0010
0000
0000
0000
1000
0000
0000
0100
0000
0000
0010
0000
0000
0001
0000
0000
1000
0000
0000
0000
0001
0000
0000
0000
0100
0000
0000
0000
,
0010
0000
0000
0000
0100
0000
0000
0000
1000
0000
0000
0100
0000
0000
0010
0000
0000
0001
0000
0000
1000
0000
0000
0000
0001
0000
0000
0000
0100
0000
0000
0000
0001
0000
0000
0000
0010
0000
0000
0000
0100
0000
0000
1000
0000
0000
0001
0000
0000
0100
0000
0000
0001
0000
0000
0000
0100
0000
0000
0000
0001
0000
0000
0000
,
0010
0000
0000
0000
0100
0000
0000
0000
1000
0000
0000
0100
0000
0000
0010
0000
0000
0100
0000
0000
1000
0000
0000
0000
0100
0000
0000
0000
0010
0000
0000
0000
0100
0000
0000
0000
1000
0000
0000
0000
0001
0000
0000
0100
0000
0000
0001
0000
0000
0010
0000
0000
0001
0000
0000
0000
0010
0000
0000
0000
0100
0000
0000
0000
,
1000
0000
0000
0000
0001
0000
0000
0000
1000
0000
0000
0100
0000
0000
0010
0000
0000
0100
0000
0000
1000
0000
0000
0000
0001
0000
0000
0000
0100
0000
0000
0000
0001
0000
0000
0000
1000
0000
0000
0000
0100
0000
0000
0010
0000
0000
0001
0000
0000
1000
0000
0000
0010
0000
0000
0000
0100
0000
0000
0000
0001
0000
0000
0000
,
1000
0000
0000
0000
0001
0000
0000
0000
0010
0000
0000
0100
0000
0000
1000
0000
0000
0001
0000
0000
1000
0000
0000
0000
0001
0000
0000
0000
0100
0000
0000
0000
0001
0000
0000
0000
1000
0000
0000
0000
0100
0000
0000
0010
0000
0000
0001
0000
0000
0010
0000
0000
0100
0000
0000
0000
1000
0000
0000
0000
0010
0000
0000
0000
,
0100
0000
0000
0000
0010
0000
0000
0000
1000
0000
0000
0100
0000
0000
0010
0000
0000
0001
0000
0000
1000
0000
0000
0000
0001
0000
0000
0000
1000
0000
0000
0000
0100
0000
0000
0000
0010
0000
0000
0000
0001
0000
0000
0010
0000
0000
0100
0000
0000
1000
0000
0000
0001
0000
0000
0000
1000
0000
0000
0000
0010
0000
0000
0000
,
1000
0000
0000
0000
0100
0000
0000
0000
0010
0000
0000
0001
0000
0000
1000
0000
0000
0010
0000
0000
1000
0000
0000
0000
0010
0000
0000
0000
1000
0000
0000
0000
0100
0000
0000
0000
0010
0000
0000
0000
0001
0000
0000
0010
0000
0000
0100
0000
0000
0010
0000
0000
0001
0000
0000
0000
0010
0000
0000
0000
0100
0000
0000
0000
,
0010
0000
0000
0000
0001
0000
0000
0000
1000
0000
0000
0010
0000
0000
1000
0000
0000
0100
0000
0000
1000
0000
0000
0000
0100
0000
0000
0000
0010
0000
0000
0000
0001
0000
0000
0000
1000
0000
0000
0000
0001
0000
0000
0010
0000
0000
0100
0000
0000
0010
0000
0000
0001
0000
0000
0000
1000
0000
0000
0000
0010
0000
0000
0000
,
1000
0000
0000
0000
0001
0000
0000
0000
0010
0000
0000
0100
0000
0000
1000
0000
0000
0001
0000
0000
0100
0000
0000
0000
0010
0000
0000
0000
1000
0000
0000
0000
0001
0000
0000
0000
1000
0000
0000
0000
0100
0000
0000
0010
0000
0000
0001
0000
0000
1000
0000
0000
0001
0000
0000
0000
1000
0000
0000
0000
0010
0000
0000
0000
,
1000
0000
0000
0000
0001
0000
0000
0000
0010
0000
0000
0100
0000
0000
1000
0000
0000
0100
0000
0000
0010
0000
0000
0000
0001
0000
0000
0000
0100
0000
0000
0000
0010
0000
0000
0000
0100
0000
0000
0000
0001
0000
0000
0010
0000
0000
0100
0000
0000
1000
0000
0000
0001
0000
0000
0000
1000
0000
0000
0000
0010
0000
0000
0000
,
1000
0000
0000
0000
0100
0000
0000
0000
0010
0000
0000
0001
0000
0000
0010
0000
0000
0001
0000
0000
1000
0000
0000
0000
0100
0000
0000
0000
0001
0000
0000
0000
0100
0000
0000
0000
1000
0000
0000
0000
0010
0000
0000
0100
0000
0000
0001
0000
0000
0100
0000
0000
0010
0000
0000
0000
1000
0000
0000
0000
0001
0000
0000
0000
,
0100
0000
0000
0000
0001
0000
0000
0000
1000
0000
0000
0010
0000
0000
0100
0000
0000
0001
0000
0000
0100
0000
0000
0000
0010
0000
0000
0000
1000
0000
0000
0000
0100
0000
0000
0000
0010
0000
0000
0000
0001
0000
0000
0010
0000
0000
0100
0000
0000
0010
0000
0000
0001
0000
0000
0000
0010
0000
0000
0000
0100
0000
0000
0000
,
0000
0000
0000
0020
0000
0000
0000
0000
0000
0000
0000
0000
0000
0000
0000
0000
0230
0000
0000
0000
0000
0000
0000
0000
0000
0000
0000
0000
0000
0000
0000
0000
0000
0000
0000
0000
0000
0000
0000
0000
0000
0000
0000
0000
0000
0000
0000
0000
2300
0000
0000
0000
0000
0000
0000
0000
0000
0000
0000
0000
0000
0000
0000
0000
,
0000
3002
0000
0203
,
0000
0320
0000
2030
,
0000
3200
0000
2300
,
0000
3002
0000
0203
,
0000
0320
0000
2030
,
0000
0000
3101
0001
0001
0011
0010
0010
,
0110
0100
0100
1100
1000
1000
1001
0000
,
1001
0000
0000
0000
1000
0100
0010
0001
1000
0010
0100
0001
0010
0100
1000
0001
,
0100
0010
1000
0001
0100
0001
1000
0100
1000
0010
1000
0001
0010
0001
0010
0100
,
1000
0001
0010
0001
1000
0100
1000
0010
0100
0001
1000
0010
0100
0010
1000
0100
,
0010
0001
1000
0100
0010
0100
1000
0001
0100
0001
1000
0100
1000
0010
0100
0010
,
1000
0100
0010
0001
1000
0010
0100
0001
0100
0010
1000
0010
0100
0001
0010
0100
,
1000
0001
0010
0100
0010
0001
1000
0100
0010
0001
1000
0100
1000
0010
0100
0001
,
0010
0100
0010
0001
1000
0001
0100
0001
1000
0001
0100
0001
0010
0100
1000
0100
,
0010
0100
1000
0010
0100
0010
1000
0100
0010
0001
1000
0100
0010
0001
0010
0001
,
0010
0000
0100
0000
0010
0000
0000
0002
0000
0000
0000
0000
0000
0000
0000
0000
0000
0000
0000
0000
0000
0000
0000
0000
0203
0000
0000
0000
0000
0000
0000
0000
,
0000
0000
0000
0000
0300
0000
0000
0010
1000
0000
1000
0100
0010
0001
0010
0100
,
1000
0010
0100
0001
0000
0001
0000
1000
0001
0000
0001
0000
1000
0000
0000
0100
,
0010
0000
0000
0000
0000
0000
0001
0000
0100
0000
0000
0010
0000
0000
1000
0000
0000
0010
0000
0000
1000
0000
0000
0010
0000
0000
1000
0000
0000
0100
0000
0000
,
0010
0000
0000
0000
0000
0000
0001
0000
0000
0000
0000
0000
0010
0000
0000
0000
0001
0000
0000
0010
0000
0000
0100
0000
0000
1000
0000
0000
0100
0000
0000
0010
0000
0000
0100
0000
0000
1000
0000
0000
0010
0000
0000
0100
0000
0000
0001
0000
0000
0010
0000
0000
0100
0000
0000
0010
0000
0000
0001
0000
0000
1000
0000
0000
,
0001
0000
0000
0010
0000
0000
0100
0000
0000
1000
0000
0000
0001
0000
0000
0100
0000
0000
0010
0000
0000
1000
0000
0000
0100
0000
0000
0010
0000
0000
0001
0000
0000
1000
0000
0000
0100
0000
0000
0010
0000
0000
0100
0000
0000
1000
0000
0000
0001
0000
0000
0100
0000
0000
0001
0000
0000
0010
0000
0000
0100
0000
0000
0010
,
0000
0000
0001
0000
0000
0100
0000
0000
0010
0000
0000
1000
0000
0000
0001
0000
0000
1000
0000
0000
0010
0000
0000
0100
0000
0000
0001
0000
0000
0010
0000
0000
0100
0000
0000
1000
0000
0000
0100
0000
0000
0010
0000
0000
0001
0000
0000
0010
0000
0000
0001
0000
0000
0100
0000
0000
0010
0000
0000
1000
0000
0000
0010
0000
,
0000
0100
0000
0000
0001
0000
0000
0100
0000
0000
0010
0000
0000
1000
0000
0000
0200
0000
0000
0000
0000
0000
0000
0000
0000
0000
0000
0000
0000
0000
0000
0000
0000
0000
0000
0000
0000
0000
0000
0000
0000
0000
0000
0000
0000
0000
0000
0000
0000
0000
0000
0000
0000
0000
0000
0000
0000
0000
0000
0000
0000
0000
0000
0000
,
0000
0302
0000
0103
0020
0000
1030
0010
,
0200
0000
0302
0000
0023
0000
0130
2000
,
0000
0000
3200
0000
0000
0000
0310
0001
,
0010
0100
1000
0010
0100
0001
0010
0200
,
0000
0000
2300
0000
0000
3000
0100
0010
,
0001
0010
0100
1000
0100
0010
0001
0010
,
0100
1000
0010
0100
0001
0100
0010
1000
,
0010
0100
0010
1000
0000
0000
1000
0000
,
2000
0000
0000
0100
,
3200
0000
0000
0000
,
2300
0000
0000
0010
,
3020
0000
0230
0000
,
0001
0302
0000
0000
,
0000
0000
0000
0000
0023
0230
2300
3002
,
0023
0230
2300
0000
0000
0000
0000
0000
,
0000
0000
0000
0000
0000
0000
0000
0000
0000
0000
0000
0000
0000
0000
0000
0000
3020
0000
0000
0230
0000
0000
0302
0000
0000
0023
0000
0000
0230
0000
0000
2300
,
0000
0000
3200
0000
0000
0320
0000
0000
0032
0000
0000
0000
0000
0000
0000
0000
0000
0000
0000
0000
0000
0000
0000
0000
0000
0000
0000
0000
0000
0000
0000
0000
,
0000
0000
0000
0000
0203
0320
2030
3002
,
0203
0320
2030
0000
0000
0000
0000
0000
,
0000
3200
0000
0000
,
0300
0110
0000
0110
0000
0000
0000
0000
,
0000
0000
0010
0001
0000
0000
0000
0000
,
0000
0000
0001
0100
0000
0000
0000
0000
,
0000
1010
0000
1010
0000
1010
0000
1010
,
1010
1000
0000
1000
0000
0000
0000
0000
,
0000
0000
1000
0100
0000
0000
0000
0000
,
0000
0000
0010
0001
0000
0000
0000
0000
,
0000
0000
0001
0100
1000
0000
1000
0100
0001
0000
0001
0100
1000
0000
0100
0000
,
0001
0010
0000
0010
0000
0000
0000
0000
;
