#TITLE:Presto;
#SUBTITLE:;
#ARTIST:Osamu Kubota;
#TITLETRANSLIT:;
#SUBTITLETRANSLIT:;
#ARTISTTRANSLIT:;
#CREDIT:;
#BANNER:Presto.png;
#BACKGROUND:Presto-bg.png;
#LYRICSPATH:;
#CDTITLE:!duktitle.png;
#MUSIC:Osamu Kubota - Presto.mp3;
#OFFSET:-9.355;
#SAMPLESTART:37.500;
#SAMPLELENGTH:10.000;
#SELECTABLE:YES;
#BPMS:0.000=136.000;
#STOPS:;
#BGCHANGES:;
// cache tags:
#FIRSTBEAT:4.000;
#LASTBEAT:189.000;
#SONGFILENAME:Songs/Keyboard Collaboration II/Duk Amok - Presto/Presto.sm;
#HASMUSIC:1;
#HASBANNER:1;
#MUSICLENGTH:100.917;
// end cache tags

//---------------dance-single - ----------------
#NOTES:
     dance-single:
     :
     Hard:
     12:
     0.888,0.960,1.000,0.406,1.000,483.000,103.000,41.000,0.000,0.000:  // measure 1
0000
0000
0000
0000
,  // measure 2
2002
0000
0000
0000
3003
0000
1000
0100
1010
0000
0001
0000
1000
0000
0010
0000
,  // measure 3
0101
1000
0010
0000
1100
0000
0000
0000
,  // measure 4
0220
0000
0000
0000
0330
0000
0000
0000
0011
0100
1000
0100
0010
0001
0100
0010
,  // measure 5
1100
0000
0000
0001
0000
0000
0010
0000
0000
0000
1000
0001
0100
0000
0000
0010
1000
0100
1000
0000
0000
0100
0000
0000
,  // measure 6
2002
0000
0000
0000
3003
0000
0001
1000
0200
0000
0000
0000
0300
0000
0010
0001
,  // measure 7
2010
0000
0000
0000
3000
0000
0010
1000
0102
0000
0000
0000
0003
0000
0100
1000
,  // measure 8
0100
0010
0000
1002
0003
0100
0000
0010
1000
0001
0010
2100
3000
0000
0100
0010
,  // measure 9
0001
0100
0000
1020
0030
0000
1000
0000
0001
0010
0000
0210
0300
0000
1000
0010
,  // measure 10
0100
0001
0000
0210
0300
0001
0000
1000
0100
0010
0001
2010
3000
0000
0010
0100
,  // measure 11
0001
1000
0000
0201
0300
0000
0001
0000
1000
0100
0000
0120
0030
0000
0000
0010
,  // measure 12
0001
1010
0100
0010
1001
0100
0000
0101
0000
0001
1010
0100
0001
0000
0010
0100
,  // measure 13
1000
0110
0001
1000
0110
0001
0000
1001
0100
1000
0011
0100
1000
0010
0100
0001
,  // measure 14
0010
0001
0100
0100
0010
1000
1100
0000
0110
0000
0000
0000
,  // measure 15
0001
1000
0100
0100
0010
0001
1010
0000
0110
0000
0000
0000
,  // measure 16
1000
0010
0100
0001
0000
1000
0000
0100
0010
0001
1000
0100
0010
1100
0000
1001
,  // measure 17
0000
0000
0000
1000
0001
0101
0000
0010
0101
0000
0000
1100
0010
0001
0000
0000
,  // measure 18
1000
0010
0000
1001
0000
0100
0001
0010
0000
1100
0000
0010
1001
0000
1001
1001
,  // measure 19
0110
0001
0010
0001
0110
1000
0010
1000
0101
0010
0100
0010
1001
0100
0010
0100
,  // measure 20
1001
0010
1000
0100
0011
1000
0100
0010
0101
1000
0010
0100
1010
0100
0001
1000
,  // measure 21
0000
1000
0010
1000
0110
0001
0100
0001
1010
0100
0010
0100
1001
0010
0100
0010
,  // measure 22
1001
0100
0001
0010
1100
0001
0010
0100
1010
0001
0100
0010
0101
0010
1000
0010
,  // measure 23
1100
0001
1000
0001
0100
0010
1000
0100
0010
0001
0100
0001
1000
0100
0010
0100
,  // measure 24
1001
0000
0000
0000
2000
0000
0000
0000
3020
0000
0000
0000
0230
0000
0000
0000
0000
0000
0000
0000
0000
0302
0000
0000
,  // measure 25
0023
0000
0200
0030
,  // measure 26
0000
0000
0000
0000
0300
0000
0000
0000
0200
0000
0000
0000
0000
0000
0000
0000
0320
0000
0000
0000
0000
0000
0000
0000
0032
0000
0000
0000
0000
0000
0000
0000
0000
0000
0000
0000
0003
0000
0000
0000
0000
0000
2000
0000
0000
3000
0000
0000
,  // measure 27
2000
0000
0020
0000
,  // measure 28
3000
0000
0000
0000
0000
0000
0000
0000
0230
0000
0000
0000
0000
0000
0000
0000
0302
0000
0000
0000
0000
0000
0000
0000
2003
0000
0000
0000
0000
0000
0000
0000
0000
0000
0000
0000
0000
0000
0000
0000
0000
0000
3200
0000
0000
0300
0000
0000
,  // measure 29
0200
0000
0320
0000
,  // measure 30
0032
0000
0000
0000
2000
0000
0000
0003
,  // measure 31
0020
0000
0000
0000
0000
0000
3000
0000
0200
0000
0030
0000
0300
0001
1000
0100
,  // measure 32
0010
0000
0000
0000
0001
0000
0000
0000
0000
0000
0000
0000
0011
0000
0000
0000
0000
0000
0000
0000
0100
1000
0000
0000
0000
0000
0000
0000
1000
0000
0000
0000
0010
0000
0000
0000
0100
0000
0000
0000
0001
0000
0000
0000
0010
0000
0000
0000
0000
0000
0000
0000
1100
0000
0000
0000
0000
0000
0000
0000
0000
0000
0000
0000
,  // measure 33
0000
0110
0000
0110
0001
1000
0010
0101
0000
0101
1000
0100
0010
1001
0000
1001
,  // measure 34
0100
0010
0000
0101
0000
0101
1000
0001
0010
1100
0000
0010
0001
0100
0000
0000
,  // measure 35
0000
0000
0000
0000
0010
0000
0000
0000
1000
0000
0000
0000
0100
0000
0000
0000
0010
0000
0000
0000
0001
0000
0000
0000
0000
0000
0000
0000
0001
0000
0000
0000
0010
0000
0000
0000
0010
0000
0000
0000
0000
0000
0000
0000
0001
0000
0000
0000
0000
0000
0000
0000
1000
0010
0000
0000
0000
0000
0000
0000
0100
0000
0000
0000
,  // measure 36
0001
0010
0100
1000
0100
0110
0000
0011
0000
0101
0000
1000
0010
0000
0000
1000
,  // measure 37
0100
0010
0100
1000
0001
0100
0000
1010
0000
0101
0000
0011
0000
0100
1000
0100
,  // measure 38
0010
0001
1000
1000
0100
0010
1001
0010
0100
0100
0001
0010
,  // measure 39
1100
0001
0010
1000
0100
0001
1000
0010
0100
0100
0010
1000
0001
0000
0010
0100
,  // measure 40
1010
0001
0010
0001
0110
1000
0001
0010
0101
1000
0100
0010
1001
0100
0001
0010
,  // measure 41
1100
0001
0010
0100
0011
1000
0010
1000
0101
0010
1000
0100
1010
0100
0001
0010
,  // measure 42
1001
0100
1000
0100
0010
0001
1000
0010
1000
0001
0010
0100
0010
0001
0100
0010
,  // measure 43
1000
0010
0100
1000
0001
0010
1000
0100
0010
0001
0100
0010
1000
0100
0000
0000
,  // measure 44
1001
0100
0001
1000
0011
0100
0010
0001
1010
0100
0001
0100
1001
0010
1000
0100
,  // measure 45
0011
0000
0000
1000
0000
0000
0010
0000
0000
0100
0000
0000
1001
0000
0000
0010
0000
0000
0100
0000
0000
1000
0000
0000
0100
0000
0010
0000
0001
0000
1000
0000
0000
0010
0000
0000
1001
0000
0000
0000
0000
0000
1010
0000
0000
0000
0000
0000
,  // measure 46
0101
1000
0110
0001
0010
0100
1001
0010
0100
1000
0011
0100
0010
1000
0011
0100
,  // measure 47
0001
0010
0101
1000
0010
0100
1001
0010
1000
0100
0011
0101
0010
0100
2002
0000
,  // measure 48
0000
3003
0000
0000
;
