#TITLE:Disconnected HaZaRD;
#SUBTITLE:;
#ARTIST:DM Ashura feat. Inspector K;
#TITLETRANSLIT:;
#SUBTITLETRANSLIT:;
#ARTISTTRANSLIT:;
#CREDIT:;
#BANNER:dh.png;
#BACKGROUND:dh-bg.png;
#LYRICSPATH:;
#CDTITLE:!KrazyTitle.png;
#MUSIC:Disconnected HaZaRD.mp3;
#OFFSET:-0.061;
#SAMPLESTART:45.743;
#SAMPLELENGTH:12.000;
#SELECTABLE:YES;
#DISPLAYBPM:105.000:210.000;
#BPMS:0.000=105.000,16.000=210.000,112.000=105.000,128.000=210.000,224.000=105.000,240.000=210.000;
#STOPS:271.750=1.143
;
#BGCHANGES:;
// cache tags:
#FIRSTBEAT:0.000;
#LASTBEAT:380.000;
#SONGFILENAME:Songs/toune/Disconnected HaZaRD/Disconnected HaZaRD.sm;
#HASMUSIC:1;
#HASBANNER:1;
#MUSICLENGTH:125.966;
// end cache tags

//---------------dance-single - ----------------
#NOTES:
     dance-single:
     :
     Hard:
     11:
     1.000,1.000,1.000,0.024,1.000,1026.000,208.000,3.000,0.000,0.000:
1000
0000
0000
0000
0000
0000
1000
0000
0000
0000
0000
0000
0001
0000
0000
0000
0000
0000
0001
0000
0000
0000
0000
0000
0001
0000
0000
0000
0000
0000
0001
1000
,
0001
0000
1000
0001
0000
0001
1000
0000
0100
0000
0010
0001
0000
0010
0100
0000
,
0010
0000
0000
0000
0000
0000
0010
0000
0000
0000
0000
0000
0100
0000
0000
0000
0000
0000
0100
0000
0000
0000
0000
0000
0100
0000
0000
0000
0000
0000
0100
0010
,
0100
0000
0000
0000
0100
0000
1000
0000
0000
0000
0100
0000
1000
0000
1000
0000
1000
0001
1000
0001
1000
0000
0010
0100
0001
1000
0001
1000
0001
1000
0001
1000
,
1001
0100
0011
1000
0101
0010
1001
0100
,
1010
0001
0101
0010
1001
0100
1010
1010
,
1001
0010
0101
1000
1100
0010
1001
0100
,
0011
1000
0101
0010
1001
0100
1001
1001
,
0110
1000
0011
0100
1010
0001
0110
1000
,
0011
0100
1010
1000
0011
0100
0011
0011
,
1001
0100
1010
0001
0110
0001
1010
0101
,
0100
0010
0100
0010
0100
0010
0100
0010
0100
0000
0100
0000
0100
0000
0100
0000
,
0100
0000
0000
0000
0100
0000
0001
0000
0000
0000
0001
0000
0000
0000
0001
1000
,
0100
0000
0100
0100
0010
0100
0010
0100
,
1000
0000
1000
1000
0010
0100
0010
0100
,
0001
0000
1000
0000
0100
0000
1000
0000
0010
0100
0010
0000
1000
0000
0100
0000
,
0001
0000
0000
0000
0001
0000
1000
0000
0000
0000
1000
0000
0000
0000
1000
0010
,
0100
0000
0100
0100
0010
0100
0010
0100
,
0001
0000
0000
0000
0001
0000
0001
1000
0010
0000
0100
0000
0010
0000
1000
0001
,
0100
0000
0010
0000
0100
0000
0001
0100
0010
0000
1000
0000
0100
0000
1000
0010
,
0101
0000
0000
0000
1000
0000
0010
0000
0000
0000
0010
0000
0000
0000
0010
1000
,
0101
0000
0100
0100
0010
0100
0010
0000
,
1000
0000
1000
1000
0010
1000
0010
1000
,
0001
1000
0010
0100
0001
0000
1000
0000
0001
0010
0100
1000
0001
0100
0001
0100
,
1001
0000
0000
0000
1000
0000
0010
0000
0000
0000
0010
0000
0000
0000
0010
1000
,
0100
0000
0100
0100
1000
0100
1000
0000
,
0001
0000
0000
0000
0001
0000
0001
1000
0010
0000
0001
0000
0010
0000
1000
0000
,
0001
0100
0010
1000
0001
0100
0010
1000
0001
0010
0100
1000
0001
0010
0100
1000
,
1001
1000
0010
1000
0001
0010
0110
0100
1000
0100
0010
0100
1000
0110
1000
0100
,
1010
0010
0110
1001
0010
1001
0110
1000
0100
0010
0001
0100
0010
1000
0001
0010
,
1100
0100
0010
0001
1000
0001
0011
0010
0100
1000
0010
0100
0010
1100
0011
1100
,
0011
0000
0100
0000
0110
0000
1001
0000
0100
0000
1001
0000
0110
0000
1000
0000
0001
0100
0010
1000
0001
0100
0010
1000
0001
0010
0100
1000
0001
0010
0100
1000
,
1001
0100
0011
1000
0101
0010
1001
0100
,
1010
0100
1001
0010
0110
0001
0110
0110
,
1001
0010
1100
0001
0110
1000
1010
0100
,
1001
0010
0101
1000
0101
0010
1001
1001
,
0101
0010
1001
0100
1010
0001
0110
1000
,
0011
0100
0110
1000
1001
0100
0011
0011
,
1001
0000
1000
0100
1000
0000
0001
0010
0001
0000
0100
0001
0100
0000
0010
1000
,
0010
0100
0001
1000
0010
0100
0001
1000
0100
0010
0001
1000
0100
0010
0001
1000
,
0010
0100
0001
1000
0100
1000
0010
0100
0010
1000
0100
0010
0001
0010
0100
1000
,
0001
0100
0010
1000
0001
0010
0100
1000
0100
0010
0001
1000
0010
0100
0001
1000
,
0001
0010
0100
1000
0100
0010
0001
1000
0001
0100
0010
1000
0010
0100
0001
1000
,
0001
0010
0100
0010
0001
1000
0100
0010
0001
0010
0100
1000
0001
0100
0010
1000
,
0001
0100
0010
1000
0010
0100
0010
0100
0001
0100
0010
1000
0010
0100
0010
0100
,
0001
0010
0100
1000
0100
0010
0100
0010
0001
0010
0100
1000
0100
0010
0100
1000
,
0001
0100
0010
1000
0001
0010
0100
0010
0001
0100
0010
0100
0001
0010
0100
1000
,
0001
0100
0010
1000
0010
0100
0001
0100
0010
1000
0010
0100
0001
0100
0010
1000
,
0001
0010
0100
1000
0001
0010
0100
1000
0001
0100
0010
1000
0001
0100
0010
1000
,
0001
0010
0100
0010
0001
0100
0010
0100
0001
0100
0010
0100
0001
0010
0100
0010
,
0001
1000
0100
1000
0010
1000
0100
1000
0001
0010
0001
0100
0001
1000
0001
0100
,
0001
0010
0100
1000
0100
0010
0100
1000
0001
0100
0010
1000
0010
0100
0010
1000
,
0001
0010
0100
1000
0001
0010
0100
1000
0001
0010
0100
1000
0001
0010
0100
1000
,
0001
0100
0010
1000
0001
0100
0010
1000
0001
0100
0010
1000
0001
0100
0010
1000
,
0001
0010
0100
1000
0100
0010
0100
0010
0001
0010
0100
1000
0100
0010
0100
0010
,
0001
0100
0010
1000
0010
0100
0010
0100
0001
0100
0010
1000
0010
0100
0010
0100
,
0001
0000
0000
0000
0001
0000
0001
0000
0000
0000
0001
0000
0000
0000
0001
1000
0001
0000
0001
0000
0001
0000
0001
0000
0101
0000
0000
0000
1001
0000
0000
0000
,
1000
0000
0000
0000
1000
0000
1000
0000
1000
0000
1000
0000
0000
0000
1000
0001
1000
0000
1000
0000
1000
0000
0000
0000
0110
0000
0000
0000
0001
0000
0000
0000
,
0010
0010
0010
0010
0000
0010
0000
0010
0000
0010
0010
0000
1001
0000
0101
0000
,
1000
0000
1000
0000
1000
0000
1000
0010
1000
0000
0000
0000
1000
0000
0000
0000
0001
0100
0001
0010
0100
0000
1000
0000
0001
0010
0100
1000
0001
0010
0100
1000
,
1001
0000
0100
0000
0010
0000
1000
0000
0001
0000
0010
0000
0100
0000
1000
0001
,
1000
0010
0100
0001
0110
1000
0011
0100
,
1001
0000
0100
0000
0010
0000
0100
0000
0001
0000
0100
0000
0010
0000
1000
0100
,
1000
1000
0001
0001
0110
1000
0011
0100
,
1001
0100
0010
1000
0001
0100
0010
1000
,
0001
0010
0100
1000
0110
0001
1010
0100
,
1000
0100
0010
0001
1000
0100
0010
0001
1000
0010
0100
0001
1000
0010
0100
0001
,
0010
0100
1000
0001
0100
0010
1000
0100
0010
0001
0100
0010
1000
0100
0010
0002
,
1003
0000
1000
0000
1000
0000
1000
0000
1000
0001
1000
0001
1000
0001
1000
0001
,
0101
0000
1000
0000
0110
0000
0011
0000
1000
0000
0101
0000
0010
0000
0001
0010
,
1100
0001
0110
0110
1001
0110
1001
0100
,
0011
1000
0101
0110
1001
0110
1010
1010
,
0110
0000
0110
0000
1001
0000
0110
0000
0001
0010
0100
0000
0011
0000
1000
0000
,
0101
0000
0010
0000
1001
0000
0101
0000
0010
0000
1100
0000
0010
0000
1000
0100
,
0011
1000
0101
0101
1010
0101
0011
1000
,
0101
0000
0010
0000
0101
0000
1000
0001
1010
0000
0110
0000
1010
0000
0001
0010
,
1100
1100
0011
1100
0110
0011
1100
0001
,
1010
0000
0100
0000
1001
0000
0110
0000
1000
0000
0110
0000
0001
0000
0010
0100
,
1001
0010
1100
1100
1010
0101
0011
1000
,
0101
0010
1100
1100
0011
1100
0011
1100
,
0001
0100
0010
1000
0001
0000
0110
0000
1000
0010
0100
0001
1000
0000
0110
0000
,
1001
0000
0100
0000
1010
0000
0101
0000
0010
0000
0101
0000
0010
0000
1000
0010
,
0101
1000
0101
0101
1010
0101
0011
1000
,
0101
0000
0010
0000
0101
0000
1000
0100
0011
0000
1100
0000
1010
0000
0101
0000
,
0010
0100
0001
1000
0010
0100
0001
1000
0100
0010
0100
1000
0001
0010
0100
1000
,
1001
0100
0011
0100
1010
0001
0110
1000
,
0011
0000
0100
0000
1010
0000
0100
0000
1001
0000
0010
0000
0101
0000
0100
0010
,
1001
0000
0100
0000
0101
0000
0001
0000
0001
0010
0100
1000
0101
0000
0010
0000
,
1001
0000
0100
0000
1010
0000
1100
0000
1001
0000
0011
0000
0101
0000
0010
0100
,
1001
0101
0110
1010
1001
0011
0110
1100
,
1010
0000
0101
0000
0011
0000
1100
0000
0101
0000
1010
0000
0101
0000
0010
1000
,
0101
0000
0100
0010
0100
0000
0001
0010
0001
0000
1000
0100
1000
0000
0001
1000
,
0001
0010
0100
1000
0010
0100
0010
1000
0001
1000
0010
1000
0100
1000
0010
1000
,
0202
0000
0000
0000
,
0000
0000
0000
0000
,
0303
0000
0000
0000
;

//---------------dance-single - ----------------
#NOTES:
     dance-single:
     :
     Beginner:
     1:
     0.000,0.000,0.000,0.000,0.000,0.000,0.000,0.000,0.000,0.000:
0000
0000
0000
0000
;
