#TITLE:Forever;
#SUBTITLE:;
#ARTIST:Sara & S3rl;
#TITLETRANSLIT:;
#SUBTITLETRANSLIT:;
#ARTISTTRANSLIT:;
#CREDIT:;
#BANNER:../Banner.png;
#BACKGROUND:../BG.png;
#LYRICSPATH:;
#CDTITLE:../CDTitleBRAEDEN.png;
#MUSIC:forever.ogg;
#OFFSET:0.010;
#SAMPLESTART:142.286;
#SAMPLELENGTH:21.943;
#SELECTABLE:YES;
#BPMS:0.000=175.000;
#STOPS:;
#BGCHANGES:;
// cache tags:
#FIRSTBEAT:0.000;
#LASTBEAT:607.000;
#SONGFILENAME:Songs/Index Fusion - Part 2/Forever - [Braeden]/forever.sm;
#HASMUSIC:1;
#HASBANNER:1;
#MUSICLENGTH:208.829;
// end cache tags

//---------------dance-single - ----------------
#NOTES:
     dance-single:
     :
     Challenge:
     16:
     1.000,1.000,0.292,0.402,1.000,1450.000,61.000,84.000,7.000,0.000:
100M
0100
1000
0000
0001
0010
0M01
0000
1000
0001
1000
0000
00M1
1000
0010
0000
,
010M
0010
0100
0000
0010
1000
001M
0000
0100
0010
0100
0000
0001
0100
0010
0000
,
100M
0100
001M
0000
0001
0010
0100
0000
2000
3100
0010
0000
0001
0010
0100
0000
,
2000
3001
0100
0000
0010
1000
0010
0000
0200
0301
0100
0000
0020
1030
0001
0000
,
0200
0310
1000
0000
0010
0100
0010
0000
0200
0301
0100
0000
0010
1000
0010
0000
,
2000
3100
0010
0000
0001
0010
0100
0000
2000
3100
0010
0000
0001
0100
0010
0000
,
1010
1010
1001
0101
,
0002
0000
0000
0000
0000
0000
0000
0000
0000
1003
0100
0010
0001
0010
0100
1000
0001
0100
0010
1000
0100
0010
0000
0000
,
0011
0000
0001
0000
0100
0010
0100
0000
0110
0000
0010
0000
1000
0100
0010
0000
,
0011
0000
0001
0000
0100
0010
0100
0000
0110
0000
0010
0000
1000
0100
0010
0000
,
0110
0000
0010
0000
0001
1000
0010
0000
0110
0000
0100
0000
0001
0100
0010
0000
,
0110
0000
0010
0000
1000
0100
0010
0000
0011
0000
0001
0000
0100
0000
0000
0000
,
0010
1000
1100
1000
0001
1000
1001
0000
,
0001
0100
0110
0010
1000
0010
1010
0000
,
1000
0100
0011
0100
1000
0001
2001
0000
,
3020
0130
0001
0100
0010
1000
0010
0000
,
1000
0100
0010
0001
0010
0100
1000
0001
0100
0010
1000
0100
0010
0001
0010
0100
,
1000
0001
0100
0010
0100
0001
1000
0010
0100
0001
1000
0100
0010
0001
0010
0100
,
1000
0000
0000
0010
0000
0000
0100
0000
0000
0001
0000
0000
1000
0000
0000
0100
0000
0000
0010
0000
0000
0001
0000
0000
1000
0000
0010
0000
0100
0000
0001
0000
1000
0000
0100
0000
0010
0000
0001
0000
0010
0000
0100
0000
1000
0000
0100
0000
,
0010
0001
0100
0010
1000
0001
0010
0100
1000
0100
0010
0001
1000
0010
0100
0001
1000
0100
0010
0001
0010
0100
1000
0001
,
0200
0310
0200
0310
2000
3100
2000
3000
,
0200
0310
0002
0013
0200
1300
0200
0300
,
0010
0001
0010
0001
1000
0001
0100
0000
,
0220
0000
0330
1000
,
1002
0000
0000
0103
0000
0000
0010
0000
,
2000
0000
0000
3010
0000
0000
0100
0000
,
0002
0000
0000
0013
0000
0000
0100
0000
,
2000
0000
0000
3001
0000
0000
0100
0000
,
0020
0000
0000
1030
0000
0000
0001
0000
,
0200
0000
0000
0000
0000
0000
0000
0000
0000
0310
0000
0000
0010
0000
0000
0010
0000
0000
0010
0000
0000
0100
1000
0001
,
0100
0040
4030
3000
0040
0030
0400
0300
,
0004
0000
0003
0000
0400
0000
0300
0000
0040
0000
1030
0000
0001
0100
0010
0000
,
0110
0000
0010
0000
1000
0000
0100
0010
0001
0000
0100
0000
0010
1000
0100
1000
,
0001
0000
0000
0000
0000
0000
0100
0000
0000
0000
0000
0000
0010
0000
0000
0000
0000
0000
1000
0000
0000
0100
0000
0000
1000
0000
0000
0000
0000
0000
0100
0000
0000
0000
0000
0000
0010
0000
0000
0001
0000
0000
0100
0000
0010
0000
1000
0000
,
0001
0000
0100
0000
0010
0000
1000
0100
0010
0000
0001
0000
0100
0010
1000
0001
,
0100
0000
0000
0000
0000
0000
0010
0000
0000
0000
0000
0000
1000
0000
0000
0000
0000
0000
0100
0000
0000
0010
0000
0000
0001
0000
0000
0000
0000
0000
0100
0000
0000
0000
0000
0000
0010
0000
0000
0000
0000
0000
1000
0000
0100
0000
0010
0000
,
0002
0000
0203
0000
0000
0320
0000
0000
,
2030
0000
3000
0002
0000
0000
0013
0000
,
0001
0040
0430
0300
4000
3000
0004
0003
,
4000
0000
3000
0000
0040
0000
0030
0000
0400
0000
0301
0000
1000
0100
0010
0001
,
1000
0000
0100
0000
0010
0000
0001
0100
0010
0000
1000
0000
0100
0010
0001
0100
,
0010
0000
0000
0000
0000
0000
1000
0000
0000
0000
0000
0000
0100
0000
0000
0000
0000
0000
0010
0000
0000
0001
0000
0000
0010
0000
0000
0000
0000
0000
0100
0000
0000
0000
0000
0000
1000
0000
0000
0000
0000
0000
0001
0000
0100
0000
0010
0000
,
1000
0000
0001
0000
0100
0000
0010
1000
0100
0000
0010
0000
0001
0000
0100
0010
,
1000
0000
0000
0000
0000
0000
0001
0000
0000
0000
0000
0000
0100
0000
0000
0000
0000
0000
0010
0000
0000
1000
0000
0000
0010
0000
0000
0000
0000
0000
0100
0000
0000
0000
0000
0000
0001
0000
0000
0000
0000
0000
1000
0000
0100
0000
0010
0000
,
0002
0000
0203
0000
0000
0320
0000
0000
,
2030
0000
3000
0200
0000
0000
0310
0000
,
0001
0400
0340
0030
4000
3000
0400
0300
,
0040
0030
0004
0003
0400
0300
0000
0010
,
1010
0010
2000
3100
0020
0031
0200
0310
,
2000
3100
0020
0032
0103
0010
1000
0100
,
0020
0031
0200
0320
1030
0100
0020
0031
,
0200
0310
2000
3200
0310
0001
0100
0010
,
1010
0100
0001
1000
0100
0010
0001
0100
,
0010
0000
0000
0400
0000
0000
0320
0030
,
0001
0000
0101
0000
0101
0000
0101
0010
,
1000
0000
0000
0000
0000
0000
0010
0000
0000
0100
0000
0000
0000
0000
0000
0100
0000
0000
0001
0000
0000
0000
0000
0000
1000
0000
0000
0000
0000
0000
0100
0000
0000
0010
0000
0000
0001
0000
0000
0100
0000
0000
0010
0000
1000
0000
0100
0000
,
1000
0010
0100
0001
1000
0100
0010
0001
0010
0100
1000
0001
0100
0010
1000
0001
,
0010
0100
1000
0001
0100
0010
1000
0100
0010
0001
0010
0100
1000
0001
0100
0010
,
0100
0001
1000
0010
0100
0001
1000
0100
0010
0100
1000
0001
0100
0010
1000
0100
,
0010
0001
0010
0100
1000
0001
0100
0010
0100
0001
0010
0100
1000
0001
0100
0010
,
1000
0100
0010
0100
1000
0001
0100
0010
1000
0100
0010
0100
1000
0001
0010
0100
,
1000
0001
0100
0010
1000
0100
0010
0001
1000
0100
0010
0100
1000
0001
0100
0010
,
1000
1001
1001
0000
0101
0000
0110
0000
,
1010
0000
0000
0000
1001
0000
1000
0100
0010
0000
0000
0000
0000
0000
0000
0000
,
0001
0100
0010
1000
0001
0010
0100
1000
0100
0010
0001
0100
0010
0100
0001
1000
,
0010
1000
0010
0100
0001
1000
0100
0010
0001
1000
0001
1000
0010
0100
0001
1000
,
0100
0010
0100
0010
0001
0100
0010
0100
0001
1000
0100
1000
0001
0100
0010
1000
,
0100
0010
0001
0010
0100
1000
0001
0100
0010
0100
0001
1000
0100
0010
0100
1000
,
0001
0100
0010
0100
0001
1000
0010
0100
0010
1000
0100
0010
0001
0010
0100
1000
,
0001
0010
0001
1000
0010
0100
0001
0010
0001
1000
0100
0010
0100
1000
0001
0010
,
0100
1000
0200
0300
0020
0030
0002
0003
,
0200
0000
0300
0000
0020
0000
0030
0000
2000
0000
3001
0100
0010
0000
0000
0000
,
2000
0000
3200
0000
0320
0000
0031
0001
,
0200
0320
2030
3001
,
2000
0000
0000
3100
0000
0000
0010
0000
0000
0001
0000
0000
0100
0000
0000
0000
0000
0000
0010
0000
0000
1000
0000
0000
0000
0000
0000
0010
0000
0000
0100
0000
0001
0000
0100
0000
0010
0000
0000
1000
0000
0000
0100
0000
0000
0010
0000
0000
,
0001
0000
0100
0010
0000
1000
0010
0000
0100
0000
0001
0100
0000
0010
1000
0000
,
0201
0000
0320
0000
2030
0000
3100
0100
,
0010
0001
0100
0010
0100
0010
1000
0000
,
0200
0310
0001
0000
0400
0300
0040
0030
,
0400
0300
0040
0030
4000
3000
0001
0000
,
1000
0001
1000
0010
,
0100
0010
0100
0001
,
1000
0000
0100
0000
0010
0000
0001
0010
,
0100
0000
0000
0000
0000
0000
1000
0000
0000
0000
0000
0000
0001
0000
0000
0000
0010
0000
0000
0000
0100
0000
0000
0000
1000
0000
0000
0000
0010
0000
0000
0000
0100
0000
0000
0000
0001
0000
0000
0100
0000
0000
0010
0000
0000
1000
0000
0000
,
0100
0010
0001
1000
0010
0100
0001
1000
0100
0010
0001
0010
0100
1000
0001
0100
,
0010
1000
0100
0010
0001
1000
0010
0100
0001
1000
0100
0010
0001
1000
0010
0100
,
0001
0040
0034
0003
0400
0300
0040
0030
,
0400
0300
0004
0003
0040
0030
0100
0000
,
0001
0010
0100
1000
0100
0010
0001
0100
0010
0100
0001
0010
0100
1000
0001
0100
,
0010
1000
0100
0010
0001
0100
0010
0100
0001
0010
0100
1000
0001
0100
0010
1000
,
0100
0000
0000
0010
0000
0000
0001
0000
0000
0100
0000
0000
0010
0000
0000
0000
0000
0000
1000
0000
0000
0100
0000
0000
0000
0000
0000
0010
0000
0000
0001
0000
0100
0000
0010
0000
1000
0000
0000
0100
0000
0000
0010
0000
0000
0001
0000
0000
,
0100
0000
0010
1000
0000
0010
0100
0000
0001
0000
0100
0010
0000
1000
0100
0000
,
0010
0001
0100
0010
1000
0100
0010
0001
0010
0100
1000
0001
0100
0010
1000
0100
,
0010
0100
1000
0001
0010
0100
1000
0001
0100
0010
0100
0001
1000
0010
0100
0001
,
1000
1010
0110
0000
0101
0000
0110
0000
,
1010
0000
0000
0000
0101
0000
0000
0000
1001
0000
0010
0100
0010
0000
0000
0000
,
1000
0100
0010
0001
0010
0100
1000
0001
0100
0010
1000
0100
0010
0100
1000
0001
,
0100
0010
0100
0001
0010
0100
1000
0001
0100
0010
1000
0100
0010
0001
0100
0010
,
1000
0100
0010
0001
0100
0000
0010
1000
0000
0010
0100
0001
1000
0100
0010
0001
,
0100
0000
0010
1000
0000
0100
0010
0000
0001
0000
0100
0010
0000
1000
0100
0000
,
0010
0001
0100
0010
1000
0100
0010
0001
0010
0100
1000
0001
0100
0010
1000
0100
,
0010
0100
1000
0001
0010
0100
1000
0001
0100
0010
0100
0001
1000
0010
0100
0001
,
1000
0000
0400
0000
0340
0000
0031
0100
0002
0000
0013
0100
0020
0000
1030
0010
,
2000
0000
3010
0100
0020
0000
1030
0100
2000
0000
3000
0000
0000
0000
0000
0000
,
1001
1000
0100
0010
0001
0010
0100
1000
0001
0100
0010
0100
0001
1000
0010
0100
,
0001
1000
0100
0010
0001
1000
0010
0100
0001
0010
0100
1000
0001
0100
0010
0100
,
0001
1000
0010
0100
0001
1000
0010
0100
0001
0010
0001
0010
0100
1000
0001
0100
,
0010
1000
0010
1000
0001
0100
0010
1000
0100
0010
0100
0010
0001
0100
0010
1000
,
0001
0010
0001
0010
0100
1000
0001
0100
0010
1000
0010
1000
0001
0100
0010
1000
,
0100
0010
0001
1000
0010
1000
0001
0010
0100
1000
0001
0100
0010
0100
0001
1000
,
0001
0000
1001
0000
0101
0000
0100
0010
0100
0000
0010
1000
0010
0000
0100
0001
,
0100
0000
0010
1000
0010
0000
1000
0001
1000
0000
0000
0000
0000
0000
0000
0000
,
0001
0010
0100
1000
0100
0010
0001
0100
0010
0100
0001
0010
0100
1000
0001
0100
,
0010
1000
0100
0010
0100
1000
0001
0010
0100
1000
0001
0100
0010
1000
0100
0010
,
0001
0000
0000
0000
0000
0000
0100
0000
0000
0010
0000
0000
0000
0000
0000
0010
0000
0000
1000
0000
0000
0000
0000
0000
0001
0000
0010
0000
0100
0000
1000
0000
0100
0000
0010
0000
0001
0000
0100
0000
0010
0000
1000
0000
0100
0000
0010
0000
,
0004
0000
0000
0403
0000
0000
0310
0000
,
1000
0100
0010
0001
0010
0100
1000
0001
0100
0010
1000
0100
0010
0001
0010
0100
1000
0001
0100
0010
1000
0100
0010
0001
,
0010
0100
1000
0001
0100
0010
1000
0100
0010
0001
0010
0100
1000
0001
0010
0100
1000
0100
0010
0001
1000
0010
0100
0001
,
1000
0010
0400
0300
0004
0003
0400
0300
,
0040
0030
0400
0300
0040
0030
0000
1000
,
1001
0000
0001
0000
0100
0010
0100
0000
0110
0000
0010
0000
1000
0100
1000
0000
,
1100
0000
0010
0000
0001
1000
0010
0000
0110
0000
0100
0000
0001
1000
0100
0000
,
1100
0000
1000
0000
0001
0100
0010
0000
0110
0000
0010
0000
1000
0100
1000
0000
,
0001
0000
0100
0000
0010
1000
0010
0000
0100
0000
0001
0000
1000
0100
0010
0000
,
0001
0000
0100
0000
0010
1000
0010
0000
0100
0000
0001
0000
1000
0100
1000
0000
,
0001
0000
0100
0000
0010
1000
0100
0000
0010
0000
0001
0000
1000
0010
0100
0000
,
0001
0000
0010
0000
0100
1000
0001
0000
0100
0000
0010
0000
1000
0100
0010
0000
,
0001
0000
0100
0000
0010
1000
0100
0000
0010
0000
0001
0000
0100
0010
0100
0000
,
1010
1000
0001
0010
0200
1300
0001
0100
,
0020
1030
0100
0010
0002
0103
0010
1000
,
0200
0310
0001
0100
0020
1030
0100
0010
,
0002
1003
0010
0100
0002
0013
0100
1000
,
0020
0130
0001
0100
0010
0010
1000
0100
,
0010
0010
0001
0100
0010
0010
1000
0000
,
1000
0100
1000
0001
1000
0100
1000
0001
,
0200
0000
0000
0304
0000
0000
1003
0000
,
0001
0010
0100
1000
0100
0010
0001
0100
,
0010
1000
0100
0010
0001
0010
0100
1000
,
0001
0100
0010
1000
0100
0010
0001
0100
,
0010
1000
0100
0010
0001
1000
0010
0100
,
0001
1000
0100
0010
0001
0010
0100
1000
,
0001
0100
0010
0100
0001
1000
0010
0100
,
0001
1000
0010
0100
0001
0010
0100
1000
,
0001
0100
0010
1000
0100
0010
0001
1000
,
0001
0100
0010
1000
0100
0010
0001
0010
,
0100
1000
0001
0100
0010
0100
0001
1000
,
0010
0100
0001
1000
0100
0010
0001
0010
,
0100
1000
0001
0100
0010
0100
0001
0010
,
0100
1000
0001
0100
0010
0100
0001
1000
,
0001
0100
0010
1000
0100
0010
0001
1000
,
1001
0001
0101
0100
0110
0010
1010
1000
,
2002
0000
0000
3003
;
