#TITLE:MaxX Enigma;
#SUBTITLE:;
#ARTIST:BeMaNiRuler;
#TITLETRANSLIT:;
#SUBTITLETRANSLIT:;
#ARTISTTRANSLIT:;
#CREDIT:;
#BANNER:MaxX Enigma.jpg;
#BACKGROUND:MaxX Enigma-BG.jpg;
#LYRICSPATH:;
#CDTITLE:;
#MUSIC:MaxX Enigma.OGG;
#OFFSET:0.000;
#SAMPLESTART:31.520;
#SAMPLELENGTH:12.000;
#SELECTABLE:YES;
#BPMS:0.000=320.000,150.000=200.000,150.500=150.000,151.000=100.000,151.500=70.000,152.000=50.000,153.000=90.000,154.000=200.000,155.000=360.000,219.000=280.000,219.250=260.000,219.500=240.000,219.750=220.000,220.000=200.000,220.250=180.000,220.500=160.000,220.750=140.000,221.000=120.000,221.250=100.000,221.500=80.000,221.750=60.000,223.000=360.000;
#STOPS:223.000=0.300
;
#BGCHANGES:;
// cache tags:
#FIRSTBEAT:32.000;
#LASTBEAT:392.000;
#SONGFILENAME:Songs/dragon force/MaxX Enigma/MaxX Enigma.sm;
#HASMUSIC:1;
#HASBANNER:1;
#MUSICLENGTH:75.154;
// end cache tags

//---------------dance-single - ----------------
#NOTES:
     dance-single:
     :
     Easy:
     6:
     0.618,0.913,0.665,0.293,0.000,253.000,50.000,22.000,0.000,0.000:  // measure 1
0000
0000
0000
0000
,  // measure 2
0000
0000
0000
0000
,  // measure 3
0000
0000
0000
0000
,  // measure 4
0000
0000
0000
0000
,  // measure 5
0000
0000
0000
0000
,  // measure 6
0000
0000
0000
0000
,  // measure 7
0000
0000
0000
0000
,  // measure 8
0000
0000
0000
0000
,  // measure 9
1000
0000
1000
0000
,  // measure 10
0001
0000
0001
1000
,  // measure 11
0100
0000
0100
0000
,  // measure 12
0010
0000
0010
0001
,  // measure 13
1000
0000
1000
0000
,  // measure 14
0001
0000
0001
1000
,  // measure 15
0100
0000
0010
0000
,  // measure 16
0100
0000
0010
0000
,  // measure 17
0001
0000
0000
0100
0000
0000
0000
0000
,  // measure 18
0010
0000
0000
0100
0000
0000
0000
0000
,  // measure 19
0001
0000
0000
0100
0000
0000
0000
0000
,  // measure 20
0001
0000
0010
0000
0000
0100
0000
0000
,  // measure 21
0010
0100
0100
0010
,  // measure 22
0100
0100
0010
0100
,  // measure 23
1000
0000
0000
0001
0000
0000
1000
0000
,  // measure 24
0100
0010
0001
0010
,  // measure 25
1001
0000
0100
0000
,  // measure 26
0001
0000
0100
0000
,  // measure 27
1001
0000
0100
0000
,  // measure 28
1000
0000
0100
0000
,  // measure 29
0110
0000
0001
0000
,  // measure 30
0100
0000
0100
0000
,  // measure 31
0110
0000
0000
0000
0010
0000
0000
0010
,  // measure 32
0000
1000
0001
1000
,  // measure 33
0110
0000
0000
0000
0010
0000
0000
0010
,  // measure 34
0000
0001
1000
0001
,  // measure 35
1000
0000
0110
0000
,  // measure 36
0001
0000
0110
0100
,  // measure 37
1001
0000
1001
0000
,  // measure 38
0110
0000
2002
0000
,  // measure 39
0000
0000
0000
3003
,  // measure 40
1001
0000
0100
1000
,  // measure 41
0100
1000
0100
1000
,  // measure 42
1001
0000
0100
0001
,  // measure 43
0100
0001
1001
0000
,  // measure 44
0110
0000
1000
0100
,  // measure 45
1000
0100
1000
0001
,  // measure 46
0110
0000
0001
0100
,  // measure 47
0001
0100
0110
0000
,  // measure 48
0001
0001
0010
0000
,  // measure 49
0010
0000
0100
1000
,  // measure 50
0001
0001
0010
0000
,  // measure 51
0100
0000
0000
0010
0000
0000
1000
0000
,  // measure 52
0001
0000
0001
0000
1000
0001
0000
1000
,  // measure 53
0001
0000
1000
0001
0000
1000
0001
0000
,  // measure 54
1000
1000
0001
1000
,  // measure 55
0001
1000
0010
2002
,  // measure 56
0000
0000
0000
3003
,  // measure 57
1000
1000
0010
0100
,  // measure 58
0010
0100
0001
1000
,  // measure 59
0001
0001
0010
0100
,  // measure 60
0010
0100
1000
0001
,  // measure 61
1000
1000
0010
0100
,  // measure 62
0010
0100
0001
1000
,  // measure 63
0001
0001
0010
0100
,  // measure 64
0010
0100
1000
0001
,  // measure 65
1100
0000
0000
0101
,  // measure 66
0000
0000
0110
0000
,  // measure 67
1001
0000
0000
0110
,  // measure 68
0000
0000
1010
0000
,  // measure 69
1100
0000
0000
0101
,  // measure 70
0000
0000
0110
0000
,  // measure 71
1000
0001
1000
0001
,  // measure 72
0010
0100
0010
0100
,  // measure 73
1100
0000
0000
2002
0000
0000
3003
0000
,  // measure 74
0101
0000
0000
2002
0000
0000
3003
0000
,  // measure 75
1010
0000
0000
0220
0000
0000
0330
0000
,  // measure 76
0011
0000
0000
0220
0000
0000
0330
0000
,  // measure 77
1001
0000
0000
2200
0000
0000
3300
0000
,  // measure 78
1001
0000
0000
0202
0000
0000
0303
0000
,  // measure 79
0011
0000
0000
2020
0000
0000
3030
0000
,  // measure 80
1010
0000
0000
0022
0000
0000
0033
0000
,  // measure 81
1000
1000
0001
1000
,  // measure 82
0001
0001
1000
0001
,  // measure 83
1000
1000
0010
0100
,  // measure 84
0001
0001
0010
0100
,  // measure 85
1000
1000
0001
1000
,  // measure 86
0001
0001
1000
0001
,  // measure 87
1000
0100
0010
0001
,  // measure 88
0100
0010
1001
1001
,  // measure 89
1000
0000
0001
0000
,  // measure 90
1000
0100
0010
0001
,  // measure 91
0100
0000
0010
0000
,  // measure 92
1000
0000
0100
0010
,  // measure 93
0001
0000
1000
0000
,  // measure 94
0001
0010
0100
1000
,  // measure 95
0100
0000
0000
1001
0000
0000
0000
0000
,  // measure 96
0010
0000
0000
1001
0000
0000
0000
0000
,  // measure 97
0110
0000
1001
0000
,  // measure 98
2002
0000
0000
0000
,  // measure 99
3003
0000
0000
0000
;

//---------------dance-single - ----------------
#NOTES:
     dance-single:
     :
     Medium:
     8:
     0.861,1.000,1.000,0.479,0.000,328.000,89.000,36.000,0.000,0.000:  // measure 1
0000
0000
0000
0000
,  // measure 2
0000
0000
0000
0000
,  // measure 3
0000
0000
0000
0000
,  // measure 4
0000
0000
0000
0000
,  // measure 5
0000
0000
0000
0000
,  // measure 6
0000
0000
0000
0000
,  // measure 7
0000
0000
0000
0000
,  // measure 8
0000
0000
0000
0000
,  // measure 9
1000
0010
1000
0010
,  // measure 10
1000
0001
1000
1001
,  // measure 11
0100
0010
0100
0010
,  // measure 12
0100
0010
0110
1001
,  // measure 13
1000
0010
1000
0001
,  // measure 14
1000
0010
1000
1001
,  // measure 15
0100
0010
0100
0010
,  // measure 16
0001
0010
0100
1010
,  // measure 17
1100
0000
0000
0101
0000
0000
1001
0000
,  // measure 18
1010
0000
0000
0011
0000
0000
0110
0000
,  // measure 19
1001
0000
0000
0101
0000
0000
1001
0000
,  // measure 20
0011
0000
0000
0110
0000
0000
0001
1000
,  // measure 21
0010
0100
0100
0010
,  // measure 22
0100
0100
0010
0100
,  // measure 23
0110
0000
0000
1001
0000
0000
0110
0000
,  // measure 24
1000
0100
0010
0100
,  // measure 25
1001
1001
0100
1000
,  // measure 26
0001
1000
0100
1000
,  // measure 27
1001
1001
0100
0001
,  // measure 28
1000
0001
0100
0001
,  // measure 29
0110
0110
0001
1000
,  // measure 30
0100
0001
0100
1001
,  // measure 31
0110
0000
1001
0000
0010
0000
0000
0010
,  // measure 32
0000
1000
0001
1000
,  // measure 33
0110
0000
1001
0000
0010
0000
0000
0010
,  // measure 34
0000
0001
1000
0001
,  // measure 35
1000
1000
0110
0001
,  // measure 36
0001
0000
0001
0000
0110
0000
0100
0001
,  // measure 37
1000
0000
0001
0000
,  // measure 38
1000
0001
2002
0000
,  // measure 39
0000
0000
0000
3003
,  // measure 40
1001
1001
0100
1000
,  // measure 41
0100
1000
0100
1000
,  // measure 42
1001
1001
0100
0001
,  // measure 43
0100
0001
1001
1001
,  // measure 44
0110
0110
1000
0100
,  // measure 45
1000
0100
1000
0001
,  // measure 46
0110
0110
0001
0100
,  // measure 47
0001
1001
0110
1001
,  // measure 48
0001
0000
0001
0000
0010
0100
0000
0010
,  // measure 49
0100
0000
0010
0100
0000
1000
0001
0000
,  // measure 50
1000
0000
1000
0000
0010
0100
0000
0010
,  // measure 51
0100
0000
0010
0100
0000
0001
1000
0000
,  // measure 52
0001
0000
0001
0000
1000
0100
0000
0010
,  // measure 53
0001
0000
0010
0100
0000
1000
0100
0000
,  // measure 54
1000
1000
0001
1000
,  // measure 55
0001
1000
0010
2002
,  // measure 56
0000
0000
0000
3003
,  // measure 57
1000
0001
1000
0000
0010
0000
0100
0000
,  // measure 58
0010
0100
0001
1000
,  // measure 59
0001
1000
0001
0000
0010
0000
0100
0000
,  // measure 60
0010
0100
1000
0001
,  // measure 61
1000
0001
1000
0000
0010
0000
0100
0000
,  // measure 62
0010
0100
0001
1000
,  // measure 63
0001
1000
0001
0000
0010
0000
0100
0000
,  // measure 64
0010
0100
1000
0001
,  // measure 65
2200
0000
3300
0202
,  // measure 66
0000
0303
0110
0110
,  // measure 67
2002
0000
3003
0220
,  // measure 68
0000
0330
2020
3030
,  // measure 69
2200
0000
3300
0202
,  // measure 70
0000
0303
0110
0110
,  // measure 71
1000
0001
1000
0001
1000
0000
0001
1000
,  // measure 72
0010
0100
0010
0100
0010
0100
0010
0000
,  // measure 73
1100
0000
0000
2002
0000
0000
3003
0000
,  // measure 74
0101
0000
0000
2002
0000
0000
3003
0000
,  // measure 75
1010
0000
0000
0220
0000
0000
0330
0000
,  // measure 76
0011
0000
0000
0220
0000
0000
0330
0000
,  // measure 77
1001
0000
0000
2200
0000
0000
3300
0000
,  // measure 78
1001
0000
0000
0202
0000
0000
0303
0000
,  // measure 79
0011
0000
0000
2020
0000
0000
3030
0000
,  // measure 80
1010
0000
0000
0022
0000
0000
0033
0000
,  // measure 81
1000
0100
1000
0000
0001
0000
1000
0000
,  // measure 82
0001
0100
0001
0000
1000
0000
0001
0000
,  // measure 83
1000
0010
1000
0000
0010
0000
0100
0000
,  // measure 84
0001
0010
0001
0000
0010
0000
0100
0000
,  // measure 85
1000
0100
1000
0000
0001
0000
1000
0000
,  // measure 86
0001
0100
0001
0000
1000
0000
0001
0000
,  // measure 87
1001
0110
1001
0110
,  // measure 88
1001
0110
1001
1001
,  // measure 89
1000
1000
0001
0001
,  // measure 90
1000
0100
0010
0001
,  // measure 91
0100
0100
0010
0010
,  // measure 92
1000
1000
0100
0010
,  // measure 93
0001
0001
1000
1000
,  // measure 94
0001
0010
0100
1000
,  // measure 95
0011
0000
0000
1001
0000
0000
0000
0000
,  // measure 96
1010
0000
0000
1001
0000
0000
0000
0000
,  // measure 97
0011
0000
1010
0000
,  // measure 98
2002
0000
0000
0000
,  // measure 99
3003
0000
0000
0000
;

//---------------dance-single - ----------------
#NOTES:
     dance-single:
     :
     Hard:
     10:
     0.990,1.000,0.692,0.359,0.040,442.000,52.000,27.000,0.000,0.000:  // measure 1
0000
0000
0000
0000
,  // measure 2
0000
0000
0000
0000
,  // measure 3
0000
0000
0000
0000
,  // measure 4
0000
0000
0000
0000
,  // measure 5
0000
0000
0000
0000
,  // measure 6
0000
0000
0000
0000
,  // measure 7
0000
0000
0000
0000
,  // measure 8
0000
0000
0000
0000
,  // measure 9
1000
0010
1000
0010
,  // measure 10
1000
0000
0001
0000
1000
0000
0001
1000
,  // measure 11
0100
0010
0100
0010
,  // measure 12
0100
0000
0010
0000
0110
0000
0010
0001
,  // measure 13
1000
0010
1000
0001
,  // measure 14
1000
0000
0010
0000
1000
0000
0001
1000
,  // measure 15
0100
0010
0100
0010
,  // measure 16
0001
0000
0010
0000
0100
0000
1000
0010
,  // measure 17
1200
0000
0000
0301
0000
0000
1001
0000
,  // measure 18
1020
0000
0000
0031
0000
0000
0110
0000
,  // measure 19
1002
0000
0000
0103
0000
0000
1001
0000
,  // measure 20
0021
0000
0000
0130
0000
0000
0001
1000
,  // measure 21
0010
1100
0101
0010
,  // measure 22
0101
1100
0010
1001
,  // measure 23
2010
0000
0000
0100
0000
0000
3010
0000
,  // measure 24
0100
0001
0100
0000
0010
1000
0010
0000
,  // measure 25
1000
0100
0001
0000
0100
0000
1000
0000
,  // measure 26
0001
1000
0100
1000
,  // measure 27
0001
0100
1000
0000
0100
0000
0001
0000
,  // measure 28
1000
0001
0100
0001
,  // measure 29
0100
0010
0100
0000
0001
0000
1000
0000
,  // measure 30
0100
0001
0100
1001
,  // measure 31
1000
0100
1000
0000
0010
0000
1000
0010
,  // measure 32
0000
0010
1000
0000
0001
0000
1000
0000
,  // measure 33
0001
0100
0001
0000
0010
0000
0001
0010
,  // measure 34
0000
0010
0001
0000
1000
0000
0001
0000
,  // measure 35
1000
0100
1000
0100
0001
0000
0100
1000
,  // measure 36
0001
0100
0001
0100
1000
0000
0100
0001
,  // measure 37
1000
0000
0010
0000
0100
0000
0001
0000
0010
0000
0100
0000
,  // measure 38
1000
0000
0001
1000
0001
0000
2002
0000
0000
0000
0000
0000
,  // measure 39
0000
0000
0000
3003
,  // measure 40
1000
0001
1000
0000
0100
0000
1000
0000
,  // measure 41
0100
1000
0100
1000
,  // measure 42
0001
1000
0001
0000
0100
0000
0001
0000
,  // measure 43
0100
0000
0001
0000
1000
0100
1000
0000
,  // measure 44
0010
0100
0010
0000
1000
0000
0100
0000
,  // measure 45
1000
0100
1000
0001
,  // measure 46
0010
0100
0010
0000
0001
0000
0100
0000
,  // measure 47
0001
0000
1000
0010
0100
0001
1000
0000
,  // measure 48
0001
0100
0001
0100
0010
1000
0000
0001
,  // measure 49
0100
0000
0010
0100
0000
0001
1000
0000
,  // measure 50
0010
0100
0010
0100
0001
1000
0000
0010
,  // measure 51
1000
0000
0001
1000
0000
0001
0100
0010
,  // measure 52
1000
0100
1000
0100
0010
1000
0000
0010
,  // measure 53
0001
0000
0010
1000
0000
0010
0001
0000
,  // measure 54
1000
0100
1000
0010
1000
0000
0001
0010
,  // measure 55
0001
0000
1000
0100
0010
0100
2002
0000
,  // measure 56
0000
0000
0000
3003
,  // measure 57
1000
0100
1000
0000
0010
0000
0100
0010
,  // measure 58
0000
0010
0100
0000
0001
0000
1000
0010
,  // measure 59
0100
0001
0100
0000
0010
0000
0100
0010
,  // measure 60
0000
0010
0100
0000
0001
0000
1000
0010
,  // measure 61
1000
0001
1000
0000
0010
0000
0100
0010
,  // measure 62
0000
0010
0100
0000
0001
0000
1000
0010
,  // measure 63
1000
0001
1000
0000
0010
0000
0100
0010
,  // measure 64
0000
0010
0100
0000
0001
0000
1000
0001
,  // measure 65
1000
0100
1000
0100
1000
0000
0001
0100
,  // measure 66
0001
0100
0001
0000
0110
0000
0100
0010
,  // measure 67
1000
0001
1000
0001
1000
0000
0010
0100
,  // measure 68
0010
0100
0010
0000
1000
0010
1000
0000
,  // measure 69
0001
0100
0010
1000
0001
0000
1000
0100
,  // measure 70
0010
0001
1000
0000
0110
0000
0100
0010
,  // measure 71
1000
0100
0001
0100
1000
0000
0001
1000
,  // measure 72
0001
0010
0100
1000
0100
0010
0001
0000
,  // measure 73
1000
0100
0010
2002
0000
0000
3003
0000
,  // measure 74
0001
0010
0100
2002
0000
0000
3003
0000
,  // measure 75
0010
1000
0001
0220
0000
0000
0330
0000
,  // measure 76
0010
0001
1000
0220
0000
0000
0330
0000
,  // measure 77
1000
0001
0010
2200
0000
0000
3300
0000
,  // measure 78
0001
1000
0010
0202
0000
0000
0303
0000
,  // measure 79
0010
0100
0001
2020
0000
0000
3030
0000
,  // measure 80
0010
0100
1000
0022
0000
0000
0033
0000
,  // measure 81
1000
0100
1000
0000
0101
0000
1100
0000
,  // measure 82
0001
0100
0001
0000
1100
0000
0101
0000
,  // measure 83
1000
0010
1000
0000
0011
0000
1010
0000
,  // measure 84
0001
0010
0001
0000
1010
0000
0011
0000
,  // measure 85
1000
0100
1000
0000
0101
0000
1100
0000
,  // measure 86
0001
0100
0001
0000
1100
0000
1001
0000
,  // measure 87
1001
0100
0010
0000
1001
0000
0110
0000
,  // measure 88
1001
0100
0010
0000
1001
0000
1001
0000
,  // measure 89
0010
1000
0100
0000
0010
0001
0100
0000
,  // measure 90
0010
1000
0100
0010
0001
0100
0010
0000
,  // measure 91
0100
0001
0010
0000
0100
1000
0010
0000
,  // measure 92
0100
0001
1000
0000
1000
0100
0010
0001
,  // measure 93
0100
0010
1000
0000
0100
0010
0001
0000
,  // measure 94
0100
0010
1000
0100
0010
0001
0100
0000
,  // measure 95
0011
0000
0000
1001
0000
0000
0000
0000
,  // measure 96
1010
0000
0000
1001
0000
0000
0000
0000
,  // measure 97
0011
0000
1010
0000
,  // measure 98
2002
0000
0000
0000
,  // measure 99
3003
0000
0000
0000
;
