#TITLE:Emerald Sword;
#SUBTITLE:;
#ARTIST:Rhapsody;
#TITLETRANSLIT:;
#SUBTITLETRANSLIT:;
#ARTISTTRANSLIT:;
#CREDIT:;
#BANNER:Emerald Sword-bn.png;
#BACKGROUND:Emerald Sword-bg.png;
#LYRICSPATH:;
#CDTITLE:;
#MUSIC:Emerald Sword.mp3;
#OFFSET:-0.620;
#SAMPLESTART:65.220;
#SAMPLELENGTH:21.000;
#SELECTABLE:YES;
#BPMS:0.000=180.001;
#STOPS:;
#BGCHANGES:;
// cache tags:
#FIRSTBEAT:32.000;
#LASTBEAT:320.000;
#SONGFILENAME:Songs/cedric step/Emerald Sword/Emerald Sword.sm;
#HASMUSIC:1;
#HASBANNER:1;
#MUSICLENGTH:108.546;
// end cache tags

//---------------dance-single - hard----------------
#NOTES:
     dance-single:
     hard:
     Hard:
     8:
     0.632,0.626,0.359,0.295,0.009,409.000,39.000,32.000,0.000,0.000:
0000
0000
0000
0000
,
0000
0000
0000
0000
,
0000
0000
0000
0000
,
0000
0000
0000
0000
,
0000
0000
0000
0000
,
0000
0000
0000
0000
,
0000
0000
0000
0000
,
0000
0000
0000
0000
,
1001
0000
0100
0000
0100
0001
0010
0000
,
0010
1000
0100
0000
0100
1000
0001
0100
,
0010
0000
0100
0000
1000
0100
0001
0000
,
0100
0010
1000
0001
0100
0000
0010
1000
,
0100
0000
0101
0000
0001
0100
1000
0000
,
0100
0010
0001
1000
0100
0000
1000
0001
,
0100
0000
0101
0000
0010
1000
0100
0000
,
0010
0001
1000
0100
0010
0000
0011
0000
,
1000
0100
1000
0010
1000
0000
1010
0000
,
0001
1000
0001
0100
0001
0000
0101
0000
,
1000
0100
0001
0100
1000
0000
1001
0000
,
1000
0010
0100
0001
1000
0000
1000
0100
,
0001
0000
0001
0010
1000
0000
1000
0100
,
0001
0001
1001
0110
,
0001
0100
0010
1000
0001
0100
0010
0000
,
0010
1000
0001
1000
0010
0000
1001
0000
,
1000
0001
0100
0010
1000
0001
0100
0000
,
0001
1000
0010
0100
0001
1000
0100
0000
,
0100
0001
1000
0010
0100
0010
1000
0000
,
0010
1000
0100
1000
0010
0000
1001
0000
,
1000
0100
0010
0001
0010
0100
1000
0010
,
0100
0001
1000
0010
0100
0001
1000
0000
,
0010
1000
0001
0100
0010
1000
0001
0000
,
0100
1000
0100
0010
0001
0010
0001
1000
,
1001
0000
0001
1000
0001
1000
0100
0000
,
0010
0000
1000
0001
1000
0001
0100
0010
,
1000
0000
0100
1000
0010
0100
0001
0000
,
0100
0000
0010
0100
0001
0010
0100
1000
,
0001
0000
0000
0100
0000
0000
0001
0000
1000
0000
0000
0000
1001
0000
0000
0000
,
1000
0000
0000
0100
0000
0000
1000
0000
0001
0000
0000
0000
1000
0000
0000
0000
,
1000
0100
1000
0000
1000
0100
1000
0001
,
0010
0001
0100
0001
0100
0001
0100
0010
,
0022
0033
2020
3030
,
0220
0330
0100
0010
,
2002
3003
0220
0330
,
2002
3003
0000
0010
,
2200
3300
0022
0033
,
0220
0330
0010
0010
,
2002
3003
0220
0330
,
2002
0000
0000
3003
,
0000
0000
0100
0010
,
0100
0001
0100
0010
1000
0010
0100
0000
,
0001
0100
0001
1000
0100
1000
0010
0000
,
1000
0001
0100
0010
1000
0001
0100
0000
,
1000
0100
0001
0000
0011
0000
1100
0000
,
1000
0010
0100
0001
0100
0010
1000
0000
,
0001
1000
0100
1000
0001
1000
0100
0000
,
0010
1000
0100
0010
0001
0010
0100
0000
,
0010
1000
0100
0000
1001
0000
0110
0000
,
1000
0001
0100
0001
1000
0010
0100
0000
,
0001
1000
0100
0010
0001
1000
0100
0000
,
0001
1000
0100
0000
0100
1000
0001
0000
,
0001
1000
0010
0100
0001
1000
0100
0000
,
1000
0000
0100
0010
1000
0001
0010
0000
,
0110
0000
0100
1000
0100
0010
0100
0000
,
0010
1000
0001
1000
0010
0100
0001
1000
,
0010
2020
3030
0000
1100
0000
0011
0000
,
0100
1000
0010
0100
0001
0100
0010
0000
,
0010
1000
0100
0010
0001
0010
0100
0000
,
0100
0001
0010
0001
1000
0100
0010
0000
,
0100
1000
0010
0100
0001
0100
0010
0000
,
0001
1000
0100
0000
0010
1000
0100
0000
,
0100
0010
1000
0100
0010
0001
0010
0000
,
1000
0010
0100
0000
0011
0000
1010
0000
,
0010
1000
0100
0000
0100
1000
0010
0000
,
0010
1000
0100
1000
0001
0100
0010
0000
,
0001
0010
0100
1000
0100
0010
0001
0000
,
1000
0010
0100
0001
0010
0100
1000
0000
,
0001
1000
0010
0100
0001
1000
0010
0000
,
0202
0000
0000
0303
,
2020
0000
0000
3030
,
0220
0000
0000
0330
,
1001
0000
0000
0000
;

//---------------dance-single - medium----------------
#NOTES:
     dance-single:
     medium:
     Medium:
     6:
     0.432,0.479,0.258,0.184,0.000,280.000,28.000,20.000,0.000,0.000:
0000
0000
0000
0000
,
0000
0000
0000
0000
,
0000
0000
0000
0000
,
0000
0000
0000
0000
,
0000
0000
0000
0000
,
0000
0000
0000
0000
,
0000
0000
0000
0000
,
0000
0000
0000
0000
,
1001
0100
0100
0010
,
0010
0100
0100
0001
,
1100
0100
1000
0001
,
0100
1000
0100
0011
,
1100
0100
0001
1000
,
0100
0001
0100
1000
,
0100
0101
0010
0100
,
0010
1000
0010
0011
,
1000
1000
1000
1010
,
0001
0001
0001
0101
,
1000
0001
1000
1001
,
1000
0000
0100
0000
1000
0000
1000
0100
,
1000
0000
0001
0010
0001
0000
0100
0000
,
0100
0110
1001
0110
,
0001
0010
0001
0010
,
0100
0001
0010
1010
,
1000
0010
0100
0001
,
1000
0010
0100
0001
,
0010
1000
0100
1000
,
0010
0100
0010
1001
,
1000
0010
0010
1000
,
0100
1000
0100
1000
,
0010
0001
0010
0001
,
0100
0100
0001
0001
,
1001
0001
0001
0100
,
0010
1000
1000
0100
,
1000
0100
0010
0001
,
0100
0010
0001
0100
,
0002
0000
1003
1001
,
2000
0000
3001
1000
,
0010
0001
0100
1000
,
0010
0100
0100
0100
,
0200
0300
0020
0030
,
0200
0300
0100
0010
,
0200
0300
0002
0003
,
2000
3000
0000
0010
,
0200
0300
2000
3000
,
0002
0003
0000
0010
,
0200
0300
0002
0003
,
2002
0000
0000
3003
,
0000
0000
0100
0010
,
0100
0000
0100
0000
1000
0010
0100
0000
,
0001
0000
0001
0000
0100
0001
0010
0000
,
1000
0000
0100
0000
1000
0001
0100
0000
,
1000
0001
0011
1100
,
1000
0000
0100
0000
0100
0010
1000
0000
,
0001
0000
0100
0000
0001
0010
0100
0000
,
0010
0000
0100
0000
0001
1000
0100
0000
,
0010
0100
0010
0000
1001
0000
0110
0000
,
1000
0000
0100
0000
1000
0001
0100
0000
,
0001
0000
0100
0000
0001
1000
0100
0000
,
0001
0000
0100
0000
0100
1000
0001
0000
,
0001
0000
0010
0000
0001
0100
1000
0000
,
1000
0000
0100
0000
1000
0001
0010
0000
,
0110
0000
0100
0000
0100
0010
0100
0010
,
0100
0001
0010
0001
,
0010
0200
0300
0000
1100
0000
0011
0000
,
0100
0000
0010
0000
0001
0100
0010
0000
,
0010
0000
0100
0000
0001
0010
1000
0000
,
0100
0000
0010
0000
1000
0001
1000
0000
,
0100
0010
0001
0010
,
0001
0100
0010
0100
,
0100
1000
0010
0010
,
1000
0100
0011
1010
,
0010
0000
0100
0000
0100
0001
0010
0000
,
0010
0100
0001
0010
,
0001
0100
1000
0001
,
1000
0100
0010
0001
,
1000
0010
0100
0001
,
2000
0000
0000
3000
,
0002
0000
0000
0003
,
0220
0000
0000
0330
,
1001
0000
0000
0000
;

//---------------dance-single - easy----------------
#NOTES:
     dance-single:
     easy:
     Easy:
     5:
     0.354,0.405,0.221,0.175,0.000,226.000,24.000,19.000,0.000,0.000:
0000
0000
0000
0000
,
0000
0000
0000
0000
,
0000
0000
0000
0000
,
0000
0000
0000
0000
,
0000
0000
0000
0000
,
0000
0000
0000
0000
,
0000
0000
0000
0000
,
0000
0000
0000
0000
,
1001
0000
0100
0000
,
0010
0000
0100
0001
,
1001
0000
0100
0000
,
0010
0000
0100
1100
,
1000
0000
0001
0000
,
0100
0000
0010
0011
,
0001
0000
0010
0000
,
1000
0000
0010
0110
,
0100
1000
1000
1010
,
0010
0001
0100
0101
,
0001
1000
0001
1001
,
1000
0100
1000
0001
,
1000
0010
0100
0010
,
0100
0010
1001
0110
,
0001
0010
0001
0010
,
0100
0001
0010
1010
,
1000
0010
0000
0001
,
0000
0010
0000
0001
,
0000
1000
0000
1000
,
0000
0100
0000
1001
,
1000
0010
0000
0100
,
0000
0001
0000
0010
,
0000
1000
0000
0010
,
0000
0100
0000
0001
,
1001
0001
0000
0100
,
0000
1000
0000
0100
,
0000
0001
0000
1000
,
0000
0010
0000
0100
,
0002
0000
1003
1001
,
2000
0000
3001
1000
,
0001
1000
0001
1000
,
0010
0100
0000
0100
,
0200
0300
0020
0030
,
0200
0300
0100
0010
,
0200
0300
0002
0003
,
2000
3000
0000
0010
,
0200
0300
2000
3000
,
0002
0003
0000
0010
,
0200
0300
0002
0003
,
2002
0000
0000
3003
,
0000
0000
0100
0010
,
0100
0001
1000
0100
,
0001
0010
0100
0010
,
1000
0100
1000
0100
,
1000
0001
0010
1100
,
1000
0100
0100
1000
,
0001
0100
0001
0100
,
0010
0100
0001
0100
,
0010
0010
0001
0110
,
1000
0100
1000
0100
,
0001
0100
0001
0100
,
0001
0100
1000
0001
,
0100
0010
0100
1000
,
0001
0100
0001
0010
,
0110
0100
0100
0100
,
0100
0001
0010
0001
,
0010
0001
0000
0000
1100
0000
0011
0000
,
0100
0010
0001
0010
,
0010
0100
0001
1000
,
0100
0010
1000
1000
,
0100
0010
0001
0010
,
0001
0100
0010
0100
,
0100
1000
0010
0010
,
1000
0100
0011
1010
,
0010
0100
0100
0010
,
0010
0100
0001
0010
,
0001
0100
1000
0001
,
1000
0100
0010
0001
,
1000
0010
0100
0001
,
2000
0000
0000
3000
,
0002
0000
0000
0003
,
0220
0000
0000
0330
,
1001
0000
0000
0000
;
