#TITLE:Mah Ding Dong;
#SUBTITLE:;
#ARTIST:m1dlet;
#TITLETRANSLIT:;
#SUBTITLETRANSLIT:;
#ARTISTTRANSLIT:;
#CREDIT:Aoreo & Rynker;
#BANNER:Bn-Dong.png;
#BACKGROUND:Bg-Dong.png;
#LYRICSPATH:;
#CDTITLE:;
#MUSIC:Mah Ding Dong.ogg;
#OFFSET:0.009;
#SAMPLESTART:60.858;
#SAMPLELENGTH:12.000;
#SELECTABLE:YES;
#DISPLAYBPM:260.000;
#BPMS:0.000=260.000,128.000=130.000,192.000=260.000;
#STOPS:;
#BGCHANGES:;
// cache tags:
#FIRSTBEAT:2.000;
#LASTBEAT:564.000;
#SONGFILENAME:Songs/SPEEEDCOOOORE/Mah Ding Dong - [Aoreo & Rynker]/Mah Ding Dong.sm;
#HASMUSIC:1;
#HASBANNER:1;
#MUSICLENGTH:147.769;
// end cache tags

//---------------dance-single - J. Nero vs R. Konkul----------------
#NOTES:
     dance-single:
     J. Nero vs R. Konkul:
     Challenge:
     11:
     0.839,1.000,0.555,0.311,0.054,740.000,82.000,46.000,47.000,0.000:

0000
0000
2000
0000
,
0000
3010
0100
0001
,
0010
0010
0010
0000
,
0000
0000
0000
0000
0000
0000
0100
1000
,
0001
0000
2000
0000
,
0000
3010
0100
0100
,
0100
0000
0000
0000
,
0000
0000
0000
M00M
0000
0000
0000
0000
,
1001
0000
0001
0000
0010
0000
0100
1000
,
0000
1000
0010
0000
0100
0000
0000
0000
,
0010
0000
0100
0000
0001
0000
0010
0100
,
0000
0100
1000
0000
0010
0000
0010
0100
,
0002
0003
1000
0000
,
0100
0000
0010
0000
,
0001
0000
1000
0000
,
0000
0000
0000
0000
,
1001
0000
0001
0010
0000
0010
0100
0000
,
1000
0010
0110
0101
,
0001
0000
0010
0100
0000
0100
1000
0000
,
0100
0000
0100
0000
1000
0000
0000
0000
0001
0000
0100
0010
0100
0000
0001
0000
,
1000
0000
0100
0010
0000
0010
0001
0000
,
0100
0000
0010
0000
1010
0000
1001
0001
,
0010
0000
0010
0100
0000
0100
1000
0000
,
0001
0010
0001
0100
0001
0000
1000
0000
,
1100
0000
0100
0010
0000
0010
0001
0000
,
0100
0010
1010
1001
,
1000
0000
0001
0010
0000
0010
0100
0000
,
1000
0001
1100
0011
,
1000
0000
0001
0100
0000
0100
0010
0000
,
1000
0010
0100
0001
0010
0100
1000
0001
,
0100
0010
1000
0001
0010
0100
1000
0001
,
0100
0010
1000
0010
0100
0001
0010
0100
,
1000
0000
00M0
0M00
00M0
0000
M000
0M00
,
M000
0000
000M
00M0
0M00
M000
000M
0M00
,
00M0
0000
0M00
00M0
0M00
0000
000M
00M0
,
0M00
0000
M000
0M00
00M0
000M
00M0
0M00
,
1001
0000
1000
0100
1000
0000
0010
0100
,
0001
0000
0010
0100
0001
0100
0010
0100
,
1000
0000
0001
1000
0100
0000
1000
0010
,
0100
0000
0010
0100
0010
0001
0010
1000
,
0010
0000
1000
0100
0001
0000
0100
1000
,
0001
0000
0100
0010
0001
0010
1000
0001
,
0010
0000
0100
0001
0100
0000
1000
0010
,
1000
0000
0010
0001
0010
1000
0001
1000
,
0100
0000
0010
0001
0100
0000
0100
1000
,
0100
0000
0100
0001
0010
0100
0010
1000
,
0010
0000
0100
0010
0100
0000
0100
0001
,
0100
0000
1000
0001
0100
0010
1000
0100
,
M11M
0110
0100
1000
,
1001
1001
0001
0100
,
0101
0101
0110
0110
,
1010
0000
1000
0000
0001
0000
0000
0000
0010
0000
0001
0100
0001
0000
0010
0000
,
0100
1100
1100
1001
,
1001
0000
0101
0000
0101
0000
0110
0100
,
0001
1001
1100
1001
,
0101
0110
1010
0000
,
0011
1100
0001
1000
,
0011
1100
1010
0110
,
1001
0110
0011
0001
,
0101
1010
1100
0011
,
0101
1010
0011
0110
,
1100
0101
0011
1010
,
0110
1001
0011
1100
,
1000
0001
0100
0010
,
2002
3003
1000
0100
0020
0130
0010
0000
,
0002
0003
0100
0000
2020
3030
1001
0000
,
0002
0003
0010
0100
0020
0130
1000
0000
,
0020
0030
0100
0000
0202
0303
1100
0000
,
0200
0300
0010
0001
0020
0031
0010
0000
,
0200
0300
1000
0000
2020
3030
0011
0000
,
0002
0003
0010
0100
0020
0130
1000
0000
,
0020
0000
0000
0000
0000
0000
0130
0000
0000
0000
0000
0000
0001
0000
0000
0000
0000
0000
1000
0000
0000
0000
0000
0000
0002
0000
0003
1000
0000
0000
0001
0000
0000
1000
0000
0000
0001
0000
0000
1000
0000
0000
0001
0000
0000
1000
0000
0000
,
0002
0003
1000
0100
2000
3100
0010
0000
,
0002
0003
1000
0000
2020
3030
0110
0000
,
0002
0003
1000
0100
2000
3100
0010
0000
,
0002
0003
0010
0000
0220
0330
1001
0000
,
0002
0003
0100
0010
0200
0310
1000
0000
,
0200
0300
0010
0000
0022
0033
1100
0000
,
0200
0300
1000
0010
2000
3010
0100
0000
,
0002
0000
0003
0000
0010
0000
0000
0000
0020
0000
0130
1000
0100
0000
1000
0000
,
0001
0000
2000
0000
,
0000
3010
0100
0001
,
0010
0010
0010
0000
,
0000
0000
0000
0000
0000
0000
0100
1000
,
0001
0000
0200
0000
,
0000
0310
1000
1000
,
1000
0000
0000
0000
,
0000
0000
0000
M00M
0000
0000
0000
0000
,
0001
1000
0100
0010
0100
1000
0001
0100
,
0010
1000
0001
0010
0100
1000
0001
0100
,
0001
0100
0010
1000
0001
0010
0100
1000
,
0001
0000
0100
0000
0010
0000
0100
0000
0001
0000
1000
0000
0001
0000
0100
0001
,
0100
0001
0010
0100
1000
0001
0100
0010
,
1000
0001
0010
0100
0010
0001
1000
0100
,
0010
0100
1000
0001
0010
0100
0010
0001
,
1000
0000
0100
0000
1000
0000
0010
0000
0100
0001
0100
0001
0400
0000
0000
0000
,
0301
0100
0010
1000
0100
0000
1100
0000
,
1000
0010
0100
0001
0010
0000
0110
0000
,
0100
1000
0001
1000
0010
0100
0001
1000
,
0100
0010
0001
0100
0010
0000
0010
0000
,
0100
0001
0010
0100
0010
0001
1000
0001
,
0100
0010
0100
0001
1000
0100
0010
0001
,
1000
0100
0010
0100
1000
0001
0100
0001
,
M000
00M0
0M00
000M
,
0100
0010
1000
0100
0010
0100
1000
0001
,
0100
0010
1000
0001
0100
0010
1000
0001
,
0100
0001
1000
0100
1000
0010
0100
0001
,
1000
0000
0100
0000
0010
0000
0001
0000
0100
0000
0010
0000
0100
0000
0001
1000
,
0001
1000
0100
0010
0100
1000
0001
0100
,
0010
0100
0001
1000
0100
0010
0100
1000
,
0001
0100
0010
1000
0100
0010
0001
0100
,
0010
0000
1000
0000
0001
0000
0100
0000
0001
1000
0001
1000
0004
0000
0000
0000
,
1003
0100
0010
0001
0010
0000
0011
0000
,
0001
0010
0100
0010
0100
0000
1100
0000
,
1000
0010
0100
0001
0010
0100
0010
0001
,
1000
0010
0100
0001
0100
0000
0100
0000
,
0001
0010
0100
0010
0001
1000
0001
1000
,
0010
0100
0001
0010
0100
1000
0001
1000
,
0010
0100
0001
1000
0100
0010
0100
1000
,
0MMM
0000
0MMM
0000
,
0001
1000
0100
0010
0100
1000
0001
0100
,
0010
1000
0001
0010
0100
1000
0001
0100
,
0001
0100
0010
1000
0001
0010
0100
1000
,
0001
0000
0100
0000
0010
0000
0100
0000
0001
0000
1000
0000
0001
0000
0100
0001
,
0100
0001
0010
0100
1000
0001
0100
0010
,
1000
0001
0010
0100
0010
0001
1000
0100
,
0010
0100
1000
0001
0010
0100
0010
0001
,
1000
0000
0100
0000
1000
0000
0010
0000
0100
0001
0100
0001
0400
0000
0000
0000
,
0301
0100
0010
1000
0100
0000
1100
0000
,
1000
0010
0100
0001
0010
0000
0110
0000
,
0100
1000
0001
1000
0010
0100
0001
1000
,
0100
0010
0001
0100
0010
0000
0010
0000
,
0100
0001
0010
0100
0010
0001
1000
0001
,
0100
0010
0100
0001
1000
0100
0010
0001
,
1000
0100
0010
0100
1000
0001
0100
0001
,
MMM0
0000
MMM0
0000
,
1001
0000
0002
0000
,
0000
0013
0100
1000
,
0001
0001
0001
0000
,
0000
0000
0000
0000
0000
0000
0100
0001
,
1000
0000
0200
0000
,
0300
0000
0000
0000
;
