#TITLE:Self Esteem (Skazi + Irritante Remix);
#SUBTITLE:;
#ARTIST:The Offspring;
#TITLETRANSLIT:;
#SUBTITLETRANSLIT:;
#ARTISTTRANSLIT:;
#CREDIT:;
#BANNER:self.png;
#BACKGROUND:self-bg.png;
#LYRICSPATH:;
#CDTITLE:;
#MUSIC:self.ogg;
#OFFSET:0.020;
#SAMPLESTART:39.684;
#SAMPLELENGTH:12.000;
#SELECTABLE:YES;
#DISPLAYBPM:145.000;
#BPMS:0.000=145.000,157.000=290.000,159.000=145.000;
#STOPS:30.500=0.414
,157.000=0.052
,157.250=0.052
,157.500=0.052
,157.750=0.052
,158.000=0.103
,158.500=0.052
,158.750=0.052
;
#BGCHANGES:;
// cache tags:
#FIRSTBEAT:30.500;
#LASTBEAT:260.000;
#SONGFILENAME:Songs/Rodd's Rad Christmas Pack/Self Esteem (Rodd Steps)/Self Esteem (Rodd Steps).sm;
#HASMUSIC:1;
#HASBANNER:1;
#MUSICLENGTH:114.149;
// end cache tags

//---------------dance-single - R. Farias----------------
#NOTES:
     dance-single:
     R. Farias:
     Challenge:
     11:
     0.981,0.997,0.061,0.438,1.000,727.000,7.000,50.000,23.000,1.000:

0000
0000
0000
0000
,
0000
0000
0000
0000
,
0000
0000
0000
0000
,
0000
0000
0000
0000
,
0000
0000
0000
0000
,
0000
0000
0000
0000
,
0000
0000
0000
0000
,
0000
0000
0000
0000
0000
0000
0000
0000
0000
0000
MMMM
0000
0001
0000
0100
0010
,
1000
0000
0001
1000
0100
0000
0010
0001
1000
0000
0001
0100
0001
0000
0100
0010
,
1000
0000
0001
0000
1000
0000
0100
0010
0001
0100
0010
0000
1000
0000
0100
0010
,
0001
0000
0100
0010
1000
0000
0001
1000
0100
0000
0010
0001
0010
0000
0001
0100
,
0010
0000
1000
0000
0100
0000
0010
0001
0100
0010
1000
0000
0001
0000
1000
0000
,
0100
0000
0010
0001
1000
0000
0001
0000
0100
0000
0010
1000
0001
0000
1000
0100
,
0010
0000
0001
0000
0100
0000
0010
1000
0010
1000
0010
0000
1000
0000
0001
1000
,
0100
0000
0010
0001
1000
0000
0001
0100
0010
0000
0100
0001
1000
0000
0100
0010
,
0001
0000
0020
0230
2300
0000
0000
0000
3200
0000
0320
0000
1031
0000
0001
0100
,
0010
0000
0100
0001
1000
0000
0100
0010
0001
0000
0010
0100
1000
0000
0100
0010
,
0001
0000
0100
0010
1000
0000
0001
1000
0100
0000
0010
0001
1000
0000
0001
0100
,
0010
0000
0100
0010
1000
0000
0001
1000
0100
0000
0010
0001
0010
0000
0001
0100
,
0010
0000
0100
0001
1000
0100
0010
0001
1000
0000
0001
0100
0010
0000
1000
0100
,
0010
0000
0100
1000
0001
0000
0100
0010
1000
0000
0010
0100
0001
0000
0100
0010
,
1000
0000
0010
0100
0001
0000
1000
0100
0010
0000
0100
1000
0010
0000
1000
0100
,
0010
0000
0001
1000
0001
0000
0100
0001
0100
0000
0010
1000
0010
0000
1000
0001
,
1000
0000
0001
0200
0302
0203
0302
0203
0320
0000
0000
0000
1030
0100
0010
0001
,
0010
0100
1000
0001
0100
0010
1000
0100
1000
0001
0100
0001
1000
0100
1000
0010
,
1000
0001
0010
0001
0100
0010
1000
0001
0100
0010
0100
0001
1000
0100
0010
0100
,
0010
0100
1000
0001
0100
0010
1000
0100
1000
0010
0100
0001
0010
0001
1000
0001
,
0100
0001
0010
0001
0100
0010
1000
0100
1000
0010
1000
0001
1000
0100
1000
0010
,
0100
0001
1000
0100
0010
0001
0010
0100
1000
0100
0010
0001
1000
0100
0010
0001
,
0010
0100
1000
0100
0010
0001
0010
0100
1000
0001
0010
0100
1000
0001
0100
0010
,
1000
0100
1000
0010
0100
0001
1000
0100
0010
0100
1000
0001
0100
0010
1000
0100
,
1000
0001
0100
0010
1000
0100
0010
0001
0010
0100
1000
0001
0200
0000
0000
0310
,
1000
0000
0001
1000
0200
0000
0000
0310
0001
0000
0100
0010
2000
0000
0000
3100
,
0010
0000
0001
0100
0020
0000
0000
0130
0001
0000
1000
0100
0020
0000
0000
0130
,
1000
0000
0001
0100
0020
0000
0000
1030
0001
0000
1000
0100
0020
0000
0000
0031
,
0100
0000
0010
1000
0020
0000
0000
1030
0001
0000
1000
0100
2000
0000
0000
3100
,
0010
0000
0001
0100
0002
0000
0000
0103
0020
0000
1030
0100
0020
0000
0000
0031
,
0100
0000
0010
1000
0002
0000
0000
1003
0100
0000
0010
0001
0020
0000
0000
0031
,
0100
0000
0010
1000
0002
0000
0000
1003
0100
0000
0010
0001
2000
0000
0000
3001
,
0100
0000
0010
1000
0100
1000
0001
1000
0100
0000
0010
0001
0200
0000
0000
0310
,
1000
0000
0010
1000
0020
0000
0000
1030
0001
0000
1000
0001
2000
0000
0000
3100
,
0010
0000
0100
0010
0200
0000
0000
0310
0001
0000
0010
0001
0020
0000
0000
0031
,
0100
0000
0001
0100
0002
0000
0000
0103
0010
0000
0100
0010
0200
0000
0000
0310
,
1000
0000
0010
1000
0020
0000
0000
1030
0001
0000
1000
0001
2000
0000
0000
3100
,
0010
0000
0001
0100
0020
0000
0000
0130
0001
0000
1000
0100
2000
0000
0000
3100
,
0010
0000
0001
1000
0002
0000
0000
0103
0010
0000
0100
0001
2000
0000
0000
3100
,
0010
0000
0100
1000
0002
0000
0000
0103
0010
0000
0100
0001
2000
0000
0000
3100
,
0010
0000
0001
0100
0020
2030
3020
2030
3020
0000
2030
0000
3001
1000
0100
0010
,
0001
0100
0010
1000
0001
1000
0100
1000
0010
0100
0001
0010
0001
0100
0010
1000
,
0100
1000
0001
0100
0001
1000
0100
1000
0010
1000
0001
0010
0001
0100
0010
1000
,
0001
0100
0010
0100
0001
1000
0100
0010
0100
1000
0001
0100
0010
1000
0001
0100
,
0010
0100
0001
0100
0010
1000
0001
0100
0010
0100
0001
1000
0100
0010
0100
1000
,
0100
0010
0001
0100
0010
1000
0100
1000
0001
0100
0001
1000
0100
0010
0001
0010
,
0100
1000
0001
0010
0100
1000
0100
0010
0001
1000
0100
0010
0001
1000
0001
0100
,
0010
1000
0100
0010
0001
0010
0100
1000
0100
0010
0001
0100
0010
1000
0001
0100
,
0010
0100
0001
1000
0100
1000
0001
0100
0001
1000
0100
0010
0001
0100
0001
0100
,
0001
0100
0001
0100
0010
1000
0010
1000
0010
1000
0010
1000
0001
1000
0001
1000
,
0001
1000
0001
1000
0100
1000
0100
0010
0001
0100
0010
1000
0001
1000
0001
1000
,
0001
1000
0001
1000
0100
1000
0100
0010
0001
0010
0001
0010
0001
0100
0001
0100
,
0001
0100
0001
0100
0010
1000
0010
1000
0010
1000
0010
1000
0001
1000
0001
1000
,
0001
0000
1000
0000
0001
0000
1000
0000
0000
0100
0000
0000
0010
0000
0000
0001
0000
0000
0100
0000
0000
0010
0000
0000
1000
0000
0100
0000
1000
0000
0100
0000
0000
0010
0000
0000
0001
0000
0000
0100
0000
0000
0010
0000
0000
1000
0000
0000
,
0100
0000
0010
0000
0100
0000
0010
0000
0000
0001
0000
0000
0100
0000
0000
0010
0000
0000
1000
0000
0000
0001
0000
0000
0100
0000
0000
0000
0000
0000
0100
0000
0000
0000
0000
0000
0101
0000
0000
0000
0000
0000
0101
0000
0000
0000
0000
0000
,
1010
0000
1010
0000
1001
0000
1000
0100
0010
0000
0001
0100
0010
1000
0010
1000
,
0010
1000
0010
1000
0001
1000
0001
1000
0001
1000
0001
1000
2M02
0M00
0M00
0M00
,
0M00
0M00
0M00
0M00
00M0
00M0
00M0
00M0
00M0
00M0
0000
0000
0M00
00M0
00M0
0M00
,
30M3
0000
0000
0000
;
