#TITLE:Angry Birds Theme Song;
#SUBTITLE:;
#ARTIST:Rovio Mobile;
#TITLETRANSLIT:;
#SUBTITLETRANSLIT:;
#ARTISTTRANSLIT:;
#CREDIT:Owem;
#BANNER:../banner.png;
#BACKGROUND:../bg.png;
#LYRICSPATH:;
#CDTITLE:../cdtitleowem.png;
#MUSIC:Rovio Mobile - Angry Birds Theme Song.ogg;
#OFFSET:0.046;
#SAMPLESTART:36.454;
#SAMPLELENGTH:12.000;
#SELECTABLE:YES;
#DISPLAYBPM:120.000;
#BPMS:0.000=120.000,136.000=240.000,137.000=120.000;
#STOPS:;
#BGCHANGES:;
// cache tags:
#FIRSTBEAT:0.500;
#LASTBEAT:137.000;
#SONGFILENAME:Songs/Owem's Simfiles 08 - 1.2/Angry Birds Theme Song - [Braeden & Owem] v1.0.0/Angry Birds Theme Song.sm;
#HASMUSIC:1;
#HASBANNER:1;
#MUSICLENGTH:68.414;
// end cache tags

//---------------dance-single - 1 (Owem)----------------
#NOTES:
     dance-single:
     1 (Owem):
     Beginner:
     1:
     0.106,0.099,0.000,0.000,0.000,51.000,0.000,0.000,0.000,0.000:
0000
0000
0000
0000
,
0000
0000
0000
0000
,
0000
0001
0000
0001
,
0000
1000
0000
0000
,
0000
0010
0000
0010
,
0000
0100
0000
0000
,
0000
0001
0000
0001
,
0000
1000
0000
0000
,
0000
0100
0000
0100
,
0000
0100
0000
0000
,
0000
0010
0000
0010
,
0000
0100
0100
0000
,
0000
0010
0000
0001
,
0000
1000
1000
0000
,
0000
0001
0000
0000
,
0000
0100
0000
0100
,
0000
0010
0000
1000
,
0000
0001
0000
0000
,
0000
1000
0000
0001
,
0000
0100
0000
0010
,
0000
1000
0000
0001
,
0000
0100
0000
0010
,
0000
1000
0000
0000
,
0000
0001
0000
0000
,
0000
0100
0100
0100
,
0000
0010
0000
0000
,
0000
1000
0000
0000
,
0000
0100
0000
0000
,
0000
1000
0000
0000
,
0000
1000
0000
0000
,
0000
0010
0000
0010
,
0000
0100
0000
0000
,
0000
0001
0000
1000
,
0000
0001
0000
1000
;

//---------------dance-single - 3- (Owem)----------------
#NOTES:
     dance-single:
     3- (Owem):
     Easy:
     3:
     0.253,0.247,0.029,0.044,0.000,116.000,2.000,3.000,0.000,0.000:
0000
0000
0000
0000
,
0000
0000
0000
0000
,
0000
0100
1000
0100
,
0010
0001
0100
0010
,
0000
1000
0001
0100
,
0010
1000
0100
0010
,
0000
0001
1000
0001
,
0100
0010
1000
0100
,
0000
0010
0001
1000
,
0001
1000
0010
0100
,
0000
0001
0000
0010
,
0000
0100
0100
0010
,
0010
0002
0000
0203
,
0000
0310
0010
1000
,
0001
0100
0010
1000
,
0100
0010
0010
0001
,
1000
0020
0130
0001
,
0010
0100
0100
1000
,
0001
0100
0010
1000
,
0001
0010
0100
1000
,
0001
1001
0010
0100
,
0001
1000
0010
0100
,
0000
0001
0010
0100
,
1000
0001
0100
0100
,
0000
0010
1000
0001
,
0010
0010
0100
1000
,
0000
0001
0100
0010
,
1000
0100
0010
0001
,
1000
1001
0010
0100
,
0001
0010
0100
1000
,
0001
0100
0010
1000
,
0100
0010
0001
0100
,
0010
1000
0001
0100
,
0010
0100
0010
0100
;

//---------------dance-single - 9+ (Owem)----------------
#NOTES:
     dance-single:
     9+ (Owem):
     Medium:
     9:
     0.856,0.775,0.234,0.292,0.760,371.000,16.000,20.000,2.000,0.000:
0000
0000
1000
0010
0100
0000
0001
0000
1000
0000
0100
0010
0001
0000
1000
1000
,
0010
0000
0100
0000
0001
1000
0001
1000
0001
0000
0010
0100
1000
0000
0010
0010
,
0100
0000
0001
1000
0100
0000
0010
0000
0001
0000
1000
0010
0100
0000
0001
1000
,
0001
0000
0010
0100
1000
0100
1000
0100
1000
0001
0100
0010
0100
0000
0001
1000
,
0100
0000
0010
0001
1000
0000
0010
0000
0100
0000
0001
1000
0001
0000
0010
0010
,
0100
0000
1000
0010
0100
0001
0100
0001
1000
0100
0010
0001
0100
0000
0010
1000
,
0001
0000
0010
0100
1000
0000
0001
0000
1000
0000
0010
0000
0100
0001
0100
0001
,
1000
0000
0100
0000
0010
0000
0002
0003
1000
0000
0020
0130
0001
0000
1000
1000
,
0010
0000
0100
0001
1000
0000
0100
0000
0010
0000
0001
0000
1000
0100
1000
0010
,
0100
0000
0001
1000
0001
0000
0010
0000
0100
0000
1000
0010
0100
0000
0001
1000
,
0001
0000
0100
0000
0002
0000
1003
0100
0010
0000
0001
0000
0102
0000
0103
0010
,
1000
0000
0000
0000
0001
0000
0000
0000
0011
0000
0000
0000
0011
0000
0000
0001
1000
0000
0000
0000
0100
0000
0000
0000
1100
0000
0000
0000
1100
0000
0000
0000
,
1100
0000
0000
0000
0001
0000
0000
0000
0200
0000
0000
0000
0310
0000
1000
0000
0001
0000
0000
0000
0020
0030
0000
0000
0200
0000
0000
0000
1300
0000
0010
0000
,
0100
0000
0001
0000
1000
1000
0001
0000
0100
0010
1000
0000
1001
0000
0001
0100
,
0001
0000
1000
0000
0200
0000
0310
0001
1000
0000
0020
0030
0200
0000
0301
1000
,
0001
0000
0020
0030
0120
0030
1200
0300
2001
3000
0001
0000
0110
0000
0100
0010
,
1000
0000
0001
0000
2000
0000
3100
0010
0001
0000
1000
0000
0020
0000
0130
0001
,
1000
0000
0000
0000
0000
0000
0000
0000
0100
0000
0000
0000
0000
0000
0000
0000
0011
0000
0000
0000
0000
0000
0000
0000
0101
0000
0000
0000
0000
0000
0000
0000
1001
0000
0000
0000
0000
0000
0000
0000
1000
0000
0000
0000
0040
0030
0000
0000
0400
0300
0000
0000
0000
0000
0000
0000
0001
0000
0000
0000
1000
0000
0000
0000
,
0001
0000
0400
0300
0010
0000
1000
0000
0001
0000
0100
0000
0001
0000
0010
0100
,
1000
0000
0010
0100
0001
0000
1000
0000
0100
0000
0010
0000
0001
0000
0010
0001
,
0100
0000
0002
1003
0010
0000
0100
0000
0001
0000
1000
0000
0100
0000
0010
0001
,
1000
0000
0001
0100
0001
0000
0010
0000
0100
0000
1000
0000
0001
0000
1000
0001
,
1000
0000
0100
0010
0001
0000
1000
0000
0010
0000
0100
0000
0001
1000
0001
1000
,
0100
0000
0010
0001
1000
0000
0010
0000
0100
0001
1000
0001
0010
0000
0100
1000
,
0001
0000
1000
0010
0100
0000
0001
0000
1000
0000
0100
0000
0010
0001
0010
0001
,
0100
0000
0010
1000
0001
0100
0001
1000
0001
0010
0100
1000
0010
0000
0100
0001
,
1000
0000
0100
0010
0001
0100
0001
0100
0001
0100
0001
0100
0010
1000
0001
1000
,
0100
0010
0001
1000
0010
0100
0010
0000
1000
0100
1000
0100
0010
0000
0001
0100
,
0010
0000
1000
0001
1000
0000
0100
0000
0010
0000
0001
0000
1000
0000
0010
0100
,
0001
0000
1000
0100
0010
0000
0001
1000
0001
0000
0100
0000
0010
0000
0100
0001
,
1000
0000
0001
0000
1MM1
0000
0100
0000
0010
0000
1000
0000
0001
0000
0100
0010
,
1000
0000
0001
0100
0010
0100
0010
1000
0100
0000
0010
0001
1000
0000
0010
0000
,
0200
0300
0000
0000
0010
0000
1000
0000
0010
0000
0000
0000
0100
0000
0000
0000
0001
0000
0000
0000
1000
0000
0000
0000
0010
0000
0000
0000
0100
0000
0001
0000
,
1000
0000
0010
1000
0001
1000
0001
0010
0100
0000
1000
0000
0010
0000
0100
0000
,
0202
0000
0000
0303
0000
0000
0000
0000
0000
0000
0000
0000
0000
0000
0000
0000
;

//---------------dance-single - 13 (Owem)----------------
#NOTES:
     dance-single:
     13 (Owem):
     Hard:
     13:
     1.000,1.000,0.190,0.263,1.000,617.000,13.000,18.000,20.000,0.000:
0000
0000
1000
0010
0100
0000
0001
0000
1000
0000
0100
0010
0001
0000
1000
1000
,
0010
0000
0100
0000
0001
1000
0001
1000
0001
0000
0010
0100
1000
0000
0010
0010
,
0100
0000
0000
0000
0000
0000
0001
0000
0000
1000
0000
0000
0100
0000
0010
0000
0001
0000
1000
0000
0001
0000
0100
0000
0010
0000
1000
0000
0001
0000
0100
0000
0001
0000
0010
0000
0100
0000
1000
0000
0001
0000
0010
0000
0001
0000
0100
0000
,
0010
1000
0001
0100
0010
0100
0001
1000
0010
1000
0001
0100
0010
1000
0001
0100
0001
0010
0100
1000
0001
0010
0001
1000
,
0100
0010
0100
1000
0001
1000
0010
0100
0001
1000
0100
1000
0001
0100
0001
0010
0100
1000
0001
1000
0001
0100
0010
1000
,
0001
0010
0001
0010
0100
1000
0100
0010
0100
1000
0001
1000
0001
0100
0010
1000
0001
0100
0001
0010
0100
1000
0001
0010
,
0001
0100
0010
1000
0001
0100
0001
1000
0100
0010
0001
1000
0100
1000
0001
0010
0001
0100
0010
1000
0001
0100
0010
0100
,
0001
1000
0100
0010
0001
1000
0100
1000
0001
0010
0001
0100
0010
1000
0001
0100
0001
1000
0100
0010
0001
1000
0010
0100
,
0001
1000
0100
1000
0001
0100
0001
0010
0100
1000
0001
0010
0001
0100
0010
1000
0001
0100
0010
0100
0001
1000
0100
0010
,
0001
1000
0100
1000
0001
0010
0001
0100
0010
1000
0001
0100
0010
0100
0001
1000
0100
0010
0001
1000
0010
0100
0001
1000
,
0100
0000
1000
0000
0010
0000
0100
0000
0001
0000
1000
0000
0002
0000
0000
0000
0000
0000
1003
0000
0000
0100
0000
0000
0010
0000
0000
0000
0000
0000
0001
0000
0000
0000
0000
0000
0102
0000
0000
0000
0000
0000
0103
0000
0000
0010
0000
0000
,
1000
0000
0000
0000
0000
0000
0000
0000
0000
0000
0000
0000
0000
0000
0000
0000
0000
0000
0000
0000
0000
0000
0000
0000
0001
0000
0000
0000
0000
0000
0000
0000
0000
0000
0000
0000
0000
0000
0000
0000
0000
0000
0000
0000
0000
0000
0000
0000
0001
0000
0000
0010
0000
0000
0000
0000
0000
0000
0000
0000
0000
0000
0000
0000
0000
0000
0000
0000
0000
0000
0000
0000
0010
0000
0100
0000
0000
0000
0000
0000
0000
0000
0000
0000
0000
0000
0000
0000
0000
0000
1000
0000
0000
0000
0000
0000
0001
0000
0000
0000
1000
0000
0000
0000
0000
0000
0000
0000
0000
0000
0000
0000
0000
0000
0000
0000
0000
0000
0000
0000
0100
0000
0000
0000
0000
0000
0000
0000
0000
0000
0000
0000
0000
0000
0000
0000
0000
0000
0000
0000
0000
0000
0000
0000
1100
0000
0000
0000
0000
0000
0000
0000
0000
0000
0000
0000
0000
0000
0000
0000
0000
0000
0000
0000
0000
0000
0000
0000
1000
0000
0000
0000
0000
0000
0000
0000
0000
0000
0000
0000
0001
0000
0000
0000
0000
0000
0000
0000
0000
0000
0000
0000
,
1001
0000
0000
0000
0001
0000
0000
0000
0200
0000
0000
0000
0310
0000
1000
0000
0001
0000
0000
0000
0020
0030
0000
0000
0200
0000
0000
0000
1300
0000
0010
0000
,
0100
0000
0001
0000
1000
1000
0001
0000
0100
0010
1000
0000
1001
0000
0001
0100
,
0001
0000
1000
0000
0200
0000
0310
0001
1000
0000
0020
0030
0200
0000
0301
1000
,
0001
0000
0020
0030
0120
0030
1200
0300
2001
3000
0001
0000
0110
0000
0100
0010
,
1000
0000
0001
0000
2000
0000
3100
0010
0001
0000
1000
0000
0020
0000
0130
0001
,
1000
0000
0000
0000
0000
0000
0000
0000
0100
0000
0000
0000
0000
0000
0000
0000
0011
0000
0000
0000
0000
0000
0000
0000
0101
0000
0000
0000
0000
0000
0000
0000
1001
0000
0000
0000
0000
0000
0000
0000
1000
0000
0000
0000
0040
0030
0000
0000
0400
0300
0000
0000
0000
0000
0000
0000
0001
0000
0000
0000
1000
0000
0000
0000
,
0001
0000
0000
0000
0000
0000
0400
0000
0000
0300
0000
0000
0010
0000
0100
0000
0001
0000
1000
0000
0010
0000
1000
0000
0100
0000
0010
0000
0001
0000
1000
0000
0100
0000
1000
0000
0001
0000
0010
0000
0001
0000
0100
0000
0010
0000
1000
0000
,
0001
0000
0100
0000
0001
0000
0010
0000
0100
0000
1000
0000
0001
0000
0010
0000
0001
0000
1000
0000
0100
0000
0010
0000
0100
0000
1000
0000
0001
0000
1000
0000
0010
0000
0100
0000
0001
0000
0000
0000
0000
0000
0010
0000
0000
0001
0000
0000
,
0100
0000
0000
0000
0000
0000
0020
0000
0000
0130
0000
0000
0001
0000
1000
0000
0100
0000
1000
0000
0010
0000
0100
0000
0001
0000
1000
0000
0100
0000
1000
0000
0001
0000
0010
0000
0001
0000
0100
0000
0010
0000
1000
0000
0001
0000
0100
0000
,
0001
0000
0010
0000
0100
0000
1000
0000
0100
0000
0010
0000
0001
0000
1000
0000
0100
0000
1000
0000
0001
0000
0010
0000
0001
0000
0100
0000
0010
0000
1000
0000
0001
0000
0100
0000
0001
0000
0000
0000
0000
0000
1000
0000
0000
0001
0000
0000
,
1000
0000
0000
0000
0000
0000
0100
0000
0000
0010
0000
0000
0001
0000
1000
0000
0100
0000
1000
0000
0010
0000
0100
0000
0001
0000
1000
0000
0100
0000
0010
0000
0001
0000
1000
0000
0100
0000
0010
0000
0100
0000
1000
0000
0001
0000
0010
0000
,
0001
0100
0010
1000
0001
0100
0001
0010
0100
1000
0001
0010
0001
0100
0010
1000
0001
0100
0010
0100
0001
0010
0001
1000
,
0100
0010
0100
1000
0001
0010
0001
0100
0010
1000
0001
0100
0001
0010
0100
1000
0001
0010
0001
0100
0010
1000
0001
0100
,
0010
0100
0001
0010
0001
1000
0100
0010
0100
1000
0001
0010
0001
1000
0100
0010
0100
1000
0001
0010
0001
0100
0010
1000
,
0001
0100
0001
1000
0100
0010
0001
0100
0001
0100
0001
0100
0010
1000
0010
1000
0010
1000
0100
0010
0001
1000
0100
1000
,
0001
0100
0010
1000
0001
0100
0001
0010
0100
1000
0001
0010
0001
1000
0100
0010
0001
1000
0100
1000
0001
0010
0001
0100
,
0010
1000
0001
0100
0001
1000
0010
1000
0001
0100
0010
1000
0001
0100
0001
0010
0100
1000
0001
0010
0001
1000
0100
0010
,
0001
1000
0100
1000
0001
0010
0001
0100
0010
1000
0001
0100
0010
0100
0001
1000
0100
0010
0001
0100
0001
1000
0100
0010
,
0001
0000
0100
0000
0010
0000
0100
0000
0001
0000
1000
0000
1MM1
0000
0000
0000
0000
0000
0001
0000
0000
0000
0000
0000
0100
0000
0000
0000
0000
0000
0100
0000
0000
0000
0000
0000
0001
0000
0000
0000
0000
0000
0100
0000
0000
0010
0000
0000
,
1000
0000
0000
0000
0001
0000
0100
0000
0010
1000
0010
0000
0100
0000
0001
0000
1000
0000
0000
0000
0100
0000
0010
0000
0001
0000
0000
0000
1000
0000
0000
0000
,
0020
0030
0000
0000
0100
0000
0001
0000
1000
0000
0000
0000
0100
0000
0000
0000
0010
0000
0000
0000
0001
0000
1000
0000
0010
0000
0000
0000
0100
0000
0001
0000
,
0100
0000
0000
0000
0010
0000
1000
0000
0001
1000
0001
0000
0010
0000
0100
0000
1000
0000
0000
0000
0010
0000
0000
0000
0100
0000
0000
0000
0001
0000
0000
0000
,
2002
0000
0000
3003
0000
0000
0000
0000
0000
0000
0000
0000
0000
0000
0000
0000
M00M
0000
0000
0000
0000
0000
0000
0000
MMMM
0000
0000
0000
0000
0000
0000
0000
MMMM
0000
0000
0000
0000
0000
0000
0000
MMMM
0000
0000
0000
0000
0000
0000
0000
MMMM
0000
0000
0000
0000
0000
0000
0000
0000
0000
0000
0000
0000
0000
0000
0000
0000
0000
0000
0000
0000
0000
0000
0000
0000
0000
0000
0000
0000
0000
0000
0000
0000
0000
0000
0000
0000
0000
0000
0000
0000
0000
0000
0000
0000
0000
0000
0000
0000
0000
0000
0000
0000
0000
0000
0000
0000
0000
0000
0000
0000
0000
0000
0000
0000
0000
0000
0000
0000
0000
0000
0000
0000
0000
0000
0000
0000
0000
0000
0000
0000
0000
0000
0000
0000
0000
0000
0000
0000
0000
0000
0000
0000
0000
0000
0000
0000
0000
0000
0000
0000
0000
0000
0000
0000
0000
0000
0000
0000
0000
0000
0000
0000
0000
0000
0000
0000
0000
0000
0000
0000
0000
0000
0000
0000
0000
0000
0000
0000
0000
0000
0000
0000
0000
0000
0000
0000
0000
0000
0000
0000
0000
0000
0000
;

//---------------dance-single - 18 (Owem)----------------
#NOTES:
     dance-single:
     18 (Owem):
     Challenge:
     18:
     1.000,1.000,0.205,0.263,1.000,765.000,14.000,18.000,20.000,4.000:
0000
0000
1000
0010
0100
0000
0001
0000
1000
0000
0100
0010
0001
0000
1000
1000
,
0010
0000
0100
0000
0001
1000
0001
1000
0001
0000
0010
0100
1000
0000
0010
0010
,
0100
0000
0000
0000
0001
0000
1000
0000
0100
0010
0001
1000
0001
0100
0010
1000
0001
0100
0001
1000
0100
0010
0100
1000
0001
0010
0001
0100
0010
1000
0001
0100
,
0010
0100
0001
1000
0010
1000
0100
0010
0001
1000
0100
1000
0001
0100
0010
1000
0001
0100
0001
0010
0100
1000
0001
0010
0001
0100
0010
1000
0001
0010
0001
0100
,
0010
1000
0001
0100
0010
0100
0001
1000
0100
0010
0100
1000
0001
0010
0001
0100
0010
1000
0001
0100
0010
0100
0001
1000
0100
0010
0001
1000
0100
1000
0001
0100
,
0010
1000
0100
1000
0001
0010
0100
1000
0001
0010
0001
0100
0010
1000
0001
0100
0001
1000
0100
0010
0100
1000
0001
0010
0001
0100
0010
1000
0001
0100
0001
1000
,
0010
0100
0001
1000
0100
1000
0001
0100
0001
1000
0100
0010
0001
1000
0100
1000
0001
0100
0010
1000
0001
0100
0001
0010
0100
1000
0001
0010
0001
1000
0100
0010
,
0100
1000
0001
0100
0001
1000
0100
0010
0001
1000
0100
1000
0010
0100
0001
1000
0100
1000
0010
0100
0001
1000
0001
0100
0010
1000
0001
0100
0001
0010
0100
1000
,
0001
1000
0010
0100
0001
1000
0010
1000
0100
0010
0001
1000
0100
1000
0001
0100
0010
1000
0001
0100
0001
1000
0100
0010
0001
1000
0100
1000
0010
0100
0001
1000
,
0001
0100
0010
1000
0001
0100
0001
1000
0100
0010
0001
1000
0100
1000
0010
0100
0010
1000
0001
0100
0001
1000
0100
1000
0001
0100
0010
0100
0001
1000
0100
0010
,
0001
1000
0001
0100
0010
1000
0010
0100
0002
0000
0000
0000
1003
0000
0100
0000
0010
0000
0000
0000
0001
0000
0000
0000
0102
0000
0000
0000
0103
0000
0010
0000
,
1000
0000
0000
0000
0000
0000
0000
0000
0000
0000
0000
0000
0000
0000
0000
0000
0000
0000
0000
0000
0000
0000
0000
0000
0001
0000
0000
0000
0000
0000
0000
0000
0000
0000
0000
0000
0000
0000
0000
0000
0000
0000
0000
0000
0000
0000
0000
0000
0001
0000
0000
0010
0000
0000
0000
0000
0000
0000
0000
0000
0000
0000
0000
0000
0000
0000
0000
0000
0000
0000
0000
0000
0010
0000
0100
0000
0000
0000
0000
0000
0000
0000
0000
0000
0000
0000
0000
0000
0000
0000
1000
0000
0000
0000
0000
0000
0001
0000
0000
0000
1000
0000
0000
0000
0000
0000
0000
0000
0000
0000
0000
0000
0000
0000
0000
0000
0000
0000
0000
0000
0100
0000
0000
0000
0000
0000
0000
0000
0000
0000
0000
0000
0000
0000
0000
0000
0000
0000
0000
0000
0000
0000
0000
0000
0111
0000
0000
0000
0000
0000
0000
0000
0000
0000
0000
0000
0000
0000
0000
0000
0000
0000
0000
0000
0000
0000
0000
0000
0111
0000
0000
0000
0000
0000
0000
0000
0000
0000
0000
0000
0000
0000
0000
0000
0000
0000
0000
0000
0000
0000
0000
0000
,
1011
0000
0000
0000
0001
0000
0000
0000
0200
0000
0000
0000
0310
0000
1000
0000
0001
0000
0000
0000
0020
0030
0000
0000
0200
0000
0000
0000
1300
0000
0010
0000
,
0100
0000
0000
0000
0000
0000
0000
0000
0000
0000
0000
0000
0000
0000
0000
0000
0000
0000
0000
0000
0000
0000
0000
0000
0001
0000
0000
0000
0000
0000
0000
0000
0000
0000
0000
0000
0000
0000
0000
0000
0000
0000
0000
1000
0000
0000
0000
0000
0100
0000
0000
0000
0000
0000
0000
0000
0000
0000
0000
0000
0010
0000
0000
0000
0000
0000
0000
0000
0000
0000
0000
0000
0001
0000
0000
0000
0000
0000
0000
0000
0000
0000
0000
0000
0000
0000
0000
0000
0000
0000
0000
0000
0000
0000
0000
0000
0100
0000
0000
0000
0000
0000
0000
0000
0000
0000
0000
0000
0010
0000
0000
0000
0000
0000
0000
0000
0000
0000
0000
0000
1000
0000
0000
0000
0000
0000
0000
0000
0000
0000
0000
0000
0000
0000
0000
0000
0000
0000
0000
0000
0000
0000
0000
0000
1001
0000
0000
0000
0000
0000
0000
0000
0000
0000
0000
0000
0000
0000
0000
0000
0000
0000
0000
0000
0000
0000
0000
0000
0001
0000
0000
0000
0000
0000
0000
0000
0000
0000
0000
0000
0100
0000
0000
0000
0000
0000
0000
0000
0000
0000
0000
0000
,
0001
0000
1000
0000
0200
0000
0310
0001
1000
0000
0020
0030
0200
0000
0301
1000
,
0001
0000
0020
0030
0120
0030
1200
0300
2001
3000
0001
0000
0110
0000
0100
0010
,
1000
0000
0001
0000
2000
0000
3100
0010
0001
0000
1000
0000
0020
0000
0130
0001
,
1000
0000
0000
0000
0000
0000
0000
0000
0100
0000
0000
0000
0000
0000
0000
0000
0011
0000
0000
0000
0000
0000
0000
0000
0101
0000
0000
0000
0000
0000
0000
0000
1011
0000
0000
0000
0000
0000
0000
0000
1000
0000
0000
0000
0040
0030
0000
0000
0400
0300
0000
0000
0000
0000
0000
0000
0001
0000
0000
0000
1000
0000
0000
0000
,
0001
0000
0000
0000
0400
0000
0300
0000
0010
1000
0001
0100
0010
1000
0001
0100
0001
1000
0100
0010
0001
1000
0100
1000
0001
0100
0010
1000
0001
0010
0001
0100
,
0010
1000
0001
0100
0010
0100
0001
1000
0100
0010
0001
1000
0100
1000
0001
0100
0010
1000
0001
0100
0010
0100
0001
1000
0100
0000
0000
0000
0010
0000
0001
0000
,
0100
0000
0000
0000
0020
0000
0130
0000
0001
1000
0010
1000
0100
0010
0001
1000
0100
1000
0001
0100
0010
1000
0001
0100
0001
1000
0100
0010
0001
1000
0100
1000
,
0001
0010
0001
0100
0010
1000
0001
0100
0010
0100
0001
1000
0100
0010
0001
1000
0100
1000
0010
0100
0001
1000
0100
0010
0001
0000
0000
0000
1000
0000
0001
0000
,
1000
0000
0000
0000
0100
0000
0010
0000
0001
1000
0001
0100
0010
1000
0001
0100
0010
0100
0001
1000
0100
0010
0001
1000
0100
1000
0001
0010
0001
0100
0010
1000
,
0001
0100
0010
0100
0001
1000
0100
0010
0001
1000
0100
1000
0010
0100
0001
1000
0010
1000
0001
0100
0010
1000
0001
0100
0001
1000
0100
0010
0001
1000
0100
1000
,
0010
0100
0001
1000
0100
1000
0001
0010
0100
1000
0001
0010
0001
1000
0100
0010
0100
1000
0001
1000
0010
0100
0001
1000
0100
1000
0001
0100
0010
1000
0001
0100
,
0010
0100
0001
1000
0100
0010
0001
1000
0100
0010
0100
1000
0001
0010
0001
1000
0100
1000
0001
0100
0010
1000
0001
0100
0001
1000
0010
1000
0001
0100
0010
1000
,
0001
0100
0010
0100
0001
1000
0100
1000
0001
0010
0001
1000
0100
0010
0001
1000
0100
1000
0001
0100
0010
1000
0001
0100
0010
0100
0001
1000
0010
1000
0001
1000
,
0001
0010
0100
1000
0001
0010
0001
0100
0010
1000
0001
0100
0010
1000
0001
0100
0001
0010
0100
1000
0100
0010
0001
1000
0100
1000
0001
1000
0010
0100
0001
1000
,
0100
1000
0001
0010
0100
1000
0001
1000
0010
0100
0010
1000
0010
0100
0001
1000
0100
0010
0001
1000
0100
1000
0001
0100
0010
1000
0001
0010
0001
0100
0010
1000
,
0001
0000
0000
0100
0000
0000
0010
0000
0000
0100
0000
0000
0001
0000
0000
1000
0000
0000
0100
0000
0000
0010
0000
0000
0001
0000
0000
1000
0000
0000
0100
0000
0000
1000
0000
0000
0010
0000
0000
0100
0000
0000
0001
0000
0000
1000
0000
0000
0010
0000
0000
1000
0000
0000
0001
0000
0000
1000
0000
0000
0100
0000
0000
0010
0000
0000
0001
0000
0000
1000
0000
0000
0010
0000
0000
0000
0100
0000
0000
0000
0001
0000
0000
0000
1000
0000
0000
0000
0100
0000
0000
0000
0010
0000
0000
0000
,
0001
0000
0100
0000
0010
0000
0100
0000
0001
0000
1000
0000
1MM1
0000
0000
0000
0000
0000
0001
0000
0000
0000
0000
0000
0100
0000
0000
0000
0000
0000
0100
0000
0000
0000
0000
0000
0001
0000
0000
0000
0000
0000
0100
0000
0000
0010
0000
0000
,
1000
0000
0000
0000
0001
0000
0100
0000
0010
1000
0010
0000
0100
0000
0001
0000
1000
0000
0000
0000
0100
0000
0010
0000
0001
0000
0000
0000
1000
0000
0000
0000
,
0020
0030
0000
0000
0100
0000
0001
0000
1000
0000
0000
0000
0100
0000
0000
0000
0010
0000
0000
0000
0001
0000
1000
0000
0010
0000
0000
0000
0100
0000
0001
0000
,
0100
0000
0000
0000
0010
0000
1000
0000
0001
1000
0001
0000
0010
0000
0100
0000
1000
0000
0000
0000
0010
0000
0000
0000
0100
0000
0000
0000
0001
0000
0000
0000
,
2002
0000
0000
3003
0000
0000
0000
0000
0000
0000
0000
0000
0000
0000
0000
0000
M00M
0000
0000
0000
0000
0000
0000
0000
MMMM
0000
0000
0000
0000
0000
0000
0000
MMMM
0000
0000
0000
0000
0000
0000
0000
MMMM
0000
0000
0000
0000
0000
0000
0000
MMMM
0000
0000
0000
0000
0000
0000
0000
0000
0000
0000
0000
0000
0000
0000
0000
0000
0000
0000
0000
0000
0000
0000
0000
0000
0000
0000
0000
0000
0000
0000
0000
0000
0000
0000
0000
0000
0000
0000
0000
0000
0000
0000
0000
0000
0000
0000
0000
0000
0000
0000
0000
0000
0000
0000
0000
0000
0000
0000
0000
0000
0000
0000
0000
0000
0000
0000
0000
0000
0000
0000
0000
0000
0000
0000
0000
0000
0000
0000
0000
0000
0000
0000
0000
0000
0000
0000
0000
0000
0000
0000
0000
0000
0000
0000
0000
0000
0000
0000
0000
0000
0000
0000
0000
0000
0000
0000
0000
0000
0000
0000
0000
0000
0000
0000
0000
0000
0000
0000
0000
0000
0000
0000
0000
0000
0000
0000
0000
0000
0000
0000
0000
0000
0000
0000
0000
0000
0000
0000
0000
0000
0000
0000
0000
;

//---------------dance-single - 36 (Owem)----------------
#NOTES:
     dance-single:
     36 (Owem):
     Edit:
     36:
     1.000,1.000,0.205,0.263,1.000,1061.000,14.000,18.000,20.000,4.000:
0000
0000
1000
0010
0100
0000
0001
0000
1000
0000
0100
0010
0001
0000
1000
1000
,
0010
0000
0100
0000
0001
1000
0001
1000
0001
0000
0010
0100
1000
0000
0010
0010
,
0100
0000
0000
0000
0000
0000
0001
0000
0000
1000
0000
0000
0100
0010
0001
1000
0001
0100
0010
1000
0001
0100
0001
0010
0100
1000
0001
0010
0001
0100
0010
1000
0001
0100
0010
1000
0001
0100
0001
0010
0100
1000
0001
0100
0010
1000
0001
0010
,
0100
1000
0001
0010
0001
0100
0010
1000
0001
0100
0010
0100
0001
1000
0100
0010
0001
1000
0001
0010
0100
1000
0001
0100
0010
1000
0001
0100
0010
0100
0001
1000
0100
0010
0001
1000
0001
0010
0100
1000
0001
0100
0010
1000
0001
0100
0010
1000
,
0001
0010
0001
1000
0100
0010
0100
1000
0001
0010
0001
0100
0010
1000
0001
0100
0001
1000
0100
0010
0001
1000
0010
0100
0001
1000
0001
0010
0100
1000
0001
0010
0001
0100
0010
1000
0001
0010
0100
1000
0001
0100
0010
1000
0001
0100
0001
1000
,
0010
0100
0001
1000
0010
1000
0100
0010
0001
1000
0100
1000
0001
0100
0010
1000
0001
0010
0001
0100
0010
1000
0001
0100
0010
1000
0001
0010
0100
1000
0001
0010
0100
1000
0001
1000
0010
0100
0001
1000
0100
0010
0001
1000
0100
1000
0001
1000
,
0100
0010
0001
1000
0010
0100
0001
1000
0010
0100
0001
1000
0100
0010
0001
1000
0100
1000
0001
0100
0001
0010
0100
1000
0001
0100
0010
1000
0001
0100
0001
1000
0100
0010
0001
1000
0001
0010
0100
1000
0001
0100
0001
1000
0010
0100
0001
1000
,
0010
1000
0001
0010
0100
1000
0001
0010
0001
0100
0010
1000
0001
0100
0001
1000
0100
0010
0001
1000
0100
1000
0001
0010
0001
0100
0010
1000
0001
0100
0010
0100
0001
1000
0100
0010
0001
1000
0100
1000
0001
0100
0010
1000
0001
0100
0010
1000
,
0001
0100
0001
0010
0100
1000
0001
0010
0001
1000
0100
0010
0001
1000
0001
0100
0010
1000
0001
0100
0001
0010
0100
1000
0001
0010
0001
0100
0010
1000
0001
0100
0010
1000
0001
0100
0001
0010
0100
1000
0001
0010
0001
1000
0100
0010
0001
1000
,
0001
0100
0010
1000
0001
0100
0010
0100
0001
1000
0100
0010
0001
1000
0010
0100
0001
1000
0100
1000
0001
0010
0100
1000
0001
0100
0010
1000
0001
0100
0001
0010
0100
1000
0001
0100
0010
1000
0001
0010
0001
1000
0100
0010
0001
1000
0010
0100
,
0001
1000
0010
1000
0001
0100
0001
1000
0100
0010
0001
1000
0002
0000
0000
0000
0000
0000
1003
0000
0000
0100
0000
0000
0010
0000
0000
0000
0000
0000
0001
0000
0000
0000
0000
0000
0102
0000
0000
0000
0000
0000
0103
0000
0000
0010
0000
0000
,
1000
0000
0000
0000
0000
0000
0000
0000
0000
0000
0000
0000
0000
0000
0000
0000
0000
0000
0000
0000
0000
0000
0000
0000
0001
0000
0000
0000
0000
0000
0000
0000
0000
0000
0000
0000
0000
0000
0000
0000
0000
0000
0000
0000
0000
0000
0000
0000
0001
0000
0000
0010
0000
0000
0000
0000
0000
0000
0000
0000
0000
0000
0000
0000
0000
0000
0000
0000
0000
0000
0000
0000
0010
0000
0100
0000
0000
0000
0000
0000
0000
0000
0000
0000
0000
0000
0000
0000
0000
0000
1000
0000
0000
0000
0000
0000
0001
0000
0000
0000
1000
0000
0000
0000
0000
0000
0000
0000
0000
0000
0000
0000
0000
0000
0000
0000
0000
0000
0000
0000
0100
0000
0000
0000
0000
0000
0000
0000
0000
0000
0000
0000
0000
0000
0000
0000
0000
0000
0000
0000
0000
0000
0000
0000
0111
0000
0000
0000
0000
0000
0000
0000
0000
0000
0000
0000
0000
0000
0000
0000
0000
0000
0000
0000
0000
0000
0000
0000
0111
0000
0000
0000
0000
0000
0000
0000
0000
0000
0000
0000
0000
0000
0000
0000
0000
0000
0000
0000
0000
0000
0000
0000
,
1011
0000
0000
0000
0001
0000
0000
0000
0200
0000
0000
0000
0310
0000
1000
0000
0001
0000
0000
0000
0020
0030
0000
0000
0200
0000
0000
0000
1300
0000
0010
0000
,
0100
0000
0000
0000
0000
0000
0000
0000
0000
0000
0000
0000
0000
0000
0000
0000
0000
0000
0000
0000
0000
0000
0000
0000
0001
0000
0000
0000
0000
0000
0000
0000
0000
0000
0000
0000
0000
0000
0000
0000
0000
0000
0000
1000
0000
0000
0000
0000
0100
0000
0000
0000
0000
0000
0000
0000
0000
0000
0000
0000
0010
0000
0000
0000
0000
0000
0000
0000
0000
0000
0000
0000
0001
0000
0000
0000
0000
0000
0000
0000
0000
0000
0000
0000
0000
0000
0000
0000
0000
0000
0000
0000
0000
0000
0000
0000
0100
0000
0000
0000
0000
0000
0000
0000
0000
0000
0000
0000
0010
0000
0000
0000
0000
0000
0000
0000
0000
0000
0000
0000
1000
0000
0000
0000
0000
0000
0000
0000
0000
0000
0000
0000
0000
0000
0000
0000
0000
0000
0000
0000
0000
0000
0000
0000
1001
0000
0000
0000
0000
0000
0000
0000
0000
0000
0000
0000
0000
0000
0000
0000
0000
0000
0000
0000
0000
0000
0000
0000
0001
0000
0000
0000
0000
0000
0000
0000
0000
0000
0000
0000
0100
0000
0000
0000
0000
0000
0000
0000
0000
0000
0000
0000
,
0001
0000
1000
0000
0200
0000
0310
0001
1000
0000
0020
0030
0200
0000
0301
1000
,
0001
0000
0020
0030
0120
0030
1200
0300
2001
3000
0001
0000
0110
0000
0100
0010
,
1000
0000
0001
0000
2000
0000
3100
0010
0001
0000
1000
0000
0020
0000
0130
0001
,
1000
0000
0000
0000
0000
0000
0000
0000
0100
0000
0000
0000
0000
0000
0000
0000
0011
0000
0000
0000
0000
0000
0000
0000
0101
0000
0000
0000
0000
0000
0000
0000
1011
0000
0000
0000
0000
0000
0000
0000
1000
0000
0000
0000
0040
0030
0000
0000
0400
0300
0000
0000
0000
0000
0000
0000
0001
0000
0000
0000
1000
0000
0000
0000
,
0001
0000
0000
0000
0000
0000
0400
0000
0000
0300
0000
0000
0010
1000
0001
0100
0001
0010
0100
1000
0001
0100
0010
1000
0001
0100
0001
1000
0010
0100
0001
1000
0100
0010
0001
1000
0010
0100
0001
1000
0001
0010
0100
1000
0001
0010
0100
1000
,
0001
1000
0010
0100
0001
1000
0010
1000
0001
0100
0001
1000
0100
0010
0001
1000
0100
1000
0001
0100
0010
1000
0001
0100
0001
0010
0100
1000
0001
0010
0001
0100
0010
1000
0001
0100
0010
0000
0000
0000
0000
0000
1000
0000
0000
0001
0000
0000
,
0100
0000
0000
0000
0000
0000
0020
0000
0000
0130
0000
0000
0001
1000
0100
0010
0001
1000
0010
0100
0001
1000
0100
1000
0001
0100
0001
0010
0100
1000
0001
0100
0010
1000
0001
0100
0001
1000
0100
0010
0001
1000
0010
0100
0001
1000
0001
0010
,
0100
1000
0001
1000
0100
0010
0001
1000
0010
1000
0001
0100
0010
1000
0001
0010
0100
1000
0001
0010
0001
0100
0010
1000
0001
0100
0001
1000
0100
0010
0001
1000
0010
0100
0001
1000
0010
0000
0000
0000
0000
0000
1000
0000
0000
0001
0000
0000
,
1000
0000
0000
0000
0000
0000
0100
0000
0000
0010
0000
0000
0001
0010
0100
1000
0001
0100
0010
1000
0001
0100
0001
0010
0100
1000
0001
0010
0001
0100
0010
1000
0001
0100
0010
1000
0001
0100
0001
0010
0100
1000
0001
0100
0010
1000
0001
0010
,
0100
1000
0001
0010
0001
0100
0010
1000
0001
0100
0010
0100
0001
1000
0100
0010
0001
1000
0001
0010
0100
1000
0001
0100
0010
1000
0001
0100
0010
0100
0001
1000
0100
0010
0001
1000
0001
0010
0100
1000
0001
0100
0010
1000
0001
0100
0010
1000
,
0001
0010
0001
1000
0100
0010
0100
1000
0001
0010
0001
0100
0010
1000
0001
0100
0001
1000
0100
0010
0001
1000
0010
0100
0001
1000
0001
0010
0100
1000
0001
0010
0001
0100
0010
1000
0001
0010
0100
1000
0001
0100
0010
1000
0001
0100
0001
1000
,
0010
0100
0001
1000
0010
1000
0100
0010
0001
1000
0100
1000
0001
0100
0010
1000
0001
0010
0001
0100
0010
1000
0001
0100
0010
1000
0001
0010
0100
1000
0001
0010
0100
1000
0001
1000
0010
0100
0001
1000
0100
0010
0001
1000
0100
1000
0001
1000
,
0100
0010
0001
1000
0010
0100
0001
1000
0010
0100
0001
1000
0001
0010
0100
1000
0001
0010
0100
1000
0001
0010
0100
1000
0001
0010
0100
1000
0001
0010
0100
1000
0001
0010
0100
1000
0001
0100
0010
1000
0001
0100
0001
1000
0010
0100
0001
1000
,
0010
1000
0001
0010
0100
1000
0001
0010
0001
0100
0010
1000
0001
0100
0001
1000
0100
0010
0001
1000
0100
1000
0001
0010
0001
0100
0010
1000
0001
0100
0010
0100
0001
1000
0100
0010
0001
1000
0100
1000
0001
0100
0010
1000
0001
0100
0010
1000
,
0001
0100
0001
0010
0100
1000
0001
0010
0001
1000
0100
0010
0001
1000
0001
0100
0010
1000
0001
0100
0001
0010
0100
1000
0001
0010
0001
0100
0010
1000
0001
0100
0010
1000
0001
0100
0001
0010
0100
1000
0001
0010
0001
1000
0100
0010
0001
1000
,
0001
0100
0010
1000
0001
0100
0010
0100
0001
1000
0100
0010
0001
1000
0010
0100
0001
1000
0100
1000
0001
0010
0100
1000
0001
0100
0010
1000
0001
0100
0001
0010
0100
1000
0001
0100
0010
0000
0100
0000
0001
0000
1000
0000
0100
0000
0010
0000
,
0001
0000
0100
0000
0010
0000
0100
0000
0001
0000
1000
0000
1MM1
0000
0000
0000
0000
0000
0001
0000
0000
0000
0000
0000
0100
0000
0000
0000
0000
0000
0100
0000
0000
0000
0000
0000
0001
0000
0000
0000
0000
0000
1000
0000
0000
0010
0000
0000
,
1000
0000
0000
0000
0001
0000
0100
0000
0010
1000
0010
0000
0100
0000
0001
0000
1000
0000
0000
0000
0100
0000
0010
0000
0001
0000
0000
0000
1000
0000
0000
0000
,
0020
0030
0000
0000
0100
0000
0001
0000
1000
0000
0000
0000
0100
0000
0000
0000
0010
0000
0000
0000
0001
0000
1000
0000
0010
0000
0000
0000
0100
0000
0001
0000
,
0100
0000
0000
0000
0010
0000
1000
0000
0001
1000
0001
0000
0010
0000
0100
0000
1000
0000
0000
0000
0010
0000
0000
0000
0100
0000
0000
0000
0001
0000
0000
0000
,
2002
0000
0000
3003
0000
0000
0000
0000
0000
0000
0000
0000
0000
0000
0000
0000
M00M
0000
0000
0000
0000
0000
0000
0000
MMMM
0000
0000
0000
0000
0000
0000
0000
MMMM
0000
0000
0000
0000
0000
0000
0000
MMMM
0000
0000
0000
0000
0000
0000
0000
MMMM
0000
0000
0000
0000
0000
0000
0000
0000
0000
0000
0000
0000
0000
0000
0000
0000
0000
0000
0000
0000
0000
0000
0000
0000
0000
0000
0000
0000
0000
0000
0000
0000
0000
0000
0000
0000
0000
0000
0000
0000
0000
0000
0000
0000
0000
0000
0000
0000
0000
0000
0000
0000
0000
0000
0000
0000
0000
0000
0000
0000
0000
0000
0000
0000
0000
0000
0000
0000
0000
0000
0000
0000
0000
0000
0000
0000
0000
0000
0000
0000
0000
0000
0000
0000
0000
0000
0000
0000
0000
0000
0000
0000
0000
0000
0000
0000
0000
0000
0000
0000
0000
0000
0000
0000
0000
0000
0000
0000
0000
0000
0000
0000
0000
0000
0000
0000
0000
0000
0000
0000
0000
0000
0000
0000
0000
0000
0000
0000
0000
0000
0000
0000
0000
0000
0000
0000
0000
0000
0000
0000
0000
0000
0000
;
