#TITLE:NANKA SHIAWASE;
#SUBTITLE:-FLAME OF RECCA OPENNING THEME-;
#ARTIST:(ANIME);
#TITLETRANSLIT:;
#SUBTITLETRANSLIT:;
#ARTISTTRANSLIT:;
#CREDIT:;
#BANNER:nanka.png;
#BACKGROUND:nanka-bg.png;
#LYRICSPATH:;
#CDTITLE:;
#MUSIC:Flame of recca-opening.mp3;
#OFFSET:-0.680;
#SAMPLESTART:50.865;
#SAMPLELENGTH:12.000;
#SELECTABLE:YES;
#BPMS:0.000=164.001;
#STOPS:;
#BGCHANGES:;
// cache tags:
#FIRSTBEAT:8.000;
#LASTBEAT:239.000;
#SONGFILENAME:Songs/toune 5/Flame of recca-opening/Flame of recca-opening.sm;
#HASMUSIC:1;
#HASBANNER:1;
#MUSICLENGTH:91.036;
// end cache tags

//---------------dance-single - ----------------
#NOTES:
     dance-single:
     :
     Easy:
     4:
     0.322,0.328,0.033,0.088,0.000,194.000,3.000,8.000,0.000,0.000:
0000
0000
0000
0000
,
0000
0000
0000
0000
,
1000
0100
1000
0100
,
0001
0100
0001
0100
,
0010
0001
0010
0001
,
0010
1000
0010
1000
,
0001
0100
0001
0100
,
1000
0100
1000
0100
,
0010
0001
0010
0001
,
0010
1000
0010
1000
,
1001
0100
0010
0100
,
0010
0100
0001
1000
,
0001
1000
0001
0010
,
0001
1000
0100
1000
,
0010
1000
0010
0100
,
0001
0100
1000
0100
,
0001
0100
0010
1000
,
0100
0010
0100
0010
,
1000
0000
0001
0000
,
0100
0000
0010
0000
,
1000
0000
1000
0000
,
0010
0000
0100
0000
,
0001
0000
0001
0000
,
0100
0000
0010
0000
,
1000
0000
0001
0000
,
0100
0000
0010
0000
,
0002
0000
1000
1003
,
0200
0000
0010
0310
,
2000
0000
0001
3001
,
0100
1000
0100
0001
,
2000
0000
0000
0000
,
3200
0000
0000
0000
,
0320
0000
0000
0030
,
1001
0000
0000
0000
,
0001
0100
0001
0001
,
1000
0100
0010
0001
,
1000
1000
0100
1000
,
0001
0010
0100
1000
,
0001
0001
0100
1000
,
1000
1000
0100
0001
,
0010
1000
0001
0100
,
0010
0010
0010
0010
,
0001
0100
0001
0001
,
1000
0010
0100
0001
,
1000
1000
0100
1000
,
0001
0100
0010
1000
,
0100
0001
0100
0010
,
1000
0100
0001
0100
,
0010
0010
0100
0100
,
1000
0100
0001
0010
,
1000
0001
1000
0001
,
0100
1000
0100
0010
,
0001
1000
0001
0100
,
0010
1000
0100
0001
,
0010
0001
0100
1000
,
0001
1000
0100
0010
,
0100
0010
0001
1000
,
0100
0100
0100
0100
,
2002
0000
0000
0000
,
0000
0000
0000
3003
;

//---------------dance-single - Copied from----------------
#NOTES:
     dance-single:
     Copied from:
     Medium:
     6:
     0.486,0.591,0.670,0.253,0.000,226.000,61.000,23.000,0.000,0.000:
0000
0000
0000
0000
,
0000
0000
0000
0000
,
1000
0101
1000
1100
,
0010
0100
1000
0100
,
0010
0011
0010
1010
,
0010
0001
0010
0100
,
0001
0110
1000
0110
,
1000
0010
1000
0100
,
0010
1001
0100
1001
,
0010
0100
0010
1000
,
1001
0100
1000
0001
,
0010
0000
0100
0000
1000
0000
0001
1000
,
0001
1000
0001
0100
,
0001
0000
0010
0000
0100
0000
1000
0001
,
0010
1000
1000
0010
,
0100
0000
0001
0000
1000
0000
0100
0100
,
0001
0100
0010
0001
,
1100
0010
0101
0010
,
2000
0000
0000
3200
0000
0000
0310
0000
,
0200
0000
0000
0320
0000
0000
0031
0000
,
2000
0000
0000
3002
0000
0000
1003
0000
,
0020
0000
0000
0230
0000
0000
1300
0001
,
0102
0000
0000
0203
0000
0000
1300
0000
,
2100
0000
0000
3020
0000
0000
1030
0000
,
0201
0000
0000
0302
0000
0000
1003
0000
,
0210
0000
0000
0320
0000
0000
1030
0000
,
1001
1100
1001
1100
,
1001
0101
1001
0101
,
1001
0011
1001
0011
,
1001
1010
1001
1010
,
2000
0100
0100
0100
,
3200
0010
0010
0010
,
0320
0100
0100
0130
,
2002
0000
0000
3003
,
1001
0100
0001
1001
,
1000
0000
0100
0010
1000
0000
0001
0000
,
1001
1000
0100
1001
,
0001
0000
0010
1000
0100
0000
1000
0000
,
0001
0000
0101
0000
0100
0010
1000
0000
,
1000
0000
1100
0000
0100
0010
0001
0000
,
1010
1100
0011
0101
,
0010
0010
0010
0010
,
1001
0100
1000
1001
,
0001
0000
0100
0010
0001
0000
1000
0000
,
1001
0001
0100
1001
,
1000
0000
0010
0001
0100
0000
0001
0000
,
1000
0000
1100
0000
0100
0010
0001
0000
,
0001
0000
0101
0000
0100
0010
1000
0000
,
0011
0101
1010
1100
,
0010
0010
0010
0010
,
1000
0101
1000
1100
,
0010
0100
1000
0100
,
0010
0011
0010
1010
,
0010
0001
0010
0100
,
0001
0110
1000
0110
,
1000
0010
1000
0100
,
0010
1001
0100
1001
,
0010
0100
0010
1000
,
2002
0000
0000
0000
,
0000
0000
0000
3003
;

//---------------dance-single - Copied from----------------
#NOTES:
     dance-single:
     Copied from:
     Hard:
     8:
     0.640,0.591,0.813,0.417,0.000,296.000,74.000,38.000,0.000,0.000:
0000
0000
0000
0000
,
0000
0000
0000
0000
,
1000
1100
0110
0101
,
0001
0010
0100
1000
0000
0001
0100
0000
,
1000
0011
1001
1010
,
0100
0001
1000
0100
0000
0010
1000
0010
,
0100
0101
1010
1001
,
0010
0001
1000
0100
0000
0100
0010
0000
,
0010
1010
1100
0011
,
0100
1000
0001
0100
0000
0010
0100
0000
,
1001
1100
0101
1100
,
0020
0000
1030
0200
0000
0010
0301
0100
,
1001
0101
1100
0101
,
0020
0000
1030
0200
0000
0310
0001
1000
,
1001
1010
0011
1010
,
0002
0000
1003
0200
0000
0310
0100
0010
,
1001
0011
1010
0011
,
2001
0000
3100
0020
0000
0130
0002
0000
,
2003
0000
3010
0200
0000
0310
0002
0000
,
2003
0000
3001
0200
0000
0310
2000
0000
,
3200
0000
0310
0002
0000
1003
0200
0000
,
0320
0000
0031
2000
0000
3001
0100
0010
,
2000
0000
3100
0020
0000
0130
2000
0000
,
3002
0000
0013
0200
0000
0310
2000
0000
,
3200
0000
0310
0002
0000
0103
0020
0000
,
2030
0000
3100
0010
0100
0001
0100
0000
,
0102
0000
0013
1000
0100
0010
1000
0000
,
2100
0000
3010
0001
0010
0100
0001
0000
,
1001
0000
0010
0100
0001
1000
0100
0010
,
0001
1000
0010
0100
0001
1000
0100
0000
,
0010
0001
0010
0001
0010
0001
0010
0001
,
0100
0001
0100
0001
0100
0001
0100
0001
,
0100
0010
0100
0010
0100
0010
0100
0010
,
2200
0000
0000
3300
,
1001
0110
1001
0110
,
1001
0000
0010
1000
0100
0001
1000
0000
,
1001
0110
1001
0110
,
1001
0000
0010
0001
0100
1000
0001
0000
,
0010
0000
0011
0000
0100
1000
0100
0000
,
0010
0000
1010
0000
0100
0001
0100
0000
,
2010
0000
3100
0000
0001
0100
0010
0000
,
1000
0000
0110
0000
0001
0010
1000
0000
,
1001
0110
1001
0110
,
1001
0000
0100
0001
0010
1000
0001
0000
,
1001
0110
1001
0110
,
1001
0000
0100
1000
0010
0001
1000
0000
,
0100
0000
1100
0000
0010
0001
0010
0000
,
0100
0000
0101
0000
0010
1000
0010
0000
,
0102
0000
0013
0000
1000
0010
0100
0000
,
0001
0000
0110
0000
1000
0100
0001
0000
,
1000
0011
1001
1010
,
0001
0100
0010
0001
0000
0001
0100
0000
,
0001
0110
1100
0110
,
0001
1000
0001
1000
0000
1000
0001
0001
,
0001
1001
1010
1010
,
0001
1000
0010
0010
0000
0001
0100
0000
,
0010
0101
1001
1010
,
0100
0100
0010
0100
0000
0010
0100
0010
,
2002
0000
0000
0000
,
0000
0000
0000
3003
;
