#TITLE:3 Sounds From 94;
#SUBTITLE:;
#ARTIST:Prefuse 73;
#TITLETRANSLIT:;
#SUBTITLETRANSLIT:;
#ARTISTTRANSLIT:;
#CREDIT:;
#BANNER:3 Sounds From 94.png;
#BACKGROUND:3 Sounds From 94-bg.png;
#LYRICSPATH:;
#CDTITLE:!tear-cdtitle.png;
#MUSIC:Prefuse 73 - 3 Sounds From 94.mp3;
#OFFSET:-0.071;
#SAMPLESTART:32.610;
#SAMPLELENGTH:12.000;
#SELECTABLE:YES;
#BPMS:0.000=92.000;
#STOPS:;
#BGCHANGES:;
// cache tags:
#FIRSTBEAT:0.000;
#LASTBEAT:99.500;
#SONGFILENAME:Songs/Fabulously Fresh Flock of Fantastic Files F5/(Tear) 3 Sounds From 94/3 Sounds From 94.sm;
#HASMUSIC:1;
#HASBANNER:1;
#MUSICLENGTH:65.233;
// end cache tags

//---------------dance-single - ----------------
#NOTES:
     dance-single:
     :
     Hard:
     10:
     0.869,0.782,1.000,0.000,0.460,251.000,146.000,0.000,0.000,0.000:  // measure 1
1001
0110
0110
1001
0110
0110
0110
0000
0000
0000
0000
0000
,  // measure 2
0110
0000
0001
0000
1100
0000
0001
0000
0011
0000
1010
0100
1001
0000
0100
0000
,  // measure 3
0011
0000
1000
0000
0101
0000
0010
0000
1100
0000
0101
0010
1001
0000
0100
0000
,  // measure 4
1010
0000
0100
0000
0011
0000
1000
0000
1100
0000
1001
0100
1010
0000
0001
0000
,  // measure 5
1100
0000
0010
0000
1001
0000
0100
0000
0011
0000
1100
0001
1010
0000
0001
0000
,  // measure 6
0110
0000
0000
1000
0000
0100
0000
0010
0000
0001
0000
0100
0000
0010
1000
0100
1000
0001
0110
0000
0000
1000
0000
0000
,  // measure 7
0101
0000
0000
1000
0000
0000
0011
0000
0000
1000
0000
0000
1100
0000
0000
1010
0000
1000
1001
0000
0000
0100
0000
0000
,  // measure 8
1010
0000
0000
0001
0000
0000
1100
0000
0000
0010
0000
0000
1001
0000
0000
0101
0000
0001
1001
0000
0000
0100
0000
0000
,  // measure 9
1001
0000
0000
0010
0000
0000
1100
0000
0000
0001
0000
0000
0101
0000
0000
1010
0000
1000
1100
0000
0000
0001
0000
0000
,  // measure 10
0101
0000
0000
1000
0000
0000
0110
0000
0000
0001
0000
0000
1100
0000
0000
0011
0000
0001
1001
0000
0000
0100
0000
0000
,  // measure 11
1010
0000
0000
0001
0000
0000
1100
0000
0000
0001
0000
0000
0101
0000
0000
1010
0000
1000
1100
0000
0000
0001
0000
0000
,  // measure 12
1010
0000
0000
0001
0000
0000
0110
0000
0000
1000
0000
0000
0011
0000
0000
1001
0000
1000
1010
0000
0000
0001
0000
0000
,  // measure 13
1001
0000
0000
0100
0000
0000
1010
0000
0000
0001
0000
0000
1100
0000
0000
1001
0000
1000
1100
0000
0000
0001
0000
0000
,  // measure 14
0101
0000
0000
0011
1000
0100
0011
0000
0000
0011
1000
0000
0011
0000
0000
0011
1000
0100
0011
0000
0000
0011
1000
0000
,  // measure 15
1001
0000
0000
1001
0000
0000
1001
0000
0000
1001
0000
0000
1001
0000
0000
1001
0000
1000
1001
0000
0000
1001
0000
0000
,  // measure 16
1010
0000
0000
1010
0001
0100
1010
0000
0000
1010
0001
0000
1010
0000
0000
1010
0001
0100
1010
0000
0000
1010
0001
0000
,  // measure 17
0110
0000
0000
0110
0000
0000
0110
0000
0000
0110
0000
0000
0110
0000
0000
0110
0000
0100
0110
0000
0000
0110
0000
0000
,  // measure 18
1001
0000
0000
1001
0100
0010
1001
0000
0000
1001
0010
0000
1001
0000
0000
1001
0100
0010
1001
0000
0000
1001
0010
0000
,  // measure 19
0101
0000
0000
0101
0000
0000
0101
0000
0000
0101
0000
0000
0101
0000
0000
0101
0000
0001
0101
0000
0000
0101
0000
0000
,  // measure 20
1100
0000
0000
1100
0001
0010
1100
0000
0000
1100
0001
0000
1100
0000
0000
1100
0001
0010
1100
0000
0000
1100
0001
0000
,  // measure 21
1010
0000
0000
1010
0000
0000
1010
0000
0000
1010
0000
0000
1010
0000
0000
1010
0000
1000
1010
0000
0000
1010
0000
0000
,  // measure 22
1001
0000
0000
0100
0000
0010
0000
0001
0000
1000
0000
0010
0000
0100
0001
1000
0100
1000
0011
0000
0000
0001
0000
0000
,  // measure 23
0101
0000
0000
1000
0000
0000
0110
0000
0000
1000
0000
0000
0011
0000
0000
1001
0000
0001
0101
0000
0000
0010
0000
0000
,  // measure 24
1100
0000
0000
0010
0000
0000
0101
0000
0000
1000
0000
0000
0110
0000
0000
1001
0000
1000
1100
0000
0000
0001
0000
0000
,  // measure 25
0110
0000
0000
1000
0000
0000
0011
0000
0000
1000
0000
0000
0110
0000
0000
1001
0000
0100
0110
0000
0000
1001
0000
0000
;
