#TITLE:Call of the Hound;
#SUBTITLE:;
#ARTIST:CCIVORY;
#TITLETRANSLIT:;
#SUBTITLETRANSLIT:;
#ARTISTTRANSLIT:;
#CREDIT:@@;
#BANNER:../bn.png;
#BACKGROUND:../bg.png;
#LYRICSPATH:;
#CDTITLE:;
#MUSIC:CCIVORY - Call of the Hound.ogg;
#OFFSET:-0.493;
#SAMPLESTART:105.280;
#SAMPLELENGTH:17.660;
#SELECTABLE:YES;
#DISPLAYBPM:220.000;
#BPMS:0.000=219.912;
#STOPS:;
#BGCHANGES:;
// cache tags:
#FIRSTBEAT:32.000;
#LASTBEAT:776.000;
#SONGFILENAME:Songs/Cirque du Zonda/Zaia - Call of the Hound/Call of the Hound.sm;
#HASMUSIC:1;
#HASBANNER:1;
#MUSICLENGTH:214.410;
// end cache tags

//---------------dance-single - Zaia - 18.0----------------
#NOTES:
     dance-single:
     Zaia - 18.0:
     Challenge:
     18:
     1.000,1.000,0.061,0.131,1.000,2067.000,13.000,28.000,0.000,4.000:
0000
0000
0000
0000
,
0000
0000
0000
0000
,
0000
0000
0000
0000
,
0000
0000
0000
0000
,
0000
0000
0000
0000
,
0000
0000
0000
0000
,
0000
0000
0000
0000
,
0000
0000
0000
0000
,
1000
0001
0010
0100
,
0100
0010
0100
1000
,
0001
1000
0010
0100
,
0100
0010
0100
0001
,
1000
0001
0100
0010
,
0010
0100
0001
0010
,
0001
1000
0100
0010
,
0010
0100
1000
0010
,
0200
0001
0010
0001
,
0301
1000
0100
0010
,
0100
1000
0001
0100
,
0200
0010
0001
0310
,
2000
0001
0100
0001
,
3001
0010
0100
1000
,
0010
1000
0001
0010
,
0020
0100
0001
0130
,
2000
0001
0010
0001
,
3001
1000
0010
0100
,
0002
1000
0100
1000
,
1003
0100
0010
0001
,
2000
0010
0001
0010
,
3010
0100
0001
1000
,
0100
1000
0001
0100
,
0100
0010
1000
0001
,
1000
0010
0100
0001
1000
0001
0100
0010
0100
0001
1000
0010
1000
0001
0100
0001
,
1000
0100
1000
0001
0010
0100
1000
0001
0010
0100
0010
0001
1000
0100
0010
0001
,
1000
0010
1000
0001
0100
0010
0100
0001
1000
0010
0100
0001
1000
0001
0100
0010
,
1000
0100
0010
0100
1000
0001
0010
0100
1000
0001
1000
0100
1000
0001
0010
0100
,
1000
0010
0100
0001
1000
0010
1000
0001
0100
0010
1000
0010
0100
0001
1000
0001
,
0010
0100
0010
0001
1000
0100
0010
0001
1000
0100
1000
0001
0010
0100
0010
0001
,
1000
0010
1000
0001
0100
0001
1000
0010
0100
0001
1000
0001
0100
0001
1000
0010
,
1000
0100
0010
0001
1000
0001
0010
0100
0010
0001
1000
0001
0010
0001
1000
0100
,
1000
0010
0100
0010
1000
0001
0100
0010
1000
0001
1000
0010
0100
0001
1000
0001
,
0010
0100
0010
0001
1000
0100
1000
0001
0010
0100
1000
0001
1000
0100
0010
0001
,
0100
0010
1000
0001
1000
0010
0100
0001
1000
0001
0100
0010
0100
0001
1000
0001
,
0010
0100
0010
0001
1000
0100
0010
0001
1000
0001
0010
0001
1000
0100
0010
0100
,
1000
0010
0100
0001
1000
0010
0100
0010
1000
0001
0100
0010
1000
0001
0100
0001
,
1000
0100
1000
0001
0010
0100
0010
0001
1000
0100
0010
0001
1000
0100
1000
0001
,
0100
0010
0100
0001
1000
0010
0100
0001
1000
0001
0100
0010
0100
0001
1000
0010
,
1000
0001
0010
0001
1000
0100
0010
0001
0010
0100
1000
0001
0010
0001
1000
0100
,
1000
0010
0100
0001
1000
0001
0100
0010
1000
0001
1000
0010
0100
0001
1000
0010
,
1000
0001
0010
0001
1000
0100
0010
0100
1000
0001
0010
0100
1000
0001
0010
0001
,
0100
0010
1000
0001
0100
0010
1000
0010
0100
0001
1000
0010
1000
0001
0100
0001
,
1000
0100
0010
0001
1000
0001
0010
0100
1000
0001
0010
0001
1000
0001
0010
0100
,
1000
0010
0100
0010
1000
0001
1000
0010
0100
0010
1000
0001
0100
0001
1000
0001
,
0010
0100
1000
0001
0010
0100
0010
0001
1000
0100
0010
0001
1000
0100
0010
0001
,
0100
0010
1000
0001
0100
0010
0100
0001
1000
0010
0100
0010
1000
0001
0100
0010
,
1000
0001
0010
0001
1000
0100
0010
0100
1000
0001
0010
0100
1000
0100
0010
0001
,
0100
0010
1000
0001
1000
0010
1000
0001
0100
0010
1000
0010
0100
0001
1000
0010
,
1000
0001
0010
0100
0010
0001
1000
0100
1000
0001
0010
0100
1000
0001
0010
0001
,
0100
0010
1000
0001
0100
0010
0100
0001
1000
0010
0100
0001
1000
0001
0100
0010
,
1000
0001
0010
0100
1000
0001
0010
0001
1000
0100
0010
0001
1000
0001
0010
0100
,
1000
0010
0100
0001
1000
0010
0100
0001
1000
0010
1000
0001
0100
0001
1000
0010
,
1000
0100
0010
0001
1000
0100
0010
0100
1000
0001
0010
0100
1000
0001
0010
0001
,
0100
0010
1000
0001
0100
0001
1000
0010
0100
0001
1000
0010
1000
0001
0100
0001
,
1000
0100
1000
0001
1000
0100
0010
0100
1000
0001
1000
0100
1000
0001
1000
0100
,
0010
0000
0001
0000
0100
0000
0010
0000
1000
0000
0000
0000
0010
0100
0001
1000
,
0010
0000
0000
0000
0100
0000
0001
0000
0010
0000
0100
0000
1000
0001
0010
0000
,
0001
1000
0001
0000
0010
0100
0010
0000
0100
1000
0001
0100
0010
2000
0000
0000
,
3001
0010
0100
1000
0010
0100
0001
1000
,
0010
0100
0010
1000
0001
1000
0100
0000
0000
0000
0010
0000
0100
0000
1000
0000
,
0001
0100
0010
1000
0001
0010
0100
0000
0000
0000
0010
0100
1000
0000
0000
0000
,
0001
0100
0010
0000
0000
0000
0000
0000
1000
0100
0010
0000
0001
0100
0010
0000
,
1000
0001
0010
0000
0000
0000
0000
0000
0100
1000
0001
0000
0100
0010
1000
0000
,
0001
0010
0100
0010
0001
0100
0010
1000
,
0001
0100
0001
0010
0200
0000
0000
0000
,
1300
0001
0100
0001
1000
0100
0010
0100
,
1000
0001
1000
0100
1000
0001
0100
0010
,
2000
0000
0000
0000
3010
0100
0001
0000
0200
0000
0000
0000
0310
1000
0001
1000
,
0100
0010
0100
1000
0001
0100
0010
0100
0001
1000
0100
1000
0001
0010
0100
1000
,
0001
0100
0001
0000
1000
0100
1000
0000
0001
0010
0001
0000
1000
0010
1000
0000
,
0001
0010
0100
0000
1000
0000
0100
0000
1000
0000
0100
0000
1000
0000
0100
0000
,
2000
0000
0000
0000
0000
0000
0000
0000
3001
0100
0010
1000
0001
1000
0100
0010
,
0001
1000
0010
1000
0001
0010
0001
1000
0200
0000
0000
0000
0320
0000
0000
0000
,
0230
0000
0000
0000
0000
0000
1300
0001
0200
0000
0000
0000
0000
0000
0000
0000
,
0310
1000
0001
0100
0010
1000
0001
0000
,
0020
0000
0000
0000
,
0000
0000
0030
0200
,
2300
0000
0000
0000
,
3001
0100
0000
0010
,
1000
0001
1000
0100
1000
0001
1000
0100
,
1000
0001
1000
0100
1000
0010
1000
0100
,
1000
0001
0100
0001
1000
0001
0100
0001
,
1000
0001
0100
0001
0010
0001
0100
0001
,
1000
0010
0100
0001
1000
0010
0100
0001
,
1000
0010
0100
0001
1000
0010
0100
0001
,
1000
0100
0010
0000
0001
0100
0010
0000
1000
0001
0010
0000
0100
0000
1000
0000
,
0010
0000
0100
0000
0001
0000
0100
0000
0010
1000
0001
1000
0100
0010
0001
0010
,
0100
1000
0010
1000
0001
0100
0001
0100
0010
1000
0001
0010
0100
1000
0100
1000
,
0001
0100
0010
1000
0001
0100
0001
0100
0010
1000
0001
1000
0100
0010
0100
0010
,
0001
1000
0010
1000
0001
0010
0001
0010
0100
1000
0001
0100
0010
1000
0010
1000
,
0001
0010
0100
1000
0001
0010
0001
0010
0100
1000
0001
1000
0010
0100
0010
0100
,
0001
1000
0100
1000
0001
0100
0001
0100
0010
1000
0001
0010
0100
1000
0100
1000
,
0001
0100
0010
1000
0001
0100
0001
0100
0010
1000
0001
1000
0100
0010
0100
0010
,
0001
1000
0010
1000
0001
0010
0001
0010
0100
1000
0001
0100
0010
1000
0010
1000
,
0001
0010
0100
1000
0001
0010
0001
0010
0100
1000
0001
1000
0010
0100
0010
0100
,
0001
0010
0100
1000
0001
0100
0001
0100
0010
1000
0001
0010
0100
1000
0100
1000
,
0001
0100
0010
0100
0001
1000
0100
1000
0001
0010
0100
1000
0001
1000
0010
0100
,
0001
1000
0010
1000
0001
0010
0001
0010
0100
1000
0001
0100
0010
1000
0010
1000
,
0001
0010
0100
0010
0001
1000
0100
1000
0001
0010
0100
1000
0001
1000
0010
0100
,
0001
1000
0010
1000
0001
0100
0001
0100
0010
1000
0001
0010
0100
1000
0100
1000
,
0001
0100
0010
1000
0001
0100
0001
0100
0010
1000
0001
1000
0100
0010
0100
0010
,
0001
1000
0010
1000
0001
0010
0001
0010
0100
1000
0001
0100
0010
1000
0010
1000
,
0001
1000
0100
0010
0100
0010
0001
1000
0010
0100
0010
0100
0001
1000
0001
1000
,
0010
1000
0010
0100
0001
0010
0001
0010
0100
1000
0001
0100
0010
1000
0010
1000
,
0001
0010
0100
1000
0001
0010
0001
0010
0100
1000
0001
1000
0010
0100
0010
0100
,
0001
1000
0100
1000
0001
0100
0001
0100
0010
1000
0001
0010
0100
1000
0100
1000
,
0001
0100
0010
1000
0001
0100
0001
0100
0010
1000
0001
1000
0100
0010
0100
0010
,
0001
1000
0010
1000
0001
0010
0001
0010
0100
1000
0001
0100
0010
1000
0010
1000
,
0001
0010
0100
1000
0001
0010
0001
0010
0100
1000
0001
1000
0010
0100
0010
0100
,
0001
1000
0100
1000
0001
0100
0001
0100
0010
1000
0001
0010
0100
1000
0100
1000
,
0001
0100
0010
1000
0001
0100
0001
0100
0010
1000
0001
1000
0100
0010
0100
0010
,
0001
0100
0010
1000
0001
0010
0001
0010
0100
1000
0001
0100
0010
1000
0010
1000
,
0001
0010
0100
0010
0001
1000
0010
1000
0001
0100
0010
1000
0001
1000
0100
0010
,
0001
1000
0100
1000
0001
0100
0001
0100
0010
1000
0001
0010
0100
1000
0100
1000
,
0001
0100
0010
0100
0001
1000
0010
1000
0001
0100
0010
1000
0001
1000
0100
0010
,
0001
1000
0100
1000
0001
0010
0001
0010
0100
1000
0001
0100
0010
1000
0010
1000
,
0001
0010
0100
1000
0001
0010
0001
0010
0100
1000
0001
1000
0010
0100
0010
0100
,
0001
1000
0100
1000
0001
0100
0001
0100
0010
1000
0001
0010
0100
1000
0100
1000
,
0001
1000
0010
0100
0010
0100
0001
1000
0100
0010
0100
0010
0001
1000
0001
1000
,
0010
0000
0000
0000
2222
0000
3000
0300
,
1030
0013
0100
0001
1000
0010
0100
0001
,
1000
0000
0000
0000
,
0001
0010
0100
1000
0001
0010
0100
1000
,
0001
0000
0000
0000
,
1000
0001
0100
0010
1000
0001
0100
0010
,
1000
0000
0000
0000
,
0001
1000
0100
0010
0001
1000
0100
0010
,
0001
0000
0000
0000
2222
0000
0003
0030
,
0301
3010
0100
1000
0001
0010
0100
1000
,
0001
0000
0000
0000
,
1000
0001
0100
0010
1000
0001
0100
0010
,
1000
0000
0000
0000
,
0001
1000
0100
0010
0001
1000
0100
0010
,
0001
0000
0000
0000
,
1000
0010
0100
0001
1000
0010
0100
0001
,
0101
0100
0010
0100
0001
0000
0101
0000
,
0100
0010
1000
0001
0010
0100
0100
0000
,
1000
0100
0010
0001
0010
0000
0011
0000
,
0001
1000
0100
0010
0001
1000
1000
0010
,
0100
0001
0100
0010
1000
0000
1010
0000
,
0010
0100
0001
0010
0100
0000
1100
0000
,
0100
1000
0001
1000
0010
0000
0110
0000
,
0100
0001
0010
0001
0100
0010
1000
0001
,
1000
0100
0010
0001
0100
0000
0101
0000
,
0001
1000
0010
0100
0001
0010
0000
0010
,
0001
1000
0010
0100
0001
0000
1010
0000
,
1000
0010
1000
0001
0010
0100
0000
0100
,
1000
0001
0100
0010
0100
0000
0110
0000
,
0010
1000
0100
1000
0010
0000
1001
0000
,
1000
0001
0010
0100
1000
0000
0011
0000
,
0010
0001
1000
0001
1000
0000
0100
0000
,
0010
0001
0100
0010
1000
0100
1000
0100
0010
0001
0100
0010
1000
0100
1000
0100
,
0010
0001
0100
0010
1000
0100
1000
0100
0010
0100
1000
0001
1000
0001
0100
0010
,
0100
0001
0010
0100
1000
0010
1000
0010
0100
0001
0010
0100
1000
0010
1000
0010
,
0100
0001
0010
0100
1000
0010
1000
0010
0100
0001
0010
0100
1000
0001
1000
0001
,
0100
0010
1000
0100
0010
0001
0010
0001
1000
0010
1000
0100
0010
0001
0010
0001
,
1000
0010
1000
0100
0010
0001
0010
0001
1000
0010
1000
0100
0010
0001
0010
0001
,
1000
0100
1000
0010
0100
0001
0100
0001
1000
0100
1000
0010
0100
0001
0100
0001
,
1000
0100
1000
0010
0100
0001
0100
0001
1000
0100
1000
0010
0100
0001
0100
0001
,
1000
0100
1000
0100
0010
0001
0100
0001
1000
0100
1000
0100
0010
0001
0100
0001
,
1000
0100
1000
0100
0010
0001
0100
0001
1000
0010
0100
0001
1000
0001
0010
0100
,
1000
0001
0100
0001
1000
0010
1000
0100
0010
0001
0010
0001
1000
0010
1000
0100
,
0010
0001
0010
0001
1000
0010
1000
0001
1000
0100
0010
0001
1000
0001
0100
0010
,
1000
0001
1000
0010
0100
0001
0010
0100
1000
0010
1000
0010
0100
0001
0010
0100
,
1000
0010
1000
0010
0100
0001
0010
0100
1000
0010
1000
0010
0100
0001
0010
0100
,
1000
0001
1000
0001
0100
0010
1000
0100
1000
0001
1000
0001
0100
0010
1000
0100
,
1000
0001
0100
0010
1000
0001
1000
0001
0010
0100
1000
0010
1000
0001
1000
0100
,
0010
0100
1000
0001
0100
0001
1000
0100
1000
0001
1000
0010
0100
0001
1000
0001
,
0010
0100
1000
0010
0100
0001
1000
0100
0010
0001
0010
0001
1000
0010
0100
0010
,
1000
0100
1000
0001
0010
0001
1000
0010
1000
0001
1000
0100
0010
0001
1000
0001
,
0100
0010
1000
0100
0010
0001
1000
0010
0100
0001
0100
0001
1000
0100
0010
0100
,
1000
0010
0100
0001
1000
0010
1000
0001
0010
0001
1000
0001
0100
0010
1000
0001
,
1000
0100
0010
0001
0100
0010
1000
0001
0010
0100
1000
0100
1000
0001
0100
0010
,
0100
0001
0010
0001
1000
0100
1000
0001
0100
0001
1000
0001
0010
0100
1000
0001
,
1000
0010
0100
0001
0010
0100
1000
0001
0100
0010
1000
0010
1000
0001
0010
0100
,
1000
0010
1000
0001
0010
0001
1000
0010
1000
0001
1000
0100
0010
0001
1000
0001
,
0100
0010
1000
0100
0010
0001
1000
0001
0100
0010
1000
0001
1000
0100
0010
0001
,
1000
0100
1000
0001
0100
0001
1000
0100
1000
0001
1000
0010
0100
0001
1000
0001
,
0010
0100
1000
0010
0100
0001
1000
0001
1000
0100
0010
0001
1000
0001
0100
0010
,
1000
0100
0010
0001
1000
0100
1000
0001
0100
0001
1000
0001
0010
0100
1000
0001
,
1000
0010
0100
0001
0010
0100
1000
0001
0100
0010
1000
0010
1000
0001
0010
0100
,
0010
0001
0100
0001
1000
0010
1000
0001
0010
0001
1000
0001
0100
0010
1000
0001
,
1000
0100
0010
0001
1000
0010
1000
0001
0010
0100
1000
0001
1000
0001
0100
0010
,
2000
0000
0000
0000
,
0000
0000
0000
0000
,
3000
0000
0000
0000
;
