#TITLE:Chokehold;
#SUBTITLE:By Nicholas T. Mihaila;
#ARTIST:Children of Bodom;
#TITLETRANSLIT:;
#SUBTITLETRANSLIT:;
#ARTISTTRANSLIT:;
#CREDIT:;
#BANNER:Chokehold - Banner.jpg;
#BACKGROUND:Chokehold - Background.jpg;
#LYRICSPATH:;
#CDTITLE:cdtitle.gif;
#MUSIC:Chokehold.mp3;
#OFFSET:-0.100;
#SAMPLESTART:100.000;
#SAMPLELENGTH:12.000;
#SELECTABLE:YES;
#BPMS:0.000=136.000,256.000=133.000,316.000=136.000;
#STOPS:;
#BGCHANGES:;
// cache tags:
#FIRSTBEAT:7.500;
#LASTBEAT:566.000;
#SONGFILENAME:Songs/toune 5/COB - Chokehold/Chokehold.sm;
#HASMUSIC:1;
#HASBANNER:1;
#MUSICLENGTH:252.322;
// end cache tags

//---------------dance-single - ----------------
#NOTES:
     dance-single:
     :
     Hard:
     13:
     1.000,1.000,1.000,0.273,1.000,1443.000,357.000,69.000,0.000,4.000:
0000
0000
0000
0000
,
0000
0000
0000
0000
0000
0000
0000
0000
0000
0000
0000
0000
0000
0000
0000
0000
0000
0000
0000
0000
0000
0001
0010
0100
,
1000
0000
0000
0000
,
0000
0000
0000
0000
,
1000
0100
0001
0100
1000
0100
0001
0100
0001
0010
1000
0010
0001
0010
1000
0010
,
1000
0010
0100
0010
1000
0010
0100
0010
0001
0100
0010
0100
0001
0100
0010
0100
,
1000
0100
0010
0001
0010
0100
1000
0100
0001
0010
0100
1000
0100
0010
0001
0010
,
1100
0000
0000
0000
0000
0000
1000
0000
0100
0000
0010
0000
0001
0000
0000
0000
0000
0000
1100
0000
0000
0000
0000
0000
0000
0000
0000
0010
0000
0000
1100
0000
0000
0000
0000
0000
0001
0000
0010
0000
0001
0000
0010
0000
0000
1000
0000
0000
,
0101
0000
1010
0000
0110
1100
0000
0000
0101
0000
0101
0110
0000
0110
1100
0001
,
0010
0100
1000
0001
0010
0100
1000
0001
0000
0001
0100
0001
0010
0000
1000
0000
,
0101
0000
1010
0000
0110
1100
0000
0000
0101
0000
0101
0110
0000
0110
1100
0001
,
0010
0100
1000
0001
0010
0100
1000
0001
0000
0001
0100
0001
0010
0000
1000
0000
,
1010
0000
0101
0000
0110
0011
0000
0000
1010
0000
1010
0110
0000
0110
0011
1000
,
0100
0010
0001
1000
0100
0010
0001
1000
0000
1000
0010
1000
0100
0000
0001
0000
,
1010
0000
0101
0000
0110
0011
0000
0000
1010
0000
1010
0110
0000
0110
0011
0100
,
1000
0010
1000
0001
2000
0000
0000
0000
0000
0000
0000
0000
0000
0000
0000
0000
,
3101
0000
1010
0000
0110
1100
0000
0000
0101
0000
0101
0110
0000
0110
1100
0000
,
0101
0000
0101
0110
0000
0110
1100
1000
1000
1000
1000
1000
1000
1000
1000
1000
,
0101
0000
1010
0000
0110
1100
0000
0000
0101
0000
0101
0110
0000
0110
1100
0000
,
0001
0010
0001
0010
1000
0010
1000
0010
0001
0010
0001
0010
1000
0100
1000
0100
,
1010
0000
0101
0000
0110
0011
0000
0000
1010
0000
1010
0110
0000
0110
0011
0000
,
1010
0000
1010
0110
0000
0110
0011
0001
0001
0001
0001
0001
0001
0001
0001
0001
,
1010
0000
0101
0000
0110
0011
0000
0000
1010
0000
1010
0110
0000
0110
0011
0000
,
1000
0100
1000
0100
0001
0100
0001
0100
1000
0100
1000
0100
0001
0010
0001
0010
,
0202
0000
0000
0303
2020
0000
0000
3030
,
0100
0000
0000
0000
1000
0100
0010
0000
1000
0100
0010
0100
0020
0000
0030
0000
,
2200
0000
0000
3300
0022
0000
0000
0033
,
1000
0100
1000
0010
1000
0001
1000
0010
1000
0100
1000
0010
1000
0001
1000
0010
,
0202
0000
0000
0303
2020
0000
0000
3030
,
0002
0000
0000
1003
0020
0000
0000
0031
0200
0000
0000
0310
2000
0000
0000
3000
,
2200
0000
0000
3300
0022
0000
0000
0033
,
1000
0000
0100
0000
1000
0000
0010
0000
0000
0001
0000
0000
1000
0000
0000
0010
0000
0000
0100
0000
0000
0001
0000
0000
1000
0000
0000
0100
0000
0000
0010
0000
0000
0001
0000
0000
1000
0000
0000
0010
0000
0000
0100
0000
0000
0010
0000
0000
,
1001
0000
0010
0010
1001
0000
0010
0010
,
0101
0000
0000
1100
0000
0000
1010
0000
0000
0011
0000
0000
0110
0000
0000
0000
,
1001
0000
0100
0100
1001
0000
0100
0100
,
1010
0000
0000
0110
0000
0000
0101
0000
0000
1100
0000
0000
0011
0000
0000
0000
,
1000
1000
1000
1000
0100
0100
0100
0100
0010
0010
0010
0010
0001
0001
0001
0001
,
0110
0000
1000
1000
0110
0000
1000
1000
,
0001
0001
0001
0001
0010
0010
0010
0010
0100
0100
0100
0100
2000
0000
0000
0000
,
3101
0000
0000
1100
0000
0000
1010
0000
0000
0011
0000
0000
0110
0000
1001
0000
,
1100
0010
0001
0010
0101
0000
1010
0000
0100
0000
0001
0000
0100
0000
0010
0000
,
0000
0000
1100
0011
1000
0100
0010
0000
,
1100
0000
0000
1010
0000
0000
1010
0000
0011
0000
0000
0101
0000
0000
0101
0000
,
0110
0000
0000
1100
0000
0000
1100
0000
1001
0000
0000
0011
0000
0000
0011
0000
,
1000
0100
1000
0010
0101
0000
1010
0000
0001
0000
0100
0000
0010
0000
0000
0000
,
0000
0000
1100
0011
1000
0010
0100
0001
,
1100
0000
0000
1010
0000
0000
1010
0000
0011
0000
0000
0101
0000
0000
0101
0000
,
0110
0000
0000
1100
0000
0000
1100
0000
1001
0000
0100
0010
0001
0000
0001
0010
,
0101
0000
1010
0000
0110
1100
0000
0000
0101
0000
0101
0110
0000
0110
1100
0000
,
0101
0000
0101
0110
0000
0110
1100
1000
1000
1000
1000
1000
1000
1000
1000
1000
,
0101
0000
1010
0000
0110
1100
0000
0000
0101
0000
0101
0110
0000
0110
1100
0000
,
0001
0010
0001
0010
1000
0010
1000
0010
0001
0010
0001
0010
1000
0100
1000
0100
,
1010
0000
0101
0000
0110
0011
0000
0000
1010
0000
1010
0110
0000
0110
0011
0000
,
1010
0000
1010
0110
0000
0110
0011
0001
0001
0001
0001
0001
0001
0001
0001
0001
,
1010
0000
0101
0000
0110
0011
0000
0000
1010
0000
1010
0110
0000
0110
0011
0000
,
1000
0100
1000
0100
0001
0100
0001
0100
1000
0100
1000
0100
0001
0010
0001
0010
,
0202
0000
0000
0303
2020
0000
0000
3030
,
0100
0000
0000
0000
1000
0100
0010
0000
1000
0100
0010
0100
0020
0000
0030
0000
,
2200
0000
0000
3300
0022
0000
0000
0033
,
1000
0100
1000
0010
1000
0001
1000
0010
1000
0100
1000
0010
1000
0001
1000
0010
,
0202
0000
0000
0303
2020
0000
0000
3030
,
0002
0000
0000
1003
0020
0000
0000
0031
0200
0000
0000
0310
2000
0000
0000
3000
,
2200
0000
0000
3300
0022
0000
0000
0033
,
1100
0000
0000
0001
0001
0001
0010
0010
0010
0100
0100
0100
,
1100
0000
0000
1100
1100
1100
1100
0000
0000
1100
1100
1100
,
1010
0000
0000
1010
1010
1010
1010
0000
0000
0110
0110
0110
,
1100
0000
0000
1100
1100
1100
1100
0000
0000
1000
0100
0010
,
0001
1000
0001
1000
0001
1000
0001
1000
0001
1000
0001
1000
,
0011
0000
0000
0011
0011
0011
0011
0000
0000
0011
0011
0011
,
0101
0000
0000
0101
0101
0101
0101
0000
0000
0110
0110
0110
,
0011
0000
0000
0011
0011
0011
0011
0000
0000
0001
0010
0100
,
0110
0000
0000
1000
0001
1000
0110
0000
0000
1000
0001
1000
0110
0000
0000
1000
0001
1000
0110
0000
0100
0000
0010
0000
,
0001
0001
0001
1000
0010
0100
0002
0000
0000
0000
0000
0000
,
1003
0010
0100
0001
0100
0010
2000
0000
0000
0000
0000
0000
,
3001
0010
1000
0200
0000
0000
1300
0100
0001
0020
0000
0000
,
1030
0100
0010
0001
0010
0100
1000
0010
0100
0001
0100
0010
,
2000
0000
0000
3010
0100
0001
0020
0000
0000
1030
0100
0010
,
0002
0000
0203
0000
0320
0000
1030
1000
1000
1000
1000
1000
,
0110
0110
0110
0110
1010
0101
0011
0011
0011
0011
0110
1100
,
0002
0000
0100
0000
0000
0000
0100
0000
0000
0000
0100
0000
1000
0010
0000
0000
,
1000
0100
0010
0100
1000
0100
0010
0100
1000
0010
0100
0010
1000
0000
0100
0010
,
1003
0100
1000
0100
0001
0010
0001
0010
1000
0100
1000
0100
0010
0100
0010
0100
,
1000
0100
1000
0100
0001
0010
0001
0010
1000
0100
0001
0010
2000
0000
0000
0000
,
3001
0010
0001
0010
1000
0100
1000
0100
0001
0010
0001
0010
0100
0010
0100
0010
,
0001
0010
0001
0010
1000
0100
1000
0100
0001
0010
1000
0100
0002
0000
0000
0000
,
1003
0100
0010
0100
0001
0010
0100
0010
1000
0100
0010
0100
0010
1000
0010
0100
,
1000
0100
0010
0100
0001
0010
0100
0010
1000
0100
0001
0010
2000
0000
0000
0000
,
3001
0010
0100
0010
1000
0100
0010
0100
0001
0010
0100
0010
0100
0001
0100
0010
,
0001
0010
0100
0010
1000
0100
0010
0100
0001
0010
1000
0100
0002
0000
0000
0000
,
1003
0010
0100
1000
0001
0100
0010
0001
1000
0010
0100
1000
0010
0100
0010
0100
,
1000
0010
0100
1000
0001
0100
0010
0001
1000
0010
0001
0100
2000
0000
0000
0000
,
3001
0100
0010
0001
1000
0010
0100
1000
0001
0100
0010
0001
0100
0010
0100
0010
,
0001
0100
0010
0001
1000
0010
0100
1000
0001
0100
1000
0010
0002
0000
0000
0000
,
1003
0100
0010
0001
1000
0100
0010
0001
1000
0100
0010
0001
1000
0010
0100
0010
,
0001
0000
0000
0100
0000
0000
0010
0000
0000
1000
0000
0000
0001
0000
0000
0100
0000
0000
0010
0000
0000
1000
0000
0000
0001
0000
0100
0000
1000
0000
0010
0000
1000
0000
0100
0000
0001
0000
0000
0000
0000
0000
0000
0000
0000
0000
0000
0000
,
1000
0100
1000
0100
1000
0100
2000
0000
0000
0000
0000
0000
3001
0010
0001
0010
0001
0010
0002
0000
0000
0000
0000
0000
,
0013
1000
0010
1000
0010
1000
0100
0001
0100
0001
0100
0001
0010
0100
0010
0100
0010
0100
0020
0000
0000
0000
0000
0000
,
0031
0100
0010
1000
0010
0100
0001
0010
1000
0100
0010
1000
0100
0010
0001
0010
,
1000
0010
0001
0010
0100
0010
0001
1000
0001
0010
0100
0010
1000
0100
0010
0100
,
0001
0010
0100
1000
0100
0010
0001
0010
0100
1000
0100
0010
0001
0100
0010
1000
0010
0100
0001
0100
0010
1000
0010
0100
,
1000
0100
0010
0001
0010
0100
1000
0100
0010
0001
0010
0100
1000
0010
0100
0001
0100
0010
1000
0010
0100
0001
0100
0010
,
2000
0000
0000
0200
0000
0000
3310
0000
0002
0000
0000
0020
0000
0000
0033
0000
,
1000
0100
0010
0001
0100
0010
0100
1000
0100
0010
0001
0100
0010
0100
1000
0100
0010
0001
1000
0100
0010
0001
0100
0010
,
1000
0100
0010
0001
0010
0100
1000
0100
0010
0001
0010
0100
1000
0100
0010
0001
0010
0100
1000
0100
0010
0001
0010
0100
,
1000
0010
0001
0100
0001
0010
1000
0010
0001
0100
0001
0010
1000
0010
0001
0100
0001
0010
1000
0010
0001
0100
0001
0010
,
1000
0010
0100
0001
0100
0010
1000
0010
0100
0001
0100
0010
1000
0010
0100
0001
0100
0010
1000
0010
0100
0001
0100
0010
,
2000
0000
3001
0010
0100
1000
0100
0010
0001
0000
1000
0100
0010
0001
0010
0100
,
1000
0100
0010
0100
0001
0010
0100
0010
1000
0010
1000
0100
0001
0100
0001
0010
,
1000
0100
0001
0010
0001
0010
1000
0100
0001
0010
1000
0010
0001
0100
0010
0100
,
1000
0100
0010
0001
1000
0100
0010
0001
1000
0010
0100
0010
0001
0010
0100
1000
0010
0100
1000
0100
0010
0001
0100
0010
,
1001
0101
0110
1100
,
1001
0101
0110
1100
,
1001
0000
0000
0000
,
0100
0000
0100
0010
0000
0010
1000
0000
1000
0000
0001
0010
0000
0001
1000
0000
,
0000
0000
0000
0000
,
0100
0000
0100
0010
0000
0010
1000
0000
1000
0000
0001
0010
0000
0001
1000
0010
,
0101
0000
1000
1000
0101
0000
1000
1000
,
0011
0000
0000
1010
0000
0000
1100
0000
0000
0101
0000
0000
0110
0000
0000
0000
,
0101
0000
0010
0010
0101
0000
0010
0010
,
1001
0000
0000
0110
0000
0000
0101
0000
0000
1100
0000
0000
0011
0000
0000
0000
,
1000
1000
1000
1000
0100
0100
0100
0100
0010
0010
0010
0010
0001
0001
0001
0001
,
1100
0000
0010
0010
1100
0000
0010
0010
,
0001
0001
0001
0001
0010
0010
0010
0010
0100
0100
0100
0100
2000
0000
0000
0000
,
3101
0000
0000
1100
0000
0000
1010
0000
0000
0010
0100
0010
1000
0001
1000
0001
,
1100
0010
0001
0010
0101
0000
1010
0000
0100
0000
0001
0000
0100
0000
0010
0000
,
0000
0000
1100
0011
1000
0100
0010
0000
,
1100
0000
0000
1010
0000
0000
1010
0000
0011
0000
0000
0101
0000
0000
0101
0000
,
0110
0000
0000
1100
0000
0000
1100
0000
1001
0000
0000
0011
0000
0000
0011
0000
,
1000
0100
1000
0010
0101
0000
1010
0000
0001
0000
0100
0000
0010
0000
0000
0000
,
0000
0000
1100
0011
1000
0010
0100
0001
,
1100
0000
0000
1010
0000
0000
1010
0000
0011
0000
0000
0101
0000
0000
0101
0000
,
0110
0000
0000
1100
0000
0000
1100
0000
1001
0000
0100
0010
0001
0000
0001
0010
,
0100
1000
0010
1000
0101
0000
1010
0000
0001
0000
0010
0000
0001
0000
0100
0000
,
0000
0000
1100
0011
0100
0001
1000
0000
,
1100
0000
0000
1010
0000
0000
1010
0000
0011
0000
0000
0101
0000
0000
0101
0000
,
0110
0000
0000
1100
0000
0000
1100
0000
1001
0000
0000
0011
0000
0000
0011
0000
,
1000
0100
1000
0010
0101
0000
1010
0000
0100
0000
0010
0000
0001
0000
0000
0000
,
0000
0000
1100
0011
1000
0010
0100
0001
,
1100
0000
0000
1010
0000
0000
1010
0000
0011
0000
0000
0101
0000
0000
0101
0000
,
0110
0000
0000
1100
0000
0000
1100
0000
1001
0000
0000
0011
0000
0000
0011
0000
,
1000
1000
1000
1000
0101
0000
1010
0000
1000
0001
1000
0001
1000
0001
1000
0001
,
1100
0101
1001
0011
1010
0000
0000
0000
;

//---------------dance-single - Copied from----------------
#NOTES:
     dance-single:
     Copied from:
     Medium:
     11:
     1.000,1.000,1.000,0.317,1.000,1339.000,357.000,80.000,0.000,4.000:
0000
0000
0000
0000
,
0000
0000
0000
0000
0000
0000
0000
0000
0000
0000
0000
0000
0000
0000
0000
0000
0000
0000
0000
0000
0000
0001
0010
0100
,
1000
0000
0000
0000
,
0000
0000
0000
0000
,
1000
0100
0001
0100
1000
0100
0001
0100
0001
0010
1000
0010
0001
0010
1000
0010
,
1000
0010
0100
0010
1000
0010
0100
0010
0001
0100
0010
0100
0001
0100
0010
0100
,
1000
0100
0010
0001
0010
0100
1000
0100
0001
0010
0100
1000
0100
0010
0001
0010
,
1100
0000
0000
0000
0000
0000
1000
0000
0100
0000
0010
0000
0001
0000
0000
0000
0000
0000
1100
0000
0000
0000
0000
0000
0000
0000
0000
0010
0000
0000
1100
0000
0000
0000
0000
0000
0001
0000
0010
0000
0001
0000
0010
0000
0000
1000
0000
0000
,
0101
0000
1010
0000
0110
1100
0000
0000
0101
0000
0101
0110
0000
0110
1100
0001
,
0010
0100
1000
0001
0010
0100
1000
0001
0000
0001
0100
0001
0010
0000
1000
0000
,
0101
0000
1010
0000
0110
1100
0000
0000
0101
0000
0101
0110
0000
0110
1100
0001
,
0010
0100
1000
0001
0010
0100
1000
0001
0000
0001
0100
0001
0010
0000
1000
0000
,
1010
0000
0101
0000
0110
0011
0000
0000
1010
0000
1010
0110
0000
0110
0011
1000
,
0100
0010
0001
1000
0100
0010
0001
1000
0000
1000
0010
1000
0100
0000
0001
0000
,
1010
0000
0101
0000
0110
0011
0000
0000
1010
0000
1010
0110
0000
0110
0011
0100
,
1000
0010
1000
0001
2000
0000
0000
0000
0000
0000
0000
0000
0000
0000
0000
0000
,
3101
0000
1010
0000
0110
1100
0000
0000
0101
0000
0101
0110
0000
0110
1100
0000
,
0101
0000
0101
0110
0000
0110
1100
1000
1000
1000
1000
1000
1000
1000
1000
1000
,
0101
0000
1010
0000
0110
1100
0000
0000
0101
0000
0101
0110
0000
0110
1100
0000
,
0001
0010
0001
0010
1000
0010
1000
0010
0001
0010
0001
0010
1000
0100
1000
0100
,
1010
0000
0101
0000
0110
0011
0000
0000
1010
0000
1010
0110
0000
0110
0011
0000
,
1010
0000
1010
0110
0000
0110
0011
0001
0001
0001
0001
0001
0001
0001
0001
0001
,
1010
0000
0101
0000
0110
0011
0000
0000
1010
0000
1010
0110
0000
0110
0011
0000
,
1000
0100
1000
0100
0001
0100
0001
0100
1000
0100
1000
0100
0001
0010
0001
0010
,
0202
0000
0000
0303
2020
0000
0000
3030
,
0100
0000
0000
0000
1000
0100
0010
0000
1000
0100
0010
0100
0020
0000
0030
0000
,
2200
0000
0000
3300
0022
0000
0000
0033
,
1000
0100
1000
0010
1000
0001
1000
0010
1000
0100
1000
0010
1000
0001
1000
0010
,
0202
0000
0000
0303
2020
0000
0000
3030
,
0002
0000
0000
1003
0020
0000
0000
0031
0200
0000
0000
0310
2000
0000
0000
3000
,
2200
0000
0000
3300
0022
0000
0000
0033
,
1000
0000
0100
0000
1000
0000
0010
0000
0000
0001
0000
0000
1000
0000
0000
0010
0000
0000
0100
0000
0000
0001
0000
0000
1000
0000
0000
0100
0000
0000
0010
0000
0000
0001
0000
0000
1000
0000
0000
0010
0000
0000
0100
0000
0000
0010
0000
0000
,
1001
0000
0010
0010
1001
0000
0010
0010
,
0101
0000
0000
1100
0000
0000
1010
0000
0000
0011
0000
0000
0110
0000
0000
0000
,
1001
0000
0100
0100
1001
0000
0100
0100
,
1010
0000
0000
0110
0000
0000
0101
0000
0000
1100
0000
0000
0011
0000
0000
0000
,
1000
1000
1000
1000
0100
0100
0100
0100
0010
0010
0010
0010
0001
0001
0001
0001
,
0110
0000
1000
1000
0110
0000
1000
1000
,
0001
0001
0001
0001
0010
0010
0010
0010
0100
0100
0100
0100
2000
0000
0000
0000
,
3101
0000
0000
1100
0000
0000
1010
0000
0000
0011
0000
0000
0110
0000
1001
0000
,
1100
0010
0001
0010
0101
0000
1010
0000
0100
0000
0001
0000
0100
0000
0010
0000
,
0000
0000
1100
0011
1000
0100
0010
0000
,
1100
0000
0000
1010
0000
0000
1010
0000
0011
0000
0000
0101
0000
0000
0101
0000
,
0110
0000
0000
1100
0000
0000
1100
0000
1001
0000
0000
0011
0000
0000
0011
0000
,
1000
0100
1000
0010
0101
0000
1010
0000
0001
0000
0100
0000
0010
0000
0000
0000
,
0000
0000
1100
0011
1000
0010
0100
0001
,
1100
0000
0000
1010
0000
0000
1010
0000
0011
0000
0000
0101
0000
0000
0101
0000
,
0110
0000
0000
1100
0000
0000
1100
0000
1001
0000
0100
0010
0001
0000
0001
0010
,
0101
0000
1010
0000
0110
1100
0000
0000
0101
0000
0101
0110
0000
0110
1100
0000
,
0101
0000
0101
0110
0000
0110
1100
1000
1000
1000
1000
1000
1000
1000
1000
1000
,
0101
0000
1010
0000
0110
1100
0000
0000
0101
0000
0101
0110
0000
0110
1100
0000
,
0001
0010
0001
0010
1000
0010
1000
0010
0001
0010
0001
0010
1000
0100
1000
0100
,
1010
0000
0101
0000
0110
0011
0000
0000
1010
0000
1010
0110
0000
0110
0011
0000
,
1010
0000
1010
0110
0000
0110
0011
0001
0001
0001
0001
0001
0001
0001
0001
0001
,
1010
0000
0101
0000
0110
0011
0000
0000
1010
0000
1010
0110
0000
0110
0011
0000
,
1000
0100
1000
0100
0001
0100
0001
0100
1000
0100
1000
0100
0001
0010
0001
0010
,
0202
0000
0000
0303
2020
0000
0000
3030
,
0100
0000
0000
0000
1000
0100
0010
0000
1000
0100
0010
0100
0020
0000
0030
0000
,
2200
0000
0000
3300
0022
0000
0000
0033
,
1000
0100
1000
0010
1000
0001
1000
0010
1000
0100
1000
0010
1000
0001
1000
0010
,
0202
0000
0000
0303
2020
0000
0000
3030
,
0002
0000
0000
1003
0020
0000
0000
0031
0200
0000
0000
0310
2000
0000
0000
3000
,
2200
0000
0000
3300
0022
0000
0000
0033
,
1100
0000
0000
0001
0001
0001
0010
0010
0010
0100
0100
0100
,
1100
0000
0000
1100
1100
1100
1100
0000
0000
1100
1100
1100
,
1010
0000
0000
1010
1010
1010
1010
0000
0000
0110
0110
0110
,
1100
0000
0000
1100
1100
1100
1100
0000
0000
1000
0100
0010
,
0001
1000
0001
1000
0001
1000
0001
1000
0001
1000
0001
1000
,
0011
0000
0000
0011
0011
0011
0011
0000
0000
0011
0011
0011
,
0101
0000
0000
0101
0101
0101
0101
0000
0000
0110
0110
0110
,
0011
0000
0000
0011
0011
0011
0011
0000
0000
0001
0010
0100
,
0110
0000
0000
1000
0001
1000
0110
0000
0000
1000
0001
1000
0110
0000
0000
1000
0001
1000
0110
0000
0100
0000
0010
0000
,
0001
0001
0001
1000
0010
0100
0002
0000
0000
0000
0000
0000
,
1003
0010
0100
0001
0100
0010
2000
0000
0000
0000
0000
0000
,
3001
0010
1000
0200
0000
0000
1300
0100
0001
0020
0000
0000
,
1030
0100
0010
0001
0010
0100
1000
0010
0100
0001
0100
0010
,
2000
0000
0000
3010
0100
0001
0020
0000
0000
1030
0100
0010
,
0002
0000
0203
0000
0320
0000
1030
1000
1000
1000
1000
1000
,
0110
0110
0110
0110
1010
0101
0011
0011
0011
0011
0110
1100
,
0002
0000
0100
0000
0000
0000
0100
0000
0000
0000
0100
0000
1000
0010
0000
0000
,
1000
0100
0010
0100
1000
0100
0010
0100
1000
0010
0100
0010
1000
0000
0100
0010
,
1003
0100
1000
0100
0001
0010
0001
0010
1000
0100
1000
0100
0010
0100
0010
0100
,
1000
0100
1000
0100
0001
0010
0001
0010
1000
0100
0001
0010
2000
0000
0000
0000
,
3001
0010
0001
0010
1000
0100
1000
0100
0001
0010
0001
0010
0100
0010
0100
0010
,
0001
0010
0001
0010
1000
0100
1000
0100
0001
0010
1000
0100
0002
0000
0000
0000
,
1003
0100
0010
0100
0001
0010
0100
0010
1000
0100
0010
0100
0010
1000
0010
0100
,
1000
0100
0010
0100
0001
0010
0100
0010
1000
0100
0001
0010
2000
0000
0000
0000
,
3001
0010
0100
0010
1000
0100
0010
0100
0001
0010
0100
0010
0100
0001
0100
0010
,
0001
0010
0100
0010
1000
0100
0010
0100
0001
0010
1000
0100
0002
0000
0000
0000
,
1003
0010
0100
1000
0001
0100
0010
0001
1000
0010
0100
1000
0010
0100
0010
0100
,
1000
0010
0100
1000
0001
0100
0010
0001
1000
0010
0001
0100
2000
0000
0000
0000
,
3001
0100
0010
0001
1000
0010
0100
1000
0001
0100
0010
0001
0100
0010
0100
0010
,
0001
0100
0010
0001
1000
0010
0100
1000
0001
0100
1000
0010
0002
0000
0000
0000
,
1003
0100
0010
0001
1000
0100
0010
0001
1000
0100
0010
0001
1000
0010
0100
0010
,
0001
0000
0000
0100
0000
0000
0010
0000
0000
1000
0000
0000
0001
0000
0000
0100
0000
0000
0010
0000
0000
1000
0000
0000
0001
0000
0100
0000
1000
0000
0010
0000
1000
0000
0100
0000
0001
0000
0000
0000
0000
0000
0000
0000
0000
0000
0000
0000
,
1000
0100
1000
0100
1000
0100
2000
0000
0000
0000
0000
0000
3001
0010
0001
0010
0001
0010
0002
0000
0000
0000
0000
0000
,
0013
1000
0010
1000
0010
1000
0100
0001
0100
0001
0100
0001
0010
0100
0010
0100
0010
0100
0020
0000
0000
0000
0000
0000
,
0031
0100
0010
1000
0010
0100
0001
0010
1000
0100
0010
1000
0100
0010
0001
0010
,
1000
0010
0001
0010
0100
0010
0001
1000
0001
0010
0100
0010
1000
0100
0010
0100
,
0001
0010
0100
2000
0000
0000
3000
0000
1000
0100
0010
0002
0000
0000
0003
0000
,
1000
0100
0010
0200
0000
0000
0300
0000
0001
0010
0100
0020
0000
0000
0030
0000
,
2000
0000
0000
0200
0000
0000
3310
0000
0002
0000
0000
0020
0000
0000
0033
0000
,
1000
0100
0010
0001
1000
0010
0100
0001
1000
0100
0000
0100
0010
0000
0000
0000
,
0100
0010
0100
0002
0000
0000
0003
0000
0010
0100
0010
2000
0000
0000
3000
0000
,
0001
0010
0100
0010
1000
0100
0010
0100
0001
1000
0010
0002
0000
0000
0003
0000
,
0010
0100
0001
0200
0000
0000
0300
0000
0100
0010
1000
0020
0000
0000
0030
0000
,
2000
0000
3001
0010
0100
1000
0100
0010
0001
0000
1000
0100
0010
0001
0010
0100
,
1000
0100
0010
0100
0001
0010
0100
0010
1000
0010
1000
0100
0001
0100
0001
0010
,
1000
0100
0001
0010
0001
0010
1000
0100
0001
0010
1000
0010
0001
0100
0010
0100
,
1000
0100
0010
0002
0000
0000
0003
0000
0001
0010
0100
2000
0000
0000
3000
0000
,
1001
0101
0110
1100
,
1001
0101
0110
1100
,
1001
0000
0000
0000
,
0100
0000
0100
0010
0000
0010
1000
0000
1000
0000
0001
0010
0000
0001
1000
0000
,
0000
0000
0000
0000
,
0100
0000
0100
0010
0000
0010
1000
0000
1000
0000
0001
0010
0000
0001
1000
0010
,
0101
0000
1000
1000
0101
0000
1000
1000
,
0011
0000
0000
1010
0000
0000
1100
0000
0000
0101
0000
0000
0110
0000
0000
0000
,
0101
0000
0010
0010
0101
0000
0010
0010
,
1001
0000
0000
0110
0000
0000
0101
0000
0000
1100
0000
0000
0011
0000
0000
0000
,
1000
1000
1000
1000
0100
0100
0100
0100
0010
0010
0010
0010
0001
0001
0001
0001
,
1100
0000
0010
0010
1100
0000
0010
0010
,
0001
0001
0001
0001
0010
0010
0010
0010
0100
0100
0100
0100
2000
0000
0000
0000
,
3101
0000
0000
1100
0000
0000
1010
0000
0000
0010
0100
0010
1000
0001
1000
0001
,
1100
0010
0001
0010
0101
0000
1010
0000
0100
0000
0001
0000
0100
0000
0010
0000
,
0000
0000
1100
0011
1000
0100
0010
0000
,
1100
0000
0000
1010
0000
0000
1010
0000
0011
0000
0000
0101
0000
0000
0101
0000
,
0110
0000
0000
1100
0000
0000
1100
0000
1001
0000
0000
0011
0000
0000
0011
0000
,
1000
0100
1000
0010
0101
0000
1010
0000
0001
0000
0100
0000
0010
0000
0000
0000
,
0000
0000
1100
0011
1000
0010
0100
0001
,
1100
0000
0000
1010
0000
0000
1010
0000
0011
0000
0000
0101
0000
0000
0101
0000
,
0110
0000
0000
1100
0000
0000
1100
0000
1001
0000
0100
0010
0001
0000
0001
0010
,
0100
1000
0010
1000
0101
0000
1010
0000
0001
0000
0010
0000
0001
0000
0100
0000
,
0000
0000
1100
0011
0100
0001
1000
0000
,
1100
0000
0000
1010
0000
0000
1010
0000
0011
0000
0000
0101
0000
0000
0101
0000
,
0110
0000
0000
1100
0000
0000
1100
0000
1001
0000
0000
0011
0000
0000
0011
0000
,
1000
0100
1000
0010
0101
0000
1010
0000
0100
0000
0010
0000
0001
0000
0000
0000
,
0000
0000
1100
0011
1000
0010
0100
0001
,
1100
0000
0000
1010
0000
0000
1010
0000
0011
0000
0000
0101
0000
0000
0101
0000
,
0110
0000
0000
1100
0000
0000
1100
0000
1001
0000
0000
0011
0000
0000
0011
0000
,
1000
1000
1000
1000
0101
0000
1010
0000
1000
0001
1000
0001
1000
0001
1000
0001
,
1100
0101
1001
0011
1010
0000
0000
0000
;

//---------------dance-single - Copied from----------------
#NOTES:
     dance-single:
     Copied from:
     Challenge:
     13:
     1.000,1.000,1.000,0.273,1.000,1468.000,355.000,69.000,0.000,4.000:
0000
0000
0000
0000
,
0000
0000
0000
0000
0000
0000
0000
0000
0000
0000
0000
0000
0000
0000
0000
0000
0000
0000
0000
0000
0000
0001
0010
0100
,
1000
0000
0000
0000
,
0000
0000
0000
0000
,
1000
0100
0001
0100
1000
0100
0001
0100
0001
0010
1000
0010
0001
0010
1000
0010
,
1000
0010
0100
0010
1000
0010
0100
0010
0001
0100
0010
0100
0001
0100
0010
0100
,
1000
0100
0010
0001
0010
0100
1000
0100
0001
0010
0100
1000
0100
0010
0001
0010
,
1100
0000
0000
0000
0000
0000
1000
0000
0100
0000
0010
0000
0001
0000
0000
0000
0000
0000
1100
0000
0000
0000
0000
0000
0000
0000
0000
0010
0000
0000
1100
0000
0000
0000
0000
0000
0001
0000
0010
0000
0001
0000
0010
0000
0000
1000
0000
0000
,
0101
0000
1010
0000
0110
1100
0000
0000
0101
0000
0101
0110
0000
0110
1100
0001
,
0010
0100
1000
0001
0010
0100
1000
0001
0000
0001
0100
0001
0010
0000
1000
0000
,
0101
0000
1010
0000
0110
1100
0000
0000
0101
0000
0101
0110
0000
0110
1100
0001
,
0010
0100
1000
0001
0010
0100
1000
0001
0000
0001
0100
0001
0010
0000
1000
0000
,
1010
0000
0101
0000
0110
0011
0000
0000
1010
0000
1010
0110
0000
0110
0011
1000
,
0100
0010
0001
1000
0100
0010
0001
1000
0000
1000
0010
1000
0100
0000
0001
0000
,
1010
0000
0101
0000
0110
0011
0000
0000
1010
0000
1010
0110
0000
0110
0011
0100
,
1000
0010
1000
0001
2000
0000
0000
0000
0000
0000
0000
0000
0000
0000
0000
0000
,
3101
0000
1010
0000
0110
1100
0000
0000
0101
0000
0101
0110
0000
0110
1100
0000
,
0101
0000
0101
0110
0000
0110
1100
1000
1000
1000
1000
1000
1000
1000
1000
1000
,
0101
0000
1010
0000
0110
1100
0000
0000
0101
0000
0101
0110
0000
0110
1100
0000
,
0001
0010
0001
0010
1000
0010
1000
0010
0001
0010
0001
0010
1000
0100
1000
0100
,
1010
0000
0101
0000
0110
0011
0000
0000
1010
0000
1010
0110
0000
0110
0011
0000
,
1010
0000
1010
0110
0000
0110
0011
0001
0001
0001
0001
0001
0001
0001
0001
0001
,
1010
0000
0101
0000
0110
0011
0000
0000
1010
0000
1010
0110
0000
0110
0011
0000
,
1000
0100
1000
0100
0001
0100
0001
0100
1000
0100
1000
0100
0001
0010
0001
0010
,
0202
0000
0000
0303
2020
0000
0000
3030
,
0100
0000
0000
0000
1000
0100
0010
0000
1000
0100
0010
0100
0020
0000
0030
0000
,
2200
0000
0000
3300
0022
0000
0000
0033
,
1000
0100
1000
0010
1000
0001
1000
0010
1000
0100
1000
0010
1000
0001
1000
0010
,
0202
0000
0000
0303
2020
0000
0000
3030
,
0002
0000
0000
1003
0020
0000
0000
0031
0200
0000
0000
0310
2000
0000
0000
3000
,
2200
0000
0000
3300
0022
0000
0000
0033
,
1000
0000
0100
0000
1000
0000
0010
0000
0000
0001
0000
0000
1000
0000
0000
0010
0000
0000
0100
0000
0000
0001
0000
0000
1000
0000
0000
0100
0000
0000
0010
0000
0000
0001
0000
0000
1000
0000
0000
0010
0000
0000
0100
0000
0000
0010
0000
0000
,
1001
0000
0010
0010
1001
0000
0010
0010
,
0101
0000
0000
1100
0000
0000
1010
0000
0000
0011
0000
0000
0110
0000
0000
0000
,
1001
0000
0100
0100
1001
0000
0100
0100
,
1010
0000
0000
0110
0000
0000
0101
0000
0000
1100
0000
0000
0011
0000
0000
0000
,
1000
1000
1000
1000
0100
0100
0100
0100
0010
0010
0010
0010
0001
0001
0001
0001
,
0110
0000
1000
1000
0110
0000
1000
1000
,
0001
0001
0001
0001
0010
0010
0010
0010
0100
0100
0100
0100
2000
0000
0000
0000
,
3101
0000
0000
1100
0000
0000
1010
0000
0000
0011
0000
0000
0110
0000
1001
0000
,
1100
0010
0001
0010
0101
0000
1010
0000
0100
0000
0001
0000
0100
0000
0010
0000
,
0000
0000
1100
0011
1000
0100
0010
0000
,
1100
0000
0000
1010
0000
0000
1010
0000
0011
0000
0000
0101
0000
0000
0101
0000
,
0110
0000
0000
1100
0000
0000
1100
0000
1001
0000
0000
0011
0000
0000
0011
0000
,
1000
0100
1000
0010
0101
0000
1010
0000
0001
0000
0100
0000
0010
0000
0000
0000
,
0000
0000
1100
0011
1000
0010
0100
0001
,
1100
0000
0000
1010
0000
0000
1010
0000
0011
0000
0000
0101
0000
0000
0101
0000
,
0110
0000
0000
1100
0000
0000
1100
0000
1001
0000
0100
0010
0001
0000
0001
0010
,
0101
0000
1010
0000
0110
1100
0000
0000
0101
0000
0101
0110
0000
0110
1100
0000
,
0101
0000
0101
0110
0000
0110
1100
1000
1000
1000
1000
1000
1000
1000
1000
1000
,
0101
0000
1010
0000
0110
1100
0000
0000
0101
0000
0101
0110
0000
0110
1100
0000
,
0001
0010
0001
0010
1000
0010
1000
0010
0001
0010
0001
0010
1000
0100
1000
0100
,
1010
0000
0101
0000
0110
0011
0000
0000
1010
0000
1010
0110
0000
0110
0011
0000
,
1010
0000
1010
0110
0000
0110
0011
0001
0001
0001
0001
0001
0001
0001
0001
0001
,
1010
0000
0101
0000
0110
0011
0000
0000
1010
0000
1010
0110
0000
0110
0011
0000
,
1000
0100
1000
0100
0001
0100
0001
0100
1000
0100
1000
0100
0001
0010
0001
0010
,
0202
0000
0000
0303
2020
0000
0000
3030
,
0100
0000
0000
0000
1000
0100
0010
0000
1000
0100
0010
0100
0020
0000
0030
0000
,
2200
0000
0000
3300
0022
0000
0000
0033
,
1000
0100
1000
0010
1000
0001
1000
0010
1000
0100
1000
0010
1000
0001
1000
0010
,
0202
0000
0000
0303
2020
0000
0000
3030
,
0002
0000
0000
1003
0020
0000
0000
0031
0200
0000
0000
0310
2000
0000
0000
3000
,
2200
0000
0000
3300
0022
0000
0000
0033
,
1100
0000
0000
0001
0001
0001
0010
0010
0010
0100
0100
0100
,
1100
0000
0000
1100
1100
1100
1100
0000
0000
1100
1100
1100
,
1010
0000
0000
1010
1010
1010
1010
0000
0000
0110
0110
0110
,
1100
0000
0000
1100
1100
1100
1100
0000
0000
1000
0100
0010
,
0101
0010
0100
1010
0100
0010
0101
0010
0100
1010
0100
0010
,
0011
0000
0000
0011
0011
0011
0011
0000
0000
0011
0011
0011
,
0101
0000
0000
0101
0101
0101
0101
0000
0000
0110
0110
0110
,
0011
0000
0000
0011
0011
0011
0011
0000
0000
0001
0010
0100
,
0110
0000
0000
1000
0001
1000
0110
0000
0000
1000
0001
1000
0110
0000
0000
1000
0001
1000
0110
0000
0100
0000
0010
0000
,
0001
0001
0001
1000
0010
0100
0002
0000
0000
0000
0000
0000
,
1003
0010
0100
0001
0100
0010
2000
0000
0000
0000
0000
0000
,
3001
0010
1000
0200
0000
0000
1300
0100
0001
0020
0000
0000
,
1030
0100
0010
0001
0010
0100
1000
0010
0100
0001
0100
0010
,
2000
0000
0000
3010
0100
0001
0020
0000
0000
1030
0100
0010
,
0002
0000
0203
0000
0320
0000
1030
1000
1000
1000
1000
1000
,
0110
0110
0110
0110
1010
0101
0011
0011
0011
0011
0110
1100
,
0002
0000
0100
0000
0000
0000
0100
0000
0000
0000
0100
0000
1000
0010
0000
0000
,
1000
0100
0010
0100
1000
0100
0010
0100
1000
0010
0100
0010
1000
0000
0100
0010
,
1003
0100
1000
0100
0001
0010
0001
0010
1000
0100
1000
0100
0010
0100
0010
0100
,
1000
0100
1000
0100
0001
0010
0001
0010
1000
0100
0001
0010
2000
0000
0000
0000
,
3001
0010
0001
0010
1000
0100
1000
0100
0001
0010
0001
0010
0100
0010
0100
0010
,
0001
0010
0001
0010
1000
0100
1000
0100
0001
0010
1000
0100
0002
0000
0000
0000
,
1003
0100
0010
0100
0001
0010
0100
0010
1000
0100
0010
0100
0010
1000
0010
0100
,
1000
0100
0010
0100
0001
0010
0100
0010
1000
0100
0001
0010
2000
0000
0000
0000
,
3001
0010
0100
0010
1000
0100
0010
0100
0001
0010
0100
0010
0100
0001
0100
0010
,
0001
0010
0100
0010
1000
0100
0010
0100
0001
0010
1000
0100
0002
0000
0000
0000
,
1003
0010
0100
1000
0001
0100
0010
0001
1000
0010
0100
1000
0010
0100
0010
0100
,
1000
0010
0100
1000
0001
0100
0010
0001
1000
0010
0001
0100
2000
0000
0000
0000
,
3001
0100
0010
0001
1000
0010
0100
1000
0001
0100
0010
0001
0100
0010
0100
0010
,
0001
0100
0010
0001
1000
0010
0100
1000
0001
0100
1000
0010
0002
0000
0000
0000
,
1003
0100
0010
0001
1000
0100
0010
0001
1000
0100
0010
0001
1000
0010
0100
0010
,
0001
0000
0000
0100
0000
0000
0010
0000
0000
1000
0000
0000
0001
0000
0000
0100
0000
0000
0010
0000
0000
1000
0000
0000
0001
0000
0100
0000
1000
0000
0010
0000
1000
0000
0100
0000
0001
0000
0000
0000
0000
0000
0000
0000
0000
0000
0000
0000
,
1000
0100
1000
0100
1000
0100
2000
0000
0000
0000
0000
0000
3001
0010
0001
0010
0001
0010
0002
0000
0000
0000
0000
0000
,
0013
1000
0010
1000
0010
1000
0100
0001
0100
0001
0100
0001
0010
0100
0010
0100
0010
0100
0020
0000
0000
0000
0000
0000
,
0031
0100
0010
1000
0010
0100
0001
0010
1000
0100
0010
1000
0100
0010
0001
0010
,
1000
0010
0001
0010
0100
0010
0001
1000
0001
0010
0100
0010
1000
0100
0010
0100
,
0001
0010
0100
1000
0100
0010
0001
0010
0100
1000
0100
0010
0001
0100
0010
1000
0010
0100
0001
0100
0010
1000
0010
0100
,
1000
0100
0010
0001
0010
0100
1000
0100
0010
0001
0010
0100
1000
0010
0100
0001
0100
0010
1000
0010
0100
0001
0100
0010
,
2000
0000
0000
0200
0000
0000
3310
0000
0002
0000
0000
0020
0000
0000
0033
0000
,
1000
0100
0010
0001
0100
0010
0100
1000
0100
0010
0001
0100
0010
0100
1000
0100
0010
0001
1000
0100
0010
0001
0100
0010
,
1000
0100
0010
0001
0010
0100
1000
0100
0010
0001
0010
0100
1000
0100
0010
0001
0010
0100
1000
0100
0010
0001
0010
0100
,
1000
0010
0001
0100
0001
0010
1000
0010
0001
0100
0001
0010
1000
0010
0001
0100
0001
0010
1000
0010
0001
0100
0001
0010
,
1000
0010
0100
0001
0100
0010
1000
0010
0100
0001
0100
0010
1000
0010
0100
0001
0100
0010
1000
0010
0100
0001
0100
0010
,
2000
0000
3001
0010
0100
1000
0100
0010
0001
0000
1000
0100
0010
0001
0010
0100
,
1000
0100
0010
0100
0001
0010
0100
0010
1000
0010
1000
0100
0001
0100
0001
0010
,
1000
0100
0001
0010
0001
0010
1000
0100
0001
0010
1000
0010
0001
0100
0010
0100
,
1000
0100
0010
0001
1000
0100
0010
0001
1000
0010
0100
0010
0001
0010
0100
1000
0010
0100
1000
0100
0010
0001
0100
0010
,
1001
0101
0110
1100
,
0001
0001
0001
0001
0001
0001
0001
0010
0001
0010
0001
0010
0001
0100
0001
0100
0001
0100
0001
1000
0001
1000
0001
1000
,
0110
0000
0000
0000
,
0100
0000
0100
0010
0000
0010
1000
0000
1000
0000
0001
0010
0000
0001
1000
0000
,
0000
0000
0000
0000
,
0100
0000
0100
0010
0000
0010
1000
0000
1000
0000
0001
0010
0000
0001
1000
0010
,
0101
0000
1000
1000
0101
0000
1000
1000
,
0011
0000
0000
1010
0000
0000
1100
0000
0000
0101
0000
0000
0110
0000
0000
0000
,
0101
0000
0010
0010
0101
0000
0010
0010
,
1001
0000
0000
0110
0000
0000
0101
0000
0000
1100
0000
0000
0011
0000
0000
0000
,
1000
1000
1000
1000
0100
0100
0100
0100
0010
0010
0010
0010
0001
0001
0001
0001
,
1100
0000
0010
0010
1100
0000
0010
0010
,
0001
0001
0001
0001
0010
0010
0010
0010
0100
0100
0100
0100
2000
0000
0000
0000
,
3101
0000
0000
1100
0000
0000
1010
0000
0000
0100
0010
0100
1000
0001
1000
0001
,
1100
0010
0001
0010
0101
0000
1010
0000
0100
0000
0001
0000
0100
0000
0010
0000
,
0000
0000
1100
0011
1000
0100
0010
0000
,
1100
0000
0000
1010
0000
0000
1010
0000
0011
0000
0000
0101
0000
0000
0101
0000
,
0110
0000
0000
1100
0000
0000
1100
0000
1001
0000
0000
0011
0000
0000
0011
0000
,
1000
0100
1000
0010
0101
0000
1010
0000
0001
0000
0100
0000
0010
0000
0000
0000
,
0000
0000
1100
0011
1000
0010
0100
0001
,
1100
0000
0000
0000
0000
0000
0000
0000
0000
1010
0000
0000
0000
0000
0000
0000
0000
0000
1010
0000
0000
0000
0000
0000
0010
0000
0001
0000
0010
0000
0100
0000
0010
0000
0001
0000
0010
0000
0000
0000
0000
0000
0101
0000
0000
0000
0000
0000
,
0110
0000
0000
1100
0000
0000
1100
0000
1001
0000
0100
0010
0001
0000
0001
0010
,
0100
1000
0010
1000
0101
0000
1010
0000
0001
0000
0010
0000
0001
0000
0100
0000
,
0000
0000
1100
0011
0100
0001
1000
0000
,
1100
0000
0000
1010
0000
0000
1010
0000
0011
0000
0000
0101
0000
0000
0101
0000
,
0110
0000
0000
1100
0000
0000
1100
0000
1001
0000
0000
0011
0000
0000
0011
0000
,
1000
0100
1000
0010
0101
0000
1010
0000
0100
0000
0010
0000
0001
0000
0000
0000
,
0000
0000
1100
0011
1000
0010
0100
0001
,
1100
0000
0000
1010
0000
0000
1010
0000
0011
0000
0000
0101
0000
0000
0101
0000
,
0110
0000
0000
1100
0000
0000
1100
0000
1001
0000
0000
0011
0000
0000
0011
0000
,
1000
1000
1000
1000
0101
0000
1010
0000
1000
0001
1000
0001
1000
0001
1000
0001
,
1100
0101
1001
0011
1010
0000
0000
0000
;

//---------------dance-single - Copied from Copied f----------------
#NOTES:
     dance-single:
     Copied from Copied f:
     Easy:
     11:
     0.932,1.000,0.931,0.317,1.000,1332.000,235.000,80.000,0.000,3.000:
0000
0000
0000
0000
,
0000
0000
0000
0000
0000
0000
0000
0000
0000
0000
0000
0000
0000
0000
0000
0000
0000
0000
0000
0000
0000
0001
0010
0100
,
1000
0000
0000
0000
,
0000
0000
0000
0000
,
1000
0100
0001
0100
1000
0100
0001
0100
0001
0010
1000
0010
0001
0010
1000
0010
,
1000
0010
0100
0010
1000
0010
0100
0010
0001
0100
0010
0100
0001
0100
0010
0100
,
1000
0100
0010
0001
0010
0100
1000
0100
0001
0010
0100
1000
0100
0010
0001
0010
,
1100
0000
0000
0000
0000
0000
1000
0000
0100
0000
0010
0000
0001
0000
0000
0000
0000
0000
1100
0000
0000
0000
0000
0000
0000
0000
0000
0010
0000
0000
1100
0000
0000
0000
0000
0000
0001
0000
0010
0000
0001
0000
0010
0000
0000
1000
0000
0000
,
0001
0000
0010
0000
1000
0100
0000
0000
0001
0000
0001
1000
0000
1000
0100
0001
,
0010
0100
1000
0001
0010
0100
1000
0001
0000
0001
0100
0001
1010
0000
0101
0000
,
0001
0000
0010
0000
1000
0100
0000
0000
0001
0000
0001
1000
0000
1000
0100
0001
,
0010
0100
1000
0001
0010
0100
1000
0001
0000
0001
0100
0001
1010
0000
0101
0000
,
1000
0000
0100
0000
0001
0010
0000
0000
1000
0000
1000
0001
0000
0001
0010
1000
,
0100
0010
0001
1000
0100
0010
0001
1000
0000
1000
0010
1000
0101
0000
1010
0000
,
1000
0000
0100
0000
0001
0010
0000
0000
1000
0000
1000
0001
0000
0001
0010
0100
,
1000
0010
1000
0001
2000
0000
0000
0000
0000
0000
0000
0000
0000
0000
0000
0000
,
3001
0000
0010
0000
1000
0100
0000
0000
0001
0000
0001
1000
0000
1000
0100
0000
,
0001
0000
0001
1000
0000
1000
0100
1000
1000
1000
1000
1000
1000
1000
1000
1000
,
0001
0000
0010
0000
1000
0100
0000
0000
0001
0000
0001
1000
0000
1000
0100
0000
,
0001
0010
0001
0010
1000
0010
1000
0010
0001
0010
0001
0010
1000
0100
1000
0100
,
1000
0000
0100
0000
0001
0010
0000
0000
1000
0000
1000
0001
0000
0001
0010
0000
,
1000
0000
1000
0001
0000
0001
0010
0001
0001
0001
0001
0001
0001
0001
0001
0001
,
1000
0000
0100
0000
0001
0010
0000
0000
1000
0000
1000
0001
0000
0001
0010
0000
,
1000
0100
1000
0100
0001
0100
0001
0100
1000
0100
1000
0100
0001
0010
0001
0010
,
0202
0000
0000
0303
2020
0000
0000
3030
,
0100
0000
0000
0000
1000
0100
0010
0000
1000
0100
0010
0100
0020
0000
0030
0000
,
2200
0000
0000
3300
0022
0000
0000
0033
,
1000
0100
1000
0010
1000
0001
1000
0010
1000
0100
1000
0010
1000
0001
1000
0010
,
0202
0000
0000
0303
2020
0000
0000
3030
,
0002
0000
0000
1003
0020
0000
0000
0031
0200
0000
0000
0310
2000
0000
0000
3000
,
2200
0000
0000
3300
0022
0000
0000
0033
,
1000
0100
0010
0001
1000
0010
0100
0001
1000
0100
0010
0001
1000
0010
0100
0010
,
1001
0000
0010
0010
1001
0000
0010
0010
,
0101
0000
0000
1100
0000
0000
1010
0000
0000
0011
0000
0000
0110
0000
0000
0000
,
1001
0000
0100
0100
1001
0000
0100
0100
,
1010
0000
0000
0110
0000
0000
0101
0000
0000
1100
0000
0000
0011
0000
0000
0000
,
1000
1000
1000
1000
0100
0100
0100
0100
0010
0010
0010
0010
0001
0001
0001
0001
,
0110
0000
1000
1000
0110
0000
1000
1000
,
0001
0001
0001
0001
0010
0010
0010
0010
0100
0100
0100
0100
2000
0000
0000
0000
,
3101
0000
0000
1100
0000
0000
1010
0000
0000
0011
0000
0000
0110
0000
1001
0000
,
1100
0010
0001
0010
0101
0000
1010
0000
0100
0000
0001
0000
0100
0000
0010
0000
,
0000
0000
1100
0011
1000
0100
0010
0000
,
1100
0000
0000
1010
0000
0000
1010
0000
0011
0000
0000
0101
0000
0000
0101
0000
,
0110
0000
0000
1100
0000
0000
1100
0000
1001
0000
0000
0011
0000
0000
0011
0000
,
1000
0100
1000
0010
0101
0000
1010
0000
0001
0000
0100
0000
0010
0000
0000
0000
,
0000
0000
1100
0011
1000
0010
0100
0001
,
1100
0000
0000
1010
0000
0000
1010
0000
0011
0000
0000
0101
0000
0000
0101
0000
,
0110
0000
0000
1100
0000
0000
1100
0000
1001
0000
0100
0010
0001
0000
0001
0010
,
0001
0000
0010
0000
1000
0100
0000
0000
0001
0000
0001
1000
0000
1000
0100
0000
,
0001
0000
0001
1000
0000
1000
0100
1000
1000
1000
1000
1000
1000
1000
1000
1000
,
0001
0000
0010
0000
1000
0100
0000
0000
0001
0000
0001
1000
0000
1000
0100
0000
,
0001
0010
0001
0010
1000
0010
1000
0010
0001
0010
0001
0010
1000
0100
1000
0100
,
1000
0000
0100
0000
0001
0010
0000
0000
1000
0000
1000
0001
0000
0001
0010
0000
,
1000
0000
1000
0001
0000
0001
0010
0001
0001
0001
0001
0001
0001
0001
0001
0001
,
1000
0000
0100
0000
0001
0010
0000
0000
1000
0000
1000
0001
0000
0001
0010
0000
,
1000
0100
1000
0100
0001
0100
0001
0100
1000
0100
1000
0100
0001
0010
0001
0010
,
0202
0000
0000
0303
2020
0000
0000
3030
,
0100
0000
0000
0000
1000
0100
0010
0000
1000
0100
0010
0100
0020
0000
0030
0000
,
2200
0000
0000
3300
0022
0000
0000
0033
,
1000
0100
1000
0010
1000
0001
1000
0010
1000
0100
1000
0010
1000
0001
1000
0010
,
0202
0000
0000
0303
2020
0000
0000
3030
,
0002
0000
0000
1003
0020
0000
0000
0031
0200
0000
0000
0310
2000
0000
0000
3000
,
2200
0000
0000
3300
0022
0000
0000
0033
,
1100
0000
0000
0001
0001
0001
0010
0010
0010
0100
0100
0100
,
1100
0000
0000
1100
1100
1100
1100
0000
0000
1100
1100
1100
,
1010
0000
0000
1010
1010
1010
1010
0000
0000
0110
0110
0110
,
1100
0000
0000
1100
1100
1100
1100
0000
0000
1000
0100
0010
,
0001
1000
0001
1000
0001
1000
0001
1000
0001
1000
0001
1000
,
0011
0000
0000
0011
0011
0011
0011
0000
0000
0011
0011
0011
,
0101
0000
0000
0101
0101
0101
0101
0000
0000
0110
0110
0110
,
0011
0000
0000
0011
0011
0011
0011
0000
0000
0001
0010
0100
,
0110
0000
0000
1000
0000
0000
0110
0000
0000
1000
0000
0000
0110
0000
0000
1000
0000
0000
0110
0000
0100
0000
0010
0000
,
0001
0001
0001
1000
0010
0100
0002
0000
0000
0000
0000
0000
,
1003
0010
0100
0001
0100
0010
2000
0000
0000
0000
0000
0000
,
3001
0010
1000
0200
0000
0000
1300
0100
0001
0020
0000
0000
,
1030
0100
0010
0001
0010
0100
1000
0010
0100
0001
0100
0010
,
2000
0000
0000
3010
0100
0001
0020
0000
0000
1030
0100
0010
,
0002
0000
0203
0000
0320
0000
1030
1000
1000
1000
1000
1000
,
0110
0110
0110
0110
1010
0101
0011
0011
0011
0011
0110
1100
,
0002
0000
0100
0000
0000
0000
0100
0000
0000
0000
0100
0000
1000
0010
0000
0000
,
1000
0100
0010
0100
1000
0100
0010
0100
1000
0010
0100
0010
1000
0000
0100
0010
,
1003
0100
1000
0100
0001
0010
0001
0010
1000
0100
1000
0100
0010
0100
0010
0100
,
1000
0100
1000
0100
0001
0010
0001
0010
1000
0100
0001
0010
2000
0000
0000
0000
,
3001
0010
0001
0010
1000
0100
1000
0100
0001
0010
0001
0010
0100
0010
0100
0010
,
0001
0010
0001
0010
1000
0100
1000
0100
0001
0010
1000
0100
0002
0000
0000
0000
,
1003
0100
0010
0100
0001
0010
0100
0010
1000
0100
0010
0100
0010
1000
0010
0100
,
1000
0100
0010
0100
0001
0010
0100
0010
1000
0100
0001
0010
2000
0000
0000
0000
,
3001
0010
0100
0010
1000
0100
0010
0100
0001
0010
0100
0010
0100
0001
0100
0010
,
0001
0010
0100
0010
1000
0100
0010
0100
0001
0010
1000
0100
0002
0000
0000
0000
,
1003
0010
0100
1000
0001
0100
0010
0001
1000
0010
0100
1000
0010
0100
0010
0100
,
1000
0010
0100
1000
0001
0100
0010
0001
1000
0010
0001
0100
2000
0000
0000
0000
,
3001
0100
0010
0001
1000
0010
0100
1000
0001
0100
0010
0001
0100
0010
0100
0010
,
0001
0100
0010
0001
1000
0010
0100
1000
0001
0100
1000
0010
0002
0000
0000
0000
,
1003
0100
0010
0001
1000
0100
0010
0001
1000
0100
0010
0001
1000
0010
0100
0010
,
0001
0000
0000
0100
0000
0000
0010
0000
0000
1000
0000
0000
0001
0000
0000
0100
0000
0000
0010
0000
0000
1000
0000
0000
0001
0000
0100
0000
1000
0000
0010
0000
1000
0000
0100
0000
0001
0000
0000
0000
0000
0000
0000
0000
0000
0000
0000
0000
,
1000
0100
1000
0100
1000
0100
2000
0000
0000
0000
0000
0000
3001
0010
0001
0010
0001
0010
0002
0000
0000
0000
0000
0000
,
0013
1000
0010
1000
0010
1000
0100
0001
0100
0001
0100
0001
0010
0100
0010
0100
0010
0100
0020
0000
0000
0000
0000
0000
,
0031
0100
0010
1000
0010
0100
0001
0010
1000
0100
0010
1000
0100
0010
0001
0010
,
1000
0010
0001
0010
0100
0010
0001
1000
0001
0010
0100
0010
1000
0100
0010
0100
,
0001
0010
0100
2000
0000
0000
3000
0000
1000
0100
0010
0002
0000
0000
0003
0000
,
1000
0100
0010
0200
0000
0000
0300
0000
0001
0010
0100
0020
0000
0000
0030
0000
,
2000
0000
0000
0200
0000
0000
3310
0000
0002
0000
0000
0020
0000
0000
0033
0000
,
1000
0100
0010
0001
1000
0010
0100
0001
1000
0100
0000
0100
0010
0000
0000
0000
,
0100
0010
0100
0002
0000
0000
0003
0000
0010
0100
0010
2000
0000
0000
3000
0000
,
0001
0010
0100
0010
1000
0100
0010
0100
0001
1000
0010
0002
0000
0000
0003
0000
,
0010
0100
0001
0200
0000
0000
0300
0000
0100
0010
1000
0020
0000
0000
0030
0000
,
2000
0000
3001
0010
0100
1000
0100
0010
0001
0000
1000
0100
0010
0001
0010
0100
,
1000
0100
0010
0100
0001
0010
0100
0010
1000
0010
1000
0100
0001
0100
0001
0010
,
1000
0100
0001
0010
0001
0010
1000
0100
0001
0010
1000
0010
0001
0100
0010
0100
,
1000
0100
0010
0002
0000
0000
0003
0000
0001
0010
0100
2000
0000
0000
3000
0000
,
1001
0101
0110
1100
,
1001
0101
0110
1100
,
1001
0000
0000
0000
,
0100
0000
0100
0010
0000
0010
1000
0000
1000
0000
0001
0010
0000
0001
1000
0000
,
0000
0000
0000
0000
,
0100
0000
0100
0010
0000
0010
1000
0000
1000
0000
0001
0010
0000
0001
1000
0010
,
0101
0000
1000
1000
0101
0000
1000
1000
,
0011
0000
0000
1010
0000
0000
1100
0000
0000
0101
0000
0000
0110
0000
0000
0000
,
0101
0000
0010
0010
0101
0000
0010
0010
,
1001
0000
0000
0110
0000
0000
0101
0000
0000
1100
0000
0000
0011
0000
0000
0000
,
1000
1000
1000
1000
0100
0100
0100
0100
0010
0010
0010
0010
0001
0001
0001
0001
,
1100
0000
0010
0010
1100
0000
0010
0010
,
0001
0001
0001
0001
0010
0010
0010
0010
0100
0100
0100
0100
2000
0000
0000
0000
,
3101
0000
0000
1100
0000
0000
1010
0000
0000
0010
0100
0010
1000
0001
1000
0001
,
1100
0010
0001
0010
0101
0000
1010
0000
0100
0000
0001
0000
0100
0000
0010
0000
,
0000
0000
1100
0011
1000
0100
0010
0000
,
1100
0000
0000
1010
0000
0000
1010
0000
0011
0000
0000
0101
0000
0000
0101
0000
,
0110
0000
0000
1100
0000
0000
1100
0000
1001
0000
0000
0011
0000
0000
0011
0000
,
1000
0100
1000
0010
0101
0000
1010
0000
0001
0000
0100
0000
0010
0000
0000
0000
,
0000
0000
1100
0011
1000
0010
0100
0001
,
1100
0000
0000
1010
0000
0000
1010
0000
0011
0000
0000
0101
0000
0000
0101
0000
,
0110
0000
0000
1100
0000
0000
1100
0000
1001
0000
0100
0010
0001
0000
0001
0010
,
0100
1000
0010
1000
0101
0000
1010
0000
0001
0000
0010
0000
0001
0000
0100
0000
,
0000
0000
1100
0011
0100
0001
1000
0000
,
1100
0000
0000
1010
0000
0000
1010
0000
0011
0000
0000
0101
0000
0000
0101
0000
,
0110
0000
0000
1100
0000
0000
1100
0000
1001
0000
0000
0011
0000
0000
0011
0000
,
1000
0100
1000
0010
0101
0000
1010
0000
0100
0000
0010
0000
0001
0000
0000
0000
,
0000
0000
1100
0011
1000
0010
0100
0001
,
1100
0000
0000
1010
0000
0000
1010
0000
0011
0000
0000
0101
0000
0000
0101
0000
,
0110
0000
0000
1100
0000
0000
1100
0000
1001
0000
0000
0011
0000
0000
0011
0000
,
1000
1000
1000
1000
0101
0000
1010
0000
1000
0001
1000
0001
1000
0001
1000
0001
,
1100
0101
1001
0011
1010
0000
0000
0000
;

//---------------dance-single - Copied from Copied f----------------
#NOTES:
     dance-single:
     Copied from Copied f:
     Beginner:
     10:
     0.916,0.953,0.935,0.317,1.000,1302.000,236.000,80.000,0.000,3.000:
0000
0000
0000
0000
,
0000
0000
0000
0000
0000
0000
0000
0000
0000
0000
0000
0000
0000
0000
0000
0000
0000
0000
0000
0000
0000
0001
0010
0100
,
1000
0000
0000
0000
,
0000
0000
0000
0000
,
1000
0100
0001
0100
1000
0100
0001
0100
0001
0010
1000
0010
0001
0010
1000
0010
,
1000
0010
0100
0010
1000
0010
0100
0010
0001
0100
0010
0100
0001
0100
0010
0100
,
1000
0100
0010
0001
0010
0100
1000
0100
0001
0010
0100
1000
0100
0010
0001
0010
,
1100
0000
0000
0000
0000
0000
1000
0000
0100
0000
0010
0000
0001
0000
0000
0000
0000
0000
1100
0000
0000
0000
0000
0000
0000
0000
0000
0010
0000
0000
1100
0000
0000
0000
0000
0000
0001
0000
0010
0000
0001
0000
0010
0000
0000
1000
0000
0000
,
0001
0000
0010
0000
1000
0100
0000
0000
0001
0000
0001
1000
0000
1000
0100
0001
,
0010
0100
1000
0001
0010
0100
1000
0001
0000
0001
0100
0001
1010
0000
0101
0000
,
0001
0000
0010
0000
1000
0100
0000
0000
0001
0000
0001
1000
0000
1000
0100
0001
,
0010
0100
1000
0001
0010
0100
1000
0001
0000
0001
0100
0001
1010
0000
0101
0000
,
1000
0000
0100
0000
0001
0010
0000
0000
1000
0000
1000
0001
0000
0001
0010
1000
,
0100
0010
0001
1000
0100
0010
0001
1000
0000
1000
0010
1000
0101
0000
1010
0000
,
1000
0000
0100
0000
0001
0010
0000
0000
1000
0000
1000
0001
0000
0001
0010
0100
,
1000
0010
1000
0001
2000
0000
0000
0000
0000
0000
0000
0000
0000
0000
0000
0000
,
3001
0000
0010
0000
1000
0100
0000
0000
0001
0000
0001
1000
0000
1000
0100
0000
,
0001
0000
0001
1000
0000
1000
0100
1000
1000
1000
1000
1000
1000
1000
1000
1000
,
0001
0000
0010
0000
1000
0100
0000
0000
0001
0000
0001
1000
0000
1000
0100
0000
,
0001
0010
0001
0010
1000
0010
1000
0010
0001
0010
0001
0010
1000
0100
1000
0100
,
1000
0000
0100
0000
0001
0010
0000
0000
1000
0000
1000
0001
0000
0001
0010
0000
,
1000
0000
1000
0001
0000
0001
0010
0001
0001
0001
0001
0001
0001
0001
0001
0001
,
1000
0000
0100
0000
0001
0010
0000
0000
1000
0000
1000
0001
0000
0001
0010
0000
,
1000
0100
1000
0100
0001
0100
0001
0100
1000
0100
1000
0100
0001
0010
0001
0010
,
0202
0000
0000
0303
2020
0000
0000
3030
,
0100
0000
0000
0000
1000
0100
0010
0000
1000
0100
0010
0100
0020
0000
0030
0000
,
2200
0000
0000
3300
0022
0000
0000
0033
,
1000
0100
1000
0010
1000
0001
1000
0010
1000
0100
1000
0010
1000
0001
1000
0010
,
0202
0000
0000
0303
2020
0000
0000
3030
,
0002
0000
0000
1003
0020
0000
0000
0031
0200
0000
0000
0310
2000
0000
0000
3000
,
2200
0000
0000
3300
0022
0000
0000
0033
,
1000
0100
0010
0001
1000
0010
0100
0001
1000
0100
0010
0001
1000
0010
0100
0010
,
1001
0000
0010
0010
1001
0000
0010
0010
,
0101
0000
0000
1100
0000
0000
1010
0000
0000
0011
0000
0000
0110
0000
0000
0000
,
1001
0000
0100
0100
1001
0000
0100
0100
,
1010
0000
0000
0110
0000
0000
0101
0000
0000
1100
0000
0000
0011
0000
0000
0000
,
1000
1000
1000
1000
0100
0100
0100
0100
0010
0010
0010
0010
0001
0001
0001
0001
,
0110
0000
1000
1000
0110
0000
1000
1000
,
0001
0001
0001
0001
0010
0010
0010
0010
0100
0100
0100
0100
2000
0000
0000
0000
,
3101
0000
0000
1100
0000
0000
1010
0000
0000
0011
0000
0000
0110
0000
1001
0000
,
1100
0010
0001
0010
0101
0000
1010
0000
0100
0000
0001
0000
0100
0000
0010
0000
,
0000
0000
1100
0011
1000
0100
0010
0000
,
1100
0000
0000
1010
0000
0000
1010
0000
0011
0000
0000
0101
0000
0000
0101
0000
,
0110
0000
0000
1100
0000
0000
1100
0000
1001
0000
0000
0011
0000
0000
0011
0000
,
1000
0100
1000
0010
0101
0000
1010
0000
0001
0000
0100
0000
0010
0000
0000
0000
,
0000
0000
1100
0011
1000
0010
0100
0001
,
1100
0000
0000
1010
0000
0000
1010
0000
0011
0000
0000
0101
0000
0000
0101
0000
,
0110
0000
0000
1100
0000
0000
1100
0000
1001
0000
0100
0010
0001
0000
0001
0010
,
0001
0000
0010
0000
1000
0100
0000
0000
0001
0000
0001
1000
0000
1000
0100
0000
,
0001
0000
0001
1000
0000
1000
0100
1000
1000
1000
1000
1000
1000
1000
1000
1000
,
0001
0000
0010
0000
1000
0100
0000
0000
0001
0000
0001
1000
0000
1000
0100
0000
,
0001
0010
0001
0010
1000
0010
1000
0010
0001
0010
0001
0010
1000
0100
1000
0100
,
1000
0000
0100
0000
0001
0010
0000
0000
1000
0000
1000
0001
0000
0001
0010
0000
,
1000
0000
1000
0001
0000
0001
0010
0001
0001
0001
0001
0001
0001
0001
0001
0001
,
1000
0000
0100
0000
0001
0010
0000
0000
1000
0000
1000
0001
0000
0001
0010
0000
,
1000
0100
1000
0100
0001
0100
0001
0100
1000
0100
1000
0100
0001
0010
0001
0010
,
0202
0000
0000
0303
2020
0000
0000
3030
,
0100
0000
0000
0000
1000
0100
0010
0000
1000
0100
0010
0100
0020
0000
0030
0000
,
2200
0000
0000
3300
0022
0000
0000
0033
,
1000
0100
1000
0010
1000
0001
1000
0010
1000
0100
1000
0010
1000
0001
1000
0010
,
0202
0000
0000
0303
2020
0000
0000
3030
,
0002
0000
0000
1003
0020
0000
0000
0031
0200
0000
0000
0310
2000
0000
0000
3000
,
2200
0000
0000
3300
0022
0000
0000
0033
,
1100
0000
0000
0001
0001
0001
0010
0010
0010
0100
0100
0100
,
1100
0000
0000
1100
1100
1100
1100
0000
0000
1100
1100
1100
,
1010
0000
0000
1010
1010
1010
1010
0000
0000
0110
0110
0110
,
1100
0000
0000
1100
1100
1100
1100
0000
0000
1000
0100
0010
,
0001
1000
0001
1000
0001
1000
0001
1000
0001
1000
0001
1000
,
0011
0000
0000
0011
0011
0011
0011
0000
0000
0011
0011
0011
,
0101
0000
0000
0101
0101
0101
0101
0000
0000
0110
0110
0110
,
0011
0000
0000
0011
0011
0011
0011
0000
0000
0001
0010
0100
,
0110
0000
0000
1000
0000
0000
0110
0000
0000
1000
0000
0000
0110
0000
0000
1000
0000
0000
0110
0000
0100
0000
0010
0000
,
0001
0001
0001
1000
0010
0100
0002
0000
0000
0000
0000
0000
,
1003
0010
0100
0001
0100
0010
2000
0000
0000
0000
0000
0000
,
3001
0010
1000
0200
0000
0000
1300
0100
0001
0020
0000
0000
,
1030
0100
0010
0001
0010
0100
1000
0010
0100
0001
0100
0010
,
2000
0000
0000
3010
0100
0001
0020
0000
0000
1030
0100
0010
,
0002
0000
0203
0000
0320
0000
1030
1000
1000
1000
1000
1000
,
0110
0110
0110
0110
1010
0101
0011
0011
0011
0011
0110
1100
,
0002
0000
0100
0000
0000
0000
0100
0000
0000
0000
0100
0000
1000
0010
0000
0000
,
1000
0100
0010
0100
1000
0100
0010
0100
1000
0010
0100
0010
1000
0000
0100
0010
,
1003
0100
1000
0100
0001
0010
0001
0010
1000
0100
1000
0100
0010
0100
0010
0100
,
1000
0100
1000
0100
0001
0010
0001
0010
1000
0100
0001
0010
2000
0000
0000
0000
,
3001
0010
0001
0010
1000
0100
1000
0100
0001
0010
0001
0010
0100
0010
0100
0010
,
0001
0010
0001
0010
1000
0100
1000
0100
0001
0010
1000
0100
0002
0000
0000
0000
,
1003
0100
0010
0100
0001
0010
0100
0010
1000
0100
0010
0100
0010
1000
0010
0100
,
1000
0100
0010
0100
0001
0010
0100
0010
1000
0100
0001
0010
2000
0000
0000
0000
,
3001
0010
0100
0010
1000
0100
0010
0100
0001
0010
0100
0010
0100
0001
0100
0010
,
0001
0010
0100
0010
1000
0100
0010
0100
0001
0010
1000
0100
0002
0000
0000
0000
,
1003
0010
0100
1000
0001
0100
0010
0001
1000
0010
0100
1000
0010
0100
0010
0100
,
1000
0010
0100
1000
0001
0100
0010
0001
1000
0010
0001
0100
2000
0000
0000
0000
,
3001
0100
0010
0001
1000
0010
0100
1000
0001
0100
0010
0001
0100
0010
0100
0010
,
0001
0100
0010
0001
1000
0010
0100
1000
0001
0100
1000
0010
0002
0000
0000
0000
,
1003
0100
0010
0001
1000
0100
0010
0001
1000
0100
0010
0001
1000
0010
0100
0010
,
0001
0100
0010
1000
0001
0100
0010
1000
0001
0000
0000
0000
0110
0000
0000
0000
,
1000
2000
3001
0002
,
0013
0100
0010
0020
,
0031
0100
0010
1000
0010
0100
0001
0010
1000
0100
0010
1000
0100
0010
0001
0010
,
1000
0010
0001
0010
0100
0010
0001
1000
0001
0010
0100
0010
1000
0100
0010
0100
,
0001
0010
0100
2000
0000
0000
3000
0000
1000
0100
0010
0002
0000
0000
0003
0000
,
1000
0100
0010
0200
0000
0000
0300
0000
0001
0010
0100
0020
0000
0000
0030
0000
,
2000
0000
0000
0200
0000
0000
3310
0000
0002
0000
0000
0020
0000
0000
0033
0000
,
1000
0100
0010
0001
1000
0010
0100
0001
1000
0100
0000
0100
0010
0000
0000
0000
,
0100
0010
0100
0002
0000
0000
0003
0000
0010
0100
0010
2000
0000
0000
3000
0000
,
0001
0010
0100
0010
1000
0100
0010
0100
0001
1000
0010
0002
0000
0000
0003
0000
,
0010
0100
0001
0200
0000
0000
0300
0000
0100
0010
1000
0020
0000
0000
0030
0000
,
2000
0000
3001
0010
0100
1000
0100
0010
0001
0000
1000
0100
0010
0001
0010
0100
,
1000
0100
0010
0100
0001
0010
0100
0010
1000
0010
1000
0100
0001
0100
0001
0010
,
1000
0100
0001
0010
0001
0010
1000
0100
0001
0010
1000
0010
0001
0100
0010
0100
,
1000
0100
0010
0002
0000
0000
0003
0000
0001
0010
0100
2000
0000
0000
3000
0000
,
1001
0101
0110
1100
,
1001
0101
0110
1100
,
1001
0000
0000
0000
,
0100
0000
0100
0010
0000
0010
1000
0000
1000
0000
0001
0010
0000
0001
1000
0000
,
0000
0000
0000
0000
,
0100
0000
0100
0010
0000
0010
1000
0000
1000
0000
0001
0010
0000
0001
1000
0010
,
0101
0000
1000
1000
0101
0000
1000
1000
,
0011
0000
0000
1010
0000
0000
1100
0000
0000
0101
0000
0000
0110
0000
0000
0000
,
0101
0000
0010
0010
0101
0000
0010
0010
,
1001
0000
0000
0110
0000
0000
0101
0000
0000
1100
0000
0000
0011
0000
0000
0000
,
1000
1000
1000
1000
0100
0100
0100
0100
0010
0010
0010
0010
0001
0001
0001
0001
,
1100
0000
0010
0010
1100
0000
0010
0010
,
0001
0001
0001
0001
0010
0010
0010
0010
0100
0100
0100
0100
2000
0000
0000
0000
,
3101
0000
0000
1100
0000
0000
1010
0000
0000
0010
0100
0010
1000
0001
1000
0001
,
1100
0010
0001
0010
0101
0000
1010
0000
0100
0000
0001
0000
0100
0000
0010
0000
,
0000
0000
1100
0011
1000
0100
0010
0000
,
1100
0000
0000
1010
0000
0000
1010
0000
0011
0000
0000
0101
0000
0000
0101
0000
,
0110
0000
0000
1100
0000
0000
1100
0000
1001
0000
0000
0011
0000
0000
0011
0000
,
1000
0100
1000
0010
0101
0000
1010
0000
0001
0000
0100
0000
0010
0000
0000
0000
,
0000
0000
1100
0011
1000
0010
0100
0001
,
1100
0000
0000
1010
0000
0000
1010
0000
0011
0000
0000
0101
0000
0000
0101
0000
,
0110
0000
0000
1100
0000
0000
1100
0000
1001
0000
0100
0010
0001
0000
0001
0010
,
0100
1000
0010
1000
0101
0000
1010
0000
0001
0000
0010
0000
0001
0000
0100
0000
,
0000
0000
1100
0011
0100
0001
1000
0000
,
1100
0000
0000
1010
0000
0000
1010
0000
0011
0000
0000
0101
0000
0000
0101
0000
,
0110
0000
0000
1100
0000
0000
1100
0000
1001
0000
0000
0011
0000
0000
0011
0000
,
1000
0100
1000
0010
0101
0000
1010
0000
0100
0000
0010
0000
0001
0000
0000
0000
,
0000
0000
1100
0011
1000
0010
0100
0001
,
1100
0000
0000
1010
0000
0000
1010
0000
0011
0000
0000
0101
0000
0000
0101
0000
,
0110
0000
0000
1100
0000
0000
1100
0000
1001
0000
0000
0011
0000
0000
0011
0000
,
1000
1000
1000
1000
0101
0000
1010
0000
1000
0001
1000
0001
1000
0001
1000
0001
,
1100
0101
1001
0011
1010
0000
0000
0000
;
