#TITLE:Beethoven Virus;
#SUBTITLE:;
#ARTIST:Banya;
#TITLETRANSLIT:;
#SUBTITLETRANSLIT:;
#ARTISTTRANSLIT:;
#CREDIT:;
#BANNER:beethovenVirus.png;
#BACKGROUND:beethovenVirus-bg.png;
#LYRICSPATH:;
#CDTITLE:!udderTitle.png;
#MUSIC:beethovenVirus.mp3;
#OFFSET:-4.628;
#SAMPLESTART:41.479;
#SAMPLELENGTH:15.500;
#SELECTABLE:YES;
#BPMS:0.000=162.000;
#STOPS:;
#BGCHANGES:;
// cache tags:
#FIRSTBEAT:2.500;
#LASTBEAT:251.000;
#SONGFILENAME:Songs/dragon force/Beethoven Virus/beethovenVirus.sm;
#HASMUSIC:1;
#HASBANNER:1;
#MUSICLENGTH:100.184;
// end cache tags

//---------------dance-single - ----------------
#NOTES:
     dance-single:
     :
     Easy:
     5:
     0.352,0.407,0.469,0.040,0.000,196.000,47.000,4.000,0.000,0.000:
0000
0000
0000
0100
,
0001
0000
1001
0000
,
0100
0011
0001
0010
,
0010
1100
0011
0101
,
1000
0000
1001
0100
,
0001
0000
1010
1000
,
0010
0000
0101
0001
,
0100
0000
1001
0000
,
0100
1001
0000
0001
,
0100
0000
1001
0000
,
0010
0101
0001
0100
,
0100
1010
1100
0011
,
1000
0000
1001
0100
,
1000
0000
0011
1000
,
1000
0000
0101
0001
,
0001
0000
1001
0000
,
0010
1001
0000
0100
,
0010
0001
0100
0010
,
1000
0100
0010
0000
,
0100
0010
0100
0010
,
1000
0001
0010
0000
,
1000
0010
0100
0001
,
1000
0010
0100
0000
,
0010
0100
0010
0100
,
1000
0010
1000
0000
,
0010
0001
0100
0001
,
1000
0100
0010
0000
,
0100
0010
1000
0001
,
0010
0100
1000
0000
,
0100
0010
0100
0001
,
1000
0100
1000
0000
,
0100
1000
0100
0001
,
0220
0000
0000
0330
,
0001
0100
1000
0100
,
0001
0010
1000
0010
,
0001
0100
1000
0100
,
0001
0010
0100
0000
,
1000
0010
0001
0010
,
1000
0100
0001
0100
,
1000
0010
0001
0010
,
1001
0000
0000
0000
,
1100
0011
0001
1000
,
0001
0000
0100
0000
,
0100
0110
0001
0010
,
0010
0011
1100
1010
,
0001
0000
1001
0100
,
0010
0000
1010
1000
,
0010
0000
0011
0001
,
0010
0000
1001
0000
,
1000
1001
0000
1000
,
0010
0000
1001
0000
,
0010
0110
1000
0010
,
0010
0101
1010
1100
,
0001
0000
1001
0100
,
0010
0000
1010
1000
,
0010
0000
1010
1000
,
0100
0000
1001
0000
,
0100
1001
0000
0100
,
1000
0000
1001
1000
,
0100
0000
1001
0001
,
0100
0000
0110
0000
,
0010
0100
0001
0001
,
2002
0000
0000
3003
;

//---------------dance-single - ----------------
#NOTES:
     dance-single:
     :
     Medium:
     6:
     0.431,0.501,0.429,0.040,0.000,255.000,43.000,4.000,0.000,0.000:
0000
0000
0000
0000
0000
1000
0100
0010
,
0001
0000
0000
0100
0010
0000
0000
1000
,
0100
0000
0011
0000
0001
0100
0010
0100
,
0010
1100
0011
0101
,
1010
0000
0000
0000
1001
0000
0100
1000
,
0001
0000
0000
0000
1010
0000
1000
0100
,
0010
0000
0000
0000
0101
0000
0001
1000
,
0100
0000
0000
0001
0100
0000
0000
1000
,
0100
0000
1001
0000
0000
1000
0001
0010
,
0100
0000
0000
1000
0010
0000
0000
0100
,
0010
0000
0101
0000
0001
0010
0100
0010
,
0100
1010
1100
0011
,
0101
0000
0000
0000
1001
0000
0100
0010
,
1000
0000
0000
0000
0011
0000
1000
0100
,
1000
0000
0000
0000
0101
0000
0001
0010
,
0001
0000
0000
0010
0100
0000
0000
0001
,
0010
0000
1001
0000
0000
1000
0100
0010
,
0010
0001
0100
0010
,
1000
0100
0010
0001
,
0100
0010
0100
0010
,
1000
0001
0010
0100
,
1000
0010
0100
0001
,
1000
0010
0100
0001
,
0010
0100
0010
0100
,
1000
0010
1000
0001
,
0010
0001
0100
0001
,
1000
0100
0010
0001
,
0100
0010
1000
0001
,
0010
0100
1000
0001
,
0100
0010
0100
0001
,
1000
0100
1000
0001
,
0100
1000
0100
0001
,
0220
0000
0000
0330
,
0001
0100
1000
0100
,
0001
0010
1000
0010
,
0001
0100
1000
0100
,
0001
0010
0100
0000
,
1000
0010
0001
0010
,
1000
0100
0001
0100
,
1000
0010
0001
0010
,
1001
0000
0000
0000
,
1100
0000
0011
0000
0001
1000
0001
1000
,
0001
0000
0000
0001
0100
0000
0000
1000
,
0100
0000
0110
0000
0001
0100
0010
0100
,
0010
0011
1100
1010
,
0101
0000
0000
0000
1001
0000
0100
0001
,
0010
0000
0000
0000
1010
0000
1000
0001
,
0010
0000
0000
0000
0011
0000
0001
1000
,
0010
0000
0000
1000
0001
0000
0000
0001
,
1000
0000
1001
0000
0000
0010
1000
0100
,
0010
0000
0000
0001
0010
0000
0000
1000
,
0010
0000
0110
0000
1000
0100
0010
0100
,
0010
0101
1010
1100
,
0011
0000
0000
0000
1001
0000
0100
0001
,
0010
0000
0000
0000
1010
0000
1000
0100
,
0010
0000
0000
0000
1010
0000
1000
0001
,
0100
0000
0000
0001
0010
0000
0000
0001
,
0100
0000
1001
0000
0000
1000
0100
0001
,
1000
0000
0000
0000
1001
0000
1000
0001
,
0100
0000
0000
0000
1001
0000
0001
1000
,
0100
0000
0000
0100
0010
0000
0000
1000
,
0010
0100
0001
0001
,
2002
0000
0000
3003
;

//---------------dance-single - ----------------
#NOTES:
     dance-single:
     :
     Hard:
     9:
     0.712,0.783,0.519,0.020,0.165,445.000,52.000,2.000,0.000,0.000:
0000
0000
0000
0000
0000
1000
0100
0010
,
0001
0000
0101
0100
0010
0000
1010
1000
,
0100
0000
0000
0000
0011
0000
0000
0000
0001
0000
0100
0010
0100
0010
0100
0010
,
0100
1100
0011
0101
,
1010
1000
0010
0100
0001
0010
0100
1000
,
0001
0000
1000
0010
1010
0000
1000
0100
,
0010
0000
0001
0100
0101
0000
0001
1000
,
0100
0000
0011
0001
0100
0000
1001
1000
,
0100
0010
0001
0100
0010
1000
0001
0010
,
0100
0000
1001
1000
0010
0000
1100
0100
,
0010
0000
0000
0000
0101
0000
0000
0000
0001
0000
0010
0100
0010
0100
0010
0100
,
0010
1010
1100
0011
,
0101
0001
1000
0100
0010
0001
0100
0010
,
1000
0000
1000
0001
0011
0000
1000
0100
,
1000
0000
1000
0001
0101
0000
0001
0010
,
0001
0000
1010
0010
0100
0000
1001
0001
,
0010
0100
1000
0001
0100
0010
1000
0001
,
0010
0001
0100
0010
1000
0100
0010
0001
,
0100
0010
0100
0010
1000
0001
0010
0100
,
1000
0010
0100
0001
1000
0010
0100
0001
,
0010
0100
0010
0100
1000
0010
1000
0001
,
0010
0001
0100
0001
1000
0100
0010
0001
,
0100
0010
1000
0001
0010
0100
1000
0001
,
0100
0010
0100
0001
1000
0100
1000
0001
,
0100
0000
1000
0000
0100
0000
0001
0000
0010
0000
0100
0000
1000
0000
0001
0010
,
0001
0000
0000
0000
0000
0000
1000
0100
1000
0000
0010
0000
0100
0000
0001
0000
,
0010
0001
0010
0000
0100
0000
1000
0000
0010
1000
0010
0000
0100
0000
0001
0000
,
0010
0000
0000
0000
0000
0000
0001
0100
0001
0000
1000
0000
0100
0000
0010
0000
,
0001
0100
0001
0000
0010
0000
0100
0000
1000
0010
1000
0000
0100
0000
0010
0000
,
0001
0000
0000
0000
0000
0000
1000
0010
1000
0000
0100
0000
0010
0000
0001
0000
,
0100
0000
0010
0100
0010
0000
1000
0000
0001
0000
0010
0000
0100
0000
1000
0000
,
0010
0000
0000
0000
0000
0000
0100
0001
0100
0000
0001
0000
1000
0000
0100
0000
,
1000
0100
0010
0001
0010
0100
1000
0100
0010
0001
0010
0100
1000
0100
0010
0001
,
1000
0100
1000
0100
0001
0010
1000
0010
,
0001
0100
1000
0100
0001
0010
0100
0000
,
1000
0010
0001
0010
1000
0100
0001
0100
,
1000
0010
0001
0010
1000
0100
0010
0000
,
0100
1000
0100
0001
0100
0010
0100
0001
,
0100
1000
0100
0010
0001
0100
0010
0000
,
1000
0100
0001
0100
1000
0010
0100
0001
,
0010
0100
0010
0100
0010
0000
0000
0000
1001
0000
0000
0000
0000
0000
0000
0000
,
1100
0000
0011
0000
0101
0100
0010
1000
,
0100
0000
0011
0001
0100
0000
1010
1000
,
0100
0000
0000
0000
0110
0000
0000
0000
0001
0000
0100
0010
0100
0010
0100
0010
,
0100
0011
1100
1010
,
0101
0001
0010
0100
1000
0010
0100
0001
,
0010
0000
0100
1000
1010
0000
1000
0001
,
0010
0000
0001
0100
0011
0000
0001
1000
,
0010
0000
1100
1000
0001
0000
0101
0001
,
1000
0100
0010
0001
0100
0010
1000
0100
,
0010
0000
0101
0001
0010
0000
1100
1000
,
0010
0000
0000
0000
0110
0000
0000
0000
1000
0000
0100
0010
0100
0010
0100
0010
,
0100
0101
1010
1100
,
0011
0001
0010
0001
1000
0010
0100
0001
,
0010
0000
0001
0100
1010
0000
1000
0100
,
0010
0000
0001
0100
1010
0000
1000
0001
,
0100
0000
0011
0001
0010
0000
1001
0001
,
0100
1000
0100
0001
0100
1000
0100
0001
,
1000
0000
0100
0010
1001
0000
1000
0001
,
0100
0000
0100
0010
1001
0000
0001
1000
,
0100
0000
0110
0100
0010
0000
0001
1000
,
0010
0000
0100
0000
0001
0000
1000
0000
0100
0000
0010
0001
0010
0000
0000
0000
,
2002
0000
0000
3003
;
