#TITLE:Wouldn't Get Far;
#SUBTITLE:;
#ARTIST:The Game;
#TITLETRANSLIT:;
#SUBTITLETRANSLIT:;
#ARTISTTRANSLIT:;
#CREDIT:;
#BANNER:bn.png;
#BACKGROUND:bg.png;
#LYRICSPATH:;
#CDTITLE:bvcdtitle.png;
#MUSIC:The Game - The Doctor's Advocate - 08 - Wouldn't Get Far (Ft. Kanye West).mp3;
#OFFSET:-0.010;
#SAMPLESTART:56.000;
#SAMPLELENGTH:26.000;
#SELECTABLE:YES;
#BPMS:0.000=180.000;
#STOPS:;
#BGCHANGES:;
// cache tags:
#FIRSTBEAT:0.500;
#LASTBEAT:746.500;
#SONGFILENAME:Songs/toune/Wouldn't Get Far/WGF.sm;
#HASMUSIC:1;
#HASBANNER:1;
#MUSICLENGTH:251.115;
// end cache tags

//---------------dance-single - ----------------
#NOTES:
     dance-single:
     :
     Hard:
     1:
     0.648,0.669,0.693,0.311,0.000,887.000,174.000,78.000,0.000,7.000:  // measure 1
0000
1010
0000
0000
0000
1000
0010
0100
,  // measure 2
1000
0010
0100
1000
0100
1000
0000
1000
,  // measure 3
1100
0000
0100
0000
0000
0000
0000
0100
,  // measure 4
0100
0001
1100
0000
0000
0000
0000
1100
,  // measure 5
0000
0101
0000
0001
0010
0000
0000
0010
,  // measure 6
0100
0000
1100
0000
0000
0000
0000
1010
,  // measure 7
0000
0110
0101
0000
0000
0000
0101
0000
,  // measure 8
1000
0100
0101
0000
0000
0000
0000
1000
,  // measure 9
0100
1000
0000
1100
,  // measure 10
0101
0000
1100
0000
1000
1000
0010
0100
,  // measure 11
1000
0000
1000
0000
0100
0000
1000
0100
,  // measure 12
0000
0100
0001
0000
0011
0000
0000
0000
,  // measure 13
0010
0010
0100
0000
1000
0000
0100
0000
,  // measure 14
1000
0100
0001
0000
0101
0000
0100
0000
,  // measure 15
1000
0010
0100
0000
0010
0001
0010
0000
,  // measure 16
0100
1000
0100
0000
1100
0000
0100
0000
,  // measure 17
0010
0001
0010
0000
0100
0000
1000
0100
,  // measure 18
0000
1000
0100
0000
1100
0000
0100
0000
,  // measure 19
1100
0100
0001
0000
0010
0000
0001
0010
,  // measure 20
0000
0100
1000
0000
1010
0000
0100
0000
,  // measure 21
1000
0100
0001
0000
0010
0000
0001
0000
,  // measure 22
0010
0100
1000
0000
1100
0000
0100
0000
,  // measure 23
0101
0101
0000
1100
,  // measure 24
1100
1100
0000
0101
,  // measure 25
0011
0101
0000
1100
,  // measure 26
0101
0000
1100
0001
0000
0001
0010
0100
,  // measure 27
1000
0000
1000
0000
0100
0000
1000
0100
,  // measure 28
0000
1100
0000
1100
0000
0000
0000
0001
,  // measure 29
0001
0000
0010
0100
0000
0000
0000
1000
,  // measure 30
0000
1000
0100
1100
0000
0001
0000
0000
,  // measure 31
0010
0100
0000
1000
0100
0000
1000
0100
,  // measure 32
0000
1000
0100
0101
0000
0000
0000
0100
,  // measure 33
0100
0000
1000
1100
0000
0000
0101
0000
,  // measure 34
0000
0001
0010
0011
0000
0010
0100
0000
,  // measure 35
0100
1000
0000
1100
0000
0100
0001
0000
,  // measure 36
0100
0000
0001
1100
0000
0000
0000
0100
,  // measure 37
0100
0000
0010
0000
0001
0000
0100
1000
,  // measure 38
0100
1000
0000
1100
0000
0100
0000
0001
,  // measure 39
0000
0101
0000
0000
0000
0100
0000
1100
,  // measure 40
0000
1010
0000
0000
0000
1010
0000
0101
,  // measure 41
0000
0101
0000
0000
0000
1100
0000
0101
,  // measure 42
0000
1100
0000
1000
1000
0001
0010
0100
,  // measure 43
0000
0100
0000
1000
0000
0100
1000
0000
,  // measure 44
0100
1000
0000
0101
0000
0000
0200
1000
,  // measure 45
0000
2300
0010
0100
0000
3000
0100
0002
,  // measure 46
0000
0010
0000
0100
0000
1000
0003
2100
,  // measure 47
0100
0100
3000
0102
0000
1000
2003
0000
,  // measure 48
0010
0100
0000
0020
0000
3030
0001
0001
,  // measure 49
0000
0010
0100
0000
1000
0100
0000
0000
,  // measure 50
1100
0101
0000
2200
0000
0000
3300
1100
,  // measure 51
1000
0102
0000
0010
0000
0100
1000
0000
,  // measure 52
0010
0100
0000
2000
0000
3003
0100
2000
,  // measure 53
0000
0100
0010
0100
0000
3010
0002
0010
,  // measure 54
0000
0200
2300
0003
0000
3100
2000
0000
,  // measure 55
0000
0000
0000
3000
0000
1100
0202
0000
,  // measure 56
0000
0000
0000
0000
0303
1010
2000
0020
,  // measure 57
0000
0000
0000
0000
3030
0010
0002
0000
,  // measure 58
0010
0000
0200
0000
0000
0003
1300
1000
,  // measure 59
0100
0000
2000
0000
0000
0000
0010
0010
,  // measure 60
3002
0000
0020
0000
0000
0000
0033
0010
,  // measure 61
1100
1100
0100
0001
,  // measure 62
0010
0100
1000
0000
0000
0000
1100
0000
,  // measure 63
0001
0010
0001
0000
0000
0000
0010
0010
,  // measure 64
0100
1000
0000
0000
1100
0001
0000
0010
,  // measure 65
0100
1000
0000
0010
0000
0000
1010
0000
,  // measure 66
0100
0000
1000
0000
0000
0000
0100
1000
,  // measure 67
0010
0100
0010
0000
0001
0010
0000
0100
,  // measure 68
1000
0000
1100
0000
0000
0001
0001
0000
,  // measure 69
0100
0000
1100
0000
0001
0010
0000
0100
,  // measure 70
0010
1100
0100
0001
,  // measure 71
0101
0000
0100
1100
,  // measure 72
0101
0000
0000
0000
0200
0000
1000
0300
,  // measure 73
1100
0000
0000
0000
0200
0000
0001
0300
,  // measure 74
0101
0000
1000
1000
0100
1000
0100
0000
,  // measure 75
0010
0000
0100
0000
1000
0100
0000
0010
,  // measure 76
0100
0010
0000
0001
0000
0100
0100
1000
,  // measure 77
0000
1100
0000
0000
0001
0010
0100
1000
,  // measure 78
0000
1100
0000
0100
0000
0010
0000
0010
,  // measure 79
0100
0000
0110
0000
0000
1000
0000
1100
,  // measure 80
0000
1100
0000
0000
0000
0100
0100
0001
,  // measure 81
0000
0000
0010
0100
0000
1000
1100
0010
,  // measure 82
0100
0000
1000
1000
0000
0100
0000
0010
,  // measure 83
0001
0010
0100
0000
1000
1000
0100
1000
,  // measure 84
0100
0010
0001
0010
0000
0100
0100
1000
,  // measure 85
0100
0000
0010
0001
0010
0100
1000
0010
,  // measure 86
0000
1100
0010
0100
0000
1100
0000
0101
,  // measure 87
0000
0000
0000
0101
0000
1100
0000
1010
,  // measure 88
0000
0000
0000
1010
0000
0101
0000
1100
,  // measure 89
0000
0000
0000
1100
0000
0000
0110
0101
,  // measure 90
0000
0100
0001
0100
1000
0100
1000
0010
,  // measure 91
0000
0100
0000
1000
0000
0100
0000
1100
,  // measure 92
0000
1100
0000
0000
0001
0000
0010
0100
,  // measure 93
0010
0100
0000
0000
1000
0100
1000
0100
,  // measure 94
0000
0010
0000
0001
0010
0001
0010
0100
,  // measure 95
0000
1100
0000
0101
0101
0000
0100
2000
,  // measure 96
0000
0020
0000
0030
3010
0100
0000
2000
,  // measure 97
0100
0000
0010
3002
0000
0000
0010
0200
,  // measure 98
0000
0000
0000
0000
1303
1100
0002
0000
,  // measure 99
0100
0010
0000
0100
2000
0000
3010
0200
,  // measure 100
0000
2300
0000
0000
3003
1100
0002
0000
,  // measure 101
0010
0100
0000
2003
0000
0010
0100
0000
,  // measure 102
3010
0002
0000
0010
0000
0100
0000
2000
,  // measure 103
0000
0000
3003
1100
0000
0101
0000
2200
,  // measure 104
0000
0000
3300
1010
0000
2020
0000
3032
,  // measure 105
0000
0000
0000
0100
0000
2000
0000
0000
,  // measure 106
3020
0000
0030
0013
0000
0100
0100
1000
,  // measure 107
0000
1100
0000
0100
0010
0000
0001
0010
,  // measure 108
0000
0101
0000
0000
0000
0100
1000
1100
,  // measure 109
0000
0100
0000
0001
0010
0000
0001
0010
,  // measure 110
0001
0010
0000
0010
0100
1000
0100
1000
,  // measure 111
0000
1100
0000
0100
1010
0000
0100
1100
,  // measure 112
0000
0101
0100
0000
0001
0010
0000
0100
,  // measure 113
0100
0101
0000
0100
1100
0000
0101
0101
,  // measure 114
0000
0010
0001
0010
0100
1000
0010
0100
,  // measure 115
0000
0010
0000
0001
0010
0000
0100
1000
,  // measure 116
0000
0100
0000
0000
0010
0100
1000
0010
,  // measure 117
0100
0010
0001
0010
0100
1000
0100
1000
,  // measure 118
0100
0010
0001
0010
0101
0000
1100
0000
,  // measure 119
0000
1100
1010
0101
,  // measure 120
0000
0101
1100
0101
,  // measure 121
0000
0101
0110
1001
,  // measure 122
0010
0010
1000
0001
1000
0000
0010
0000
,  // measure 123
0100
0000
1000
0100
0000
1000
0100
0000
,  // measure 124
0101
0000
0000
0000
0010
0001
0010
0000
,  // measure 125
0001
0000
0010
0001
0000
0101
0100
1000
,  // measure 126
0000
1100
0010
0001
0010
0100
1000
0000
,  // measure 127
1010
0000
1010
1000
0000
1100
0100
0000
,  // measure 128
0002
0000
0000
0000
0010
0010
0100
0003
,  // measure 129
2100
0000
0100
0010
3000
0001
0010
0000
,  // measure 130
0101
0000
0100
1000
0100
1000
0010
0000
,  // measure 131
0100
0000
0100
1000
0000
0100
2000
0000
,  // measure 132
0002
0000
0000
3003
0001
0001
0010
0000
,  // measure 133
0200
0000
1000
1300
0000
0100
2000
0000
,  // measure 134
0010
0000
0100
3000
1010
0200
0002
0000
,  // measure 135
0000
0303
0101
0000
0200
0000
1000
0000
,  // measure 136
0300
0000
0200
0002
0300
0000
0010
0000
,  // measure 137
0000
0200
0000
2303
0000
0010
3000
0000
,  // measure 138
1010
1010
0100
1000
0010
0100
0010
0000
,  // measure 139
0001
0000
0100
0001
0000
0100
1000
1100
,  // measure 140
0000
0000
0001
0001
0010
0100
1000
0010
,  // measure 141
0100
0010
0100
0010
0100
1000
0010
0100
,  // measure 142
0010
0001
0010
0100
1000
1000
0100
1100
,  // measure 143
0000
0100
0101
0000
0000
0011
0010
0100
,  // measure 144
0000
0100
1000
0100
1000
0010
0100
0010
,  // measure 145
0001
0010
0100
0000
1000
0100
1000
0010
,  // measure 146
0001
0010
0100
1000
0000
1000
1010
0100
,  // measure 147
1100
0101
0100
0001
0010
0001
0010
0100
,  // measure 148
1000
0000
1000
0100
1000
0010
0001
0010
,  // measure 149
0100
1000
0010
0100
0010
0100
1000
0010
,  // measure 150
0100
0010
1000
0100
0010
0001
0010
1000
,  // measure 151
0100
0010
0001
0010
1000
0100
0010
0001
,  // measure 152
0010
1000
0100
0010
0001
1100
0000
0011
,  // measure 153
1000
0100
0010
0011
0000
0011
2200
0000
,  // measure 154
0000
0000
3300
0101
0000
0000
0000
0100
,  // measure 155
0100
1000
0100
0010
0000
0001
0000
0010
,  // measure 156
0000
0001
0000
0001
0000
0001
1000
0100
,  // measure 157
0000
1000
0100
0000
1000
0000
0000
0101
,  // measure 158
0000
0000
0000
0010
0010
0001
0000
0100
,  // measure 159
0000
0100
1000
0000
1100
0000
1100
0000
,  // measure 160
0000
0000
0000
0101
0100
0200
0000
2000
,  // measure 161
0300
0010
0100
0000
3010
0002
0000
0020
,  // measure 162
0000
0030
0100
0000
0100
2003
0000
0100
,  // measure 163
0000
3100
1000
0000
0100
0000
0000
0200
,  // measure 164
0000
0300
1100
0000
0002
0100
0000
0010
,  // measure 165
0000
0100
1003
0000
0100
2000
0000
0200
,  // measure 166
0000
0000
3300
1100
0000
1100
0000
1100
,  // measure 167
0000
0000
0010
0100
0000
0010
0011
0000
,  // measure 168
0011
0000
0012
0000
0020
0000
0030
0003
,  // measure 169
0001
0000
0012
0000
0020
0000
0000
0033
,  // measure 170
0010
0120
2030
0000
,  // measure 171
0001
3000
1002
0000
0010
0000
0100
0100
,  // measure 172
1000
0100
1003
0000
0010
0000
0100
0000
,  // measure 173
1000
0100
0000
1000
0000
0000
1100
0000
,  // measure 174
0000
0000
0100
0100
1000
0000
0010
0000
,  // measure 175
0100
0010
0000
0100
0010
0000
1001
0000
,  // measure 176
0001
0000
0100
0100
1000
0000
0010
0000
,  // measure 177
0100
1000
0000
0000
1100
0000
1100
0000
,  // measure 178
0000
0000
0101
0100
0010
0001
0000
0010
,  // measure 179
0100
0000
0000
1100
0101
0000
0010
0000
,  // measure 180
0000
0000
0010
0010
0100
0000
1000
0000
,  // measure 181
0100
1000
0000
0100
1000
0000
0101
0000
,  // measure 182
0000
0000
0010
0010
0001
0000
0010
0000
,  // measure 183
0100
1000
0000
0010
0100
0000
0010
0000
,  // measure 184
0010
0000
0010
0100
0010
0100
0010
0001
,  // measure 185
0010
0100
1000
0010
0100
0010
0100
1000
,  // measure 186
0010
0100
1000
0010
0100
1000
0010
0100
,  // measure 187
1000
0010
0001
0010
0100
1000
0000
0000
;
