#TITLE:Since 1983;
#SUBTITLE:Black-Matrix;
#ARTIST:S.S.H.;
#TITLETRANSLIT:;
#SUBTITLETRANSLIT:;
#ARTISTTRANSLIT:;
#CREDIT:DukAmok;
#BANNER:since1983bnml9.png;
#BACKGROUND:since1983bgfb7.png;
#LYRICSPATH:;
#CDTITLE:cdtitle.png;
#MUSIC:Since_1983.mp3;
#OFFSET:-0.210;
#SAMPLESTART:6.500;
#SAMPLELENGTH:29.440;
#SELECTABLE:YES;
#BPMS:0.000=152.000;
#STOPS:;
#BGCHANGES:;
// cache tags:
#FIRSTBEAT:0.000;
#LASTBEAT:430.500;
#SONGFILENAME:Songs/Astronomic Metal Collection 2/(cetaka) Since 1983/Since_1983.sm;
#HASMUSIC:1;
#HASBANNER:1;
#MUSICLENGTH:172.028;
// end cache tags

//---------------dance-single - ----------------
#NOTES:
     dance-single:
     :
     Hard:
     14:
     1.000,1.000,1.000,0.227,1.000,1593.000,609.000,39.000,2.000,9.000:
1000
1000
0010
0100
1000
0001
1000
1000
0010
1000
1000
0001
,
1000
1000
0010
0100
1000
1000
0010
0100
1000
0001
1000
1000
,
0010
0000
0000
0000
1000
0000
0000
0000
1000
0000
0000
0000
1002
0000
0000
0003
0010
0000
0000
0000
0100
0000
0000
0000
0001
0000
0000
0000
0001
0000
0000
0000
0001
0000
0000
0000
1001
0000
0000
0000
0100
0000
0000
0000
1000
0000
0000
0000
,
0010
0010
0010
1010
0100
0010
0001
0001
0001
2001
0100
0012
,
3103
1000
1000
0011
1000
0101
1000
1000
1000
0101
1000
0110
,
1000
1000
1000
0011
1000
0101
1000
0001
0100
0101
1000
0010
,
1000
1000
1000
0011
1000
0101
1000
1000
1000
0101
1000
0110
,
1000
0000
0000
0000
1000
0000
0000
0000
1000
0000
0000
0000
0011
0000
0000
0000
1000
0000
0000
0000
0101
0000
0000
0000
1010
0000
0000
0001
0100
0000
0010
0000
0001
1000
0000
0000
0110
0000
0000
0001
1000
0000
0010
0000
0001
0100
0000
0000
,
1010
1000
1000
0011
1000
0101
1000
1000
1000
0101
1000
0110
,
1000
1000
1000
0011
1000
0101
0010
0001
0010
1010
0001
1000
,
0100
0100
0100
0011
0100
1001
0100
0100
0100
1001
0100
0011
,
1100
0000
1100
0000
1100
0000
0101
0000
1100
0000
1001
0000
1100
0010
1001
0000
0011
0000
1001
0010
0101
0000
0011
0000
,
1100
0100
1010
1001
0010
0101
1010
0100
0011
1001
0010
1100
,
0011
0100
1010
0011
1000
0110
1001
0010
0101
0011
0100
1010
,
0101
0010
1100
1001
0010
1100
0011
0100
0011
0101
0010
0100
,
1001
0010
0100
1000
0101
0010
1001
0010
0100
1000
0110
0001
1010
0100
0001
0100
0011
1000
0101
1000
0010
0100
0011
0100
,
1001
0010
1100
1001
0010
1100
0011
0100
1010
0011
0100
0011
,
1100
0010
0101
1001
0100
1010
0101
0010
1100
1001
0010
1100
,
0011
0100
1010
0110
0001
0110
1001
0100
1010
0011
1000
0110
,
1001
0000
0010
0100
0001
0000
1010
0000
0000
0001
0000
0000
1010
0000
0000
0100
0000
0000
0010
0000
0001
0100
0000
0000
1001
0000
0000
0100
1000
0000
0001
0000
0100
0010
0000
0000
1001
0000
0100
0010
1000
0000
0001
0000
0010
0100
0001
0000
,
1010
0000
0000
0000
0010
0000
0000
0000
1001
0000
0000
0000
0101
0000
0000
0000
0010
0000
0000
0000
0001
0000
0000
0000
0010
0000
0000
0100
0000
0000
0010
0000
1000
0001
0000
0000
0110
0000
0000
1000
0000
0000
0001
0000
0100
0010
0000
0000
,
1001
0000
0000
0000
0001
0000
0000
0000
1000
0000
0000
0000
1010
0000
0000
0000
0100
0000
0000
0000
0010
0000
0000
0000
0001
0000
0000
0010
0000
0000
0100
0000
1000
0010
0000
0000
0101
0000
0000
0000
0010
0000
0000
0000
0001
0000
0000
0000
,
1010
0000
0000
0001
0000
0000
0010
0000
0001
0100
0000
0000
1001
0000
0000
0000
0100
0000
0000
0000
0011
0000
0000
0000
1000
0000
0000
0100
1000
0000
0010
0000
0100
0001
0010
0000
1100
0000
0000
0000
1001
0000
0000
0000
0011
0000
0000
0000
,
0100
0000
0000
0001
0000
0000
1000
0000
0001
0100
0000
0000
1010
0000
0000
0000
0010
0000
0000
0000
0101
0000
0000
0000
1100
0000
0001
0000
1000
0000
0100
0000
0011
0000
0100
0000
1001
0000
0010
0000
1100
0000
0010
0000
1001
0000
0100
0000
,
1010
0010
0010
0101
1000
0011
1000
0100
1000
0101
1000
0011
,
0100
0100
0100
1010
0001
1010
0100
0001
1000
1100
0010
0100
,
1000
1000
1000
1001
1000
0110
0001
0001
0001
1001
0010
1100
,
0001
0001
0001
1001
0001
1010
0100
0010
0001
0101
1000
0100
,
0010
0001
1000
0011
1000
0110
1000
0001
0010
1100
0010
0101
,
1000
0010
0100
1010
0001
1010
0100
0010
1000
1001
0100
0010
,
1000
0100
1000
0101
0010
1001
0100
0010
0100
0011
1000
0101
,
0010
0000
0000
0000
0100
0000
0000
0000
1000
0000
0000
0000
0011
0000
0100
0000
1001
0000
0000
0000
0011
0000
0000
0000
1100
0000
0001
0000
1010
0000
0000
0000
0100
0000
0000
0000
1002
0000
0000
0003
0100
0000
0000
0000
0012
0000
0003
0000
,
1000
0010
0001
1010
0100
1001
0010
1000
0010
0101
0010
1001
,
0100
1000
0100
1010
0001
1100
0010
0100
0001
1001
0100
1000
,
1001
0010
0101
1000
0110
0000
1000
0000
0101
0000
1001
0000
0011
0100
1010
0000
0101
0000
1001
0000
0110
0000
0011
0000
,
1000
0000
0101
0010
0101
0000
1001
0000
0010
0000
0100
0000
1001
0000
0100
0000
0010
0000
0101
0000
0010
0000
1001
0000
,
0200
0000
0000
0000
0000
0000
0310
0000
0000
0000
0010
0001
1100
0011
0100
1000
0010
0100
1001
0010
0001
1010
0100
0010
,
1100
0010
0001
0010
1100
0010
1001
0100
0001
0110
1001
0100
1010
0001
1100
0010
1000
0001
0110
1000
0011
0100
1001
0100
,
0011
0000
1000
0000
0001
0000
0000
0000
0010
0000
0000
0000
0102
0000
0000
0003
1000
0000
0000
0000
0100
0000
0000
0000
1001
0000
0010
0000
0001
0000
0000
0000
1100
0000
0000
0000
1001
0000
0000
0000
0010
0000
0000
0000
0101
0000
0000
0000
,
1010
0000
2000
0001
3000
2000
0000
3000
0100
0011
0000
0000
,
0100
1000
0011
1001
0100
1001
0110
1000
0101
1001
0010
0101
,
1010
0100
0010
0100
1010
0001
0110
1000
0001
0010
1001
0100
1010
0100
0011
1000
0101
0010
1001
0010
0101
1010
0101
0000
,
0011
0000
0000
0000
0000
0000
0000
0000
1000
0000
0000
0000
0012
0000
0000
0003
0100
0000
0000
0000
0011
0000
0000
0000
1100
0000
0000
0001
0000
0000
0010
0000
0100
0001
0000
0000
1010
0000
0000
0100
0000
0000
0010
0000
1000
0001
0000
0000
,
0110
0000
0000
0001
0000
0000
0100
0000
0001
1000
0000
0000
0011
0000
0000
1000
0000
0000
0100
0000
0010
1000
0000
0000
0101
0000
0010
0000
0001
0000
0010
0000
0101
0000
1000
0000
0011
0000
0000
0000
0100
0000
0000
0000
0011
0000
0000
0000
,
1100
0001
1010
1001
0100
1010
0101
0010
0101
1001
0010
0001
,
0020
0000
0000
0000
0000
0000
0000
0000
0100
0000
0000
0000
1100
0000
0000
0000
0030
0000
0000
0000
0000
0010
0000
0000
1100
0000
0010
0001
1000
0000
0100
0000
0001
0010
0000
0000
0101
0000
0000
0010
1000
0000
0100
0000
0010
0001
0000
0000
,
1100
0000
0000
0000
0010
0000
0000
0000
1001
0000
0000
0000
1100
0000
0000
0000
0001
0000
0000
0000
1010
0000
0000
0000
0101
0000
0000
1000
0000
0000
0001
0000
0100
0010
0000
0000
1001
0000
0000
0010
0000
0000
1000
0000
0001
0100
0000
0000
,
1010
0000
0000
0000
0100
0000
0000
0000
1010
0000
0000
0000
1001
0000
0000
0000
0010
0000
0000
0000
1100
0000
0000
0000
0011
0000
0000
1000
0000
0000
0100
0000
0010
0001
0000
0000
1100
0000
0000
0010
0000
0000
1000
0000
0101
0010
0000
0000
,
1001
0000
0000
0000
0100
0000
0000
0000
1010
0000
0000
0000
0011
0000
0000
0000
0100
0000
0000
0000
1010
0000
0000
0000
0101
0000
0000
0010
0000
0000
1000
0000
0001
0100
0000
0000
0011
0000
0000
1000
0000
0000
0001
0000
0010
0100
0000
0000
,
1001
0000
0000
0000
0100
0000
0000
0000
0011
0000
0000
0000
1001
0000
0000
0000
0100
0000
0000
0000
1010
0000
0000
0000
0101
0000
0010
0000
0101
0000
0010
0000
1100
0000
0000
0000
1001
0000
0000
0010
0000
0000
0100
0000
1000
0001
0000
0000
,
1010
0000
0000
0000
0100
0000
0000
0000
1001
0000
0000
0000
0011
0000
0000
0000
1000
0000
0000
0000
0110
0000
0001
0000
1010
0000
0100
0000
1000
0000
0010
0000
1100
0000
0000
0000
1001
0000
0000
0010
0000
0000
0100
0000
0001
1000
0000
0000
,
0110
0000
0000
0000
0101
0000
0000
0000
1010
0000
0000
0000
1100
0000
0010
0000
0101
0000
0000
0000
1010
0000
0000
0000
0101
0000
0010
0000
1100
0000
0001
0000
1010
0000
0100
0000
1001
0000
0000
0010
0000
0000
1100
0000
0001
0010
1000
0000
,
0002
0000
0010
0000
0100
0000
1000
0000
0010
0000
1000
0000
0100
0000
0020
0030
1000
0000
0020
0030
0100
0003
1000
0000
,
0011
0000
1100
0000
0001
0000
1100
0000
0010
0000
0101
0000
1010
0000
0002
0003
0100
0000
0001
0000
0010
0000
1000
0000
,
0101
0000
1000
0000
0010
0000
1100
0000
0010
0000
0101
0000
1010
0000
0002
0003
0100
0000
0002
0003
0010
0000
0100
0000
,
1010
0100
0001
0010
1000
0100
0001
0010
1000
0100
0001
0010
1100
0010
0001
0010
1000
0100
0011
1000
0011
0100
0011
1000
,
0101
0000
1000
0000
0001
0000
1100
0000
0110
0000
0011
0000
1010
0000
0002
0003
0010
0000
0102
0003
0010
0000
0100
0000
,
1001
0000
0010
0000
0100
0000
1001
0000
0110
0000
0101
0000
1010
0000
0102
0003
1010
0000
0011
0000
0110
0000
1010
0000
,
0101
0000
0010
0000
0100
0000
1000
0000
0100
0000
0010
0000
0100
0000
0012
0003
1100
0010
1002
0103
1010
0100
0011
0100
,
1001
0100
0010
0001
1100
0010
0001
1000
0110
0001
1000
0100
0011
0100
0010
0100
,
1001
0000
0000
0100
0000
0000
0010
0000
0000
1000
0000
0000
0101
0000
0000
0010
0000
0000
0001
0000
0000
0100
0000
0000
1010
0000
0001
0000
0010
0000
0101
0000
1000
0000
0000
0000
0110
0000
0000
0001
0000
0000
1000
0000
0000
0100
0000
0000
,
0011
0000
0000
0000
0100
0000
0000
0000
0011
0000
0000
0000
1001
0000
0000
0000
0100
0000
0000
0000
0011
0000
0000
0000
1100
0000
0000
0010
0000
0000
1000
0000
0010
0001
0000
0000
1010
0000
0000
0100
0000
0000
1000
0000
0001
0010
0000
0000
,
1100
0000
0000
0000
0010
0000
0000
0000
1100
0000
0000
0000
0110
0000
0000
0000
0001
0000
0000
0000
1100
0000
0000
0000
0011
0000
0000
1000
0000
0000
0100
0000
0001
0010
0000
0000
1001
0000
0000
0000
0100
0000
0000
0000
1001
0000
0000
0000
,
0110
0000
0001
0000
0100
0000
1010
0000
0001
0000
1100
0000
0011
0000
1010
0001
0110
1000
0011
0000
1000
0000
0101
0000
,
1010
0000
0001
0000
0110
0000
1100
0000
0010
0000
1001
0000
0110
0001
0010
0100
0011
0100
1001
0100
1010
0001
1100
0011
,
2100
0000
0000
0000
0000
0000
0001
0000
0000
3000
0000
0000
1000
0010
0001
0100
1010
0100
1001
0010
0100
0001
1000
0010
,
0002
0000
0000
0000
1000
0000
0123
0000
0000
0030
0101
0010
1001
0100
0010
0100
0011
0100
1001
0000
0010
0100
1000
0010
,
1100
0001
0100
1000
0011
0100
1001
0010
0100
1000
0011
0100
1010
0000
0001
0000
1010
0000
0101
0010
1000
0100
0011
0100
,
1001
0010
0100
1000
0110
0001
1100
0010
0001
1000
0110
0001
1000
0010
1001
0010
0100
0010
1100
0000
0000
0000
1000
0100
,
0011
0000
0000
1000
0000
0000
0001
0000
0100
0010
0000
0000
1100
0000
0000
0001
0000
0000
0100
0000
1000
0010
0000
0000
0101
0000
0000
1000
0000
0000
0100
0000
0010
1000
0000
0000
0101
0000
0000
0000
1000
0000
0000
0000
0011
0000
0000
0000
,
1020
0000
0000
0000
0000
0000
0000
0000
0000
0000
0000
0000
0000
0000
0000
0000
0000
0000
0000
0000
0000
0000
0000
0000
0000
0000
0000
0000
0000
0000
0000
0000
1000
0000
0000
0000
0000
0000
0000
0000
0000
0000
0000
0000
0000
0000
0000
0000
1032
0000
0000
0000
0000
0000
0000
0000
0000
0000
0000
0000
0000
0000
0000
0000
0000
0000
0000
0000
0000
0000
0000
0000
0000
0000
0000
0000
0000
0000
0000
0000
0100
0000
0000
0000
0000
0000
0000
0000
0000
0000
0000
0000
0000
0003
0000
0000
1002
0000
0000
0000
0000
0000
0000
0000
0000
0000
0000
0000
0000
0000
0000
0000
0000
0000
0000
0000
0000
0000
0000
0000
0000
0000
0000
0000
0000
0000
0000
0000
0100
0000
0000
0000
0000
0000
0000
0000
0000
0000
0000
0000
0000
0000
0000
0000
0113
0000
0000
0000
0000
0000
0000
0000
0001
0000
0000
0000
0000
0000
0000
0000
0010
0000
0000
0000
0000
0000
0000
0000
0100
0000
0000
0000
0000
0000
0000
0000
0001
0000
0000
0000
1000
0000
0000
0000
0000
0000
0000
0000
0000
0000
0000
0000
,
0110
0000
0000
0001
0000
0000
0010
0000
0001
0100
0000
0000
1001
0000
0000
0010
0000
0000
0100
0000
0010
0001
0000
0000
1010
0000
0000
0100
0000
0000
0010
0000
1000
0100
0000
0000
1001
0000
0000
0010
0000
0000
0100
0000
0001
1000
0000
0000
,
0110
0001
1000
0010
0101
1000
0011
1000
0100
0010
1001
0010
0100
0010
1100
0001
1010
0100
0011
1100
0011
0100
1010
0100
,
1002
0000
0000
0000
0000
0000
0000
0000
0000
0000
0000
0000
0000
0000
0000
0000
0000
0000
0000
0000
0000
0003
0000
0000
0110
0000
0000
0001
0000
0000
1000
0000
0100
0010
0000
0000
1001
0000
0000
0100
0001
0000
0010
0000
0000
1000
0000
0000
,
0011
0000
0000
0100
0000
0000
0010
0000
0001
1000
0000
0000
0110
0000
0000
0001
0000
0000
0100
0000
0000
1000
0000
0000
0011
0000
0000
0100
0000
0000
1000
0000
0100
0001
0000
0000
1010
0000
0000
0001
1000
0000
0100
0000
0001
0010
0000
0000
,
1100
0000
0000
0010
0000
0000
0100
0000
0010
1000
0000
0000
0101
0000
0000
1000
0000
0000
0100
0000
0000
0010
0000
0000
0101
0000
0000
1000
0000
0000
0001
0000
1000
0010
0000
0000
0101
0000
0000
0010
0001
0000
0100
0000
0000
1000
0000
0000
,
0012
0000
0000
0000
0000
0000
0000
0000
0100
0003
0000
0000
0010
0000
0000
0000
0000
0000
0100
0000
0000
1000
0000
0000
0011
0000
0000
0100
1001
0000
0010
0000
1100
0001
0000
0000
0010
0000
0000
0100
1001
0000
0010
0000
0101
1000
0000
0000
,
0011
0100
0010
0100
1001
0010
1100
0001
1000
0100
0010
0001
1100
0010
0101
0010
0101
1000
0011
0100
1010
0100
0001
0010
,
0102
0000
0000
0000
0010
0000
1100
0000
0000
0000
0000
0000
0113
0000
1010
0000
0100
0000
1010
0001
0110
0000
0011
0000
,
1000
0000
0000
0001
1010
0000
0100
0000
0000
0001
0000
0000
1010
0000
0001
0000
0010
0000
0100
0000
0010
0000
1000
0000
0101
0000
0010
0000
0001
0000
1000
0000
0011
0000
0100
0000
0010
0000
1000
0000
0101
0000
0010
0000
1001
0000
0100
0000
,
1010
0100
0010
1000
0100
0010
1001
0010
0100
0001
0010
0100
1010
0100
0001
1000
0100
0001
1010
0101
1010
0001
0110
1000
,
0011
0100
1010
1001
0010
0101
1010
0100
1010
1001
0010
1100
,
0011
0100
0011
1001
0100
1001
0110
1000
0110
0011
0100
1001
,
0110
1000
0101
1001
0010
1100
0011
0100
0011
1010
0100
1010
,
0101
0010
0100
1000
0110
0001
1010
0100
0001
0010
1100
0010
1001
0010
0100
1000
0011
0100
1001
0100
1010
0001
1100
0010
,
1001
0010
1100
1001
0010
0101
1010
0100
1010
1001
0010
1100
,
0011
0100
0011
1001
0100
1001
0110
1000
0110
0011
0100
1010
,
0101
0010
0101
1001
0010
1100
0011
0100
0011
1010
0001
0110
,
1001
0000
0010
0100
0001
0000
1000
0000
0000
0010
0000
0000
0101
0000
0000
0010
0000
0000
0100
0000
1010
0001
0000
0000
0100
0000
0000
0010
0001
0000
1000
0000
0100
0001
0000
0000
1010
0000
0000
0100
0001
0000
0010
0000
1000
0001
0100
0000
,
1010
0000
0000
0000
0010
0000
0000
0000
1100
0000
0000
0000
1001
0000
0000
0000
0010
0000
0000
0000
0101
0000
0000
0000
1010
0000
0000
0001
0000
0000
0010
0000
1000
0100
0000
0000
1001
0000
0000
0010
0000
0000
0100
0000
1000
0010
0000
0000
,
0100
0000
0000
0000
0001
0000
0000
0000
1100
0000
0000
0000
1010
0000
0000
0000
0100
0000
0000
0000
1010
0000
0000
0000
0101
0000
0000
0010
0000
0000
1000
0000
0001
0010
0000
0000
1001
0000
0000
0000
0100
0000
0000
0000
1001
0000
0000
0000
,
0110
0000
0000
0001
0000
0000
0010
0000
0001
0100
0000
0000
1001
0000
0000
0000
0100
0000
0000
0000
1010
0000
0000
0000
0101
0000
0000
1000
0001
0000
0100
0000
1000
0010
0000
0000
1001
0000
0000
0000
0011
0000
0000
0000
0101
0000
0000
0000
,
1010
0000
0000
0001
0000
0000
1000
0000
0010
0100
0000
0000
1001
0000
0000
0000
0010
0000
0000
0000
0101
0000
0000
0000
1001
0000
0010
0000
1100
0000
0011
0000
1100
0000
0010
0000
1001
0000
0100
0000
0011
0000
0100
0000
1010
0000
0100
0000
,
1001
0001
0001
0110
1000
0101
1000
0010
1000
0101
1000
0101
,
0010
0010
0010
1001
0100
0011
1000
0010
0100
0101
0010
1000
,
0100
0100
0100
0101
0100
1010
0001
0001
0001
0011
1000
0110
,
0001
0000
0001
0000
0001
0000
1001
0000
0001
0000
1100
0000
0010
0000
1100
0010
1001
0000
1010
0000
1100
0000
1001
0000
,
1000
0001
1000
0011
0100
1010
0001
0100
0010
1001
0100
0011
,
1000
0100
0010
0101
1000
0011
0100
0001
0100
0101
1000
0100
,
1000
0100
0010
1001
0010
0101
1000
0100
1000
0011
0100
1001
,
0010
0000
0100
0000
0001
0000
1100
0000
1010
0000
1001
0000
0101
0010
0101
0000
0010
0000
1002
0003
0010
0000
0102
0003
,
1000
0100
0010
1001
0100
0011
0100
1000
0010
1100
0010
0101
,
1000
0001
0010
1100
0010
1001
0010
0100
0001
0101
0010
1000
,
0101
0000
0010
1000
0001
0000
0100
0000
0001
0010
0000
0000
1100
0000
0000
0000
1001
0000
0000
0000
0110
0000
0000
0000
1010
0000
0100
0000
0011
0000
0000
0000
0101
0000
0000
0000
1010
0000
0000
0000
0100
0000
0000
0000
0001
0000
0000
0000
,
1000
0011
1001
0011
0100
0010
0101
1000
0100
0011
0100
1001
,
0020
0000
0000
0000
0000
0000
0200
0300
0000
0000
0000
0000
0200
0300
0000
0000
0000
0000
0200
0300
0000
0000
0000
0000
,
1031
0100
1010
0000
0001
0000
1010
0100
1001
0000
0100
0000
0012
0000
0003
0000
0000
0000
1001
0000
1010
0000
1100
0000
,
0002
0003
0000
000M
0000
000M
0000
0000
;
