#TITLE:Go Beyond!!;
#SUBTITLE:;
#ARTIST:Ryu* vs. Sota;
#TITLETRANSLIT:;
#SUBTITLETRANSLIT:;
#ARTISTTRANSLIT:;
#CREDIT:Detach;
#BANNER:Go Beyond!!-bn.png;
#BACKGROUND:Go Beyond!!-bg.png;
#LYRICSPATH:;
#CDTITLE:LOGO.png;
#MUSIC:Go Beyond!!.mp3;
#OFFSET:-0.140;
#SAMPLESTART:30.120;
#SAMPLELENGTH:11.860;
#SELECTABLE:YES;
#BPMS:0.000=200.001,8.000=399.999,10.000=200.001,16.000=399.999,18.000=200.001,24.000=400.000,26.000=200.001,32.000=400.000,36.000=200.002,48.000=400.000,52.000=200.002,84.000=400.001,90.500=200.003,93.000=400.001,95.000=200.003,96.000=400.001,98.000=100.002,100.000=100.000,156.000=200.001,268.000=399.999,279.000=200.001,280.000=399.999,282.000=200.001;
#STOPS:8.000=0.115
,8.750=0.110
,9.500=0.080
,16.000=0.110
,16.750=0.110
,17.500=0.080
,24.000=0.110
,24.750=0.115
,25.500=0.080
,32.000=0.110
,32.750=0.105
,33.500=0.080
,34.000=0.080
,34.500=0.080
,35.000=0.035
,35.250=0.035
,35.500=0.035
,35.750=0.035
,48.000=0.080
,48.500=0.145
,49.500=0.145
,50.500=0.145
,51.500=0.080
,84.000=0.145
,85.000=0.145
,86.000=0.080
,86.500=0.145
,87.500=0.080
,88.000=0.080
,88.500=0.145
,89.500=0.145
,98.000=0.060
,268.000=0.140
,269.000=0.140
,270.000=0.080
,270.500=0.140
,271.500=0.080
,272.000=0.080
,272.500=0.140
,273.500=0.140
,274.500=0.140
,275.500=0.040
,275.750=0.040
,276.000=0.080
,276.500=0.080
;
#BGCHANGES:;
// cache tags:
#FIRSTBEAT:0.000;
#LASTBEAT:326.000;
#SONGFILENAME:Songs/KBU/Go Beyond!! (Detach)/Go Beyond!!.sm;
#HASMUSIC:1;
#HASBANNER:1;
#MUSICLENGTH:114.941;
// end cache tags

//---------------dance-single - ----------------
#NOTES:
     dance-single:
     :
     Hard:
     12:
     0.822,1.000,0.696,0.566,0.566,516.000,80.000,65.000,0.000,0.000:
1000
0001
1000
0001
,
1010
0010
1000
0100
1000
0010
1000
0100
,
1100
0000
0000
0010
0000
0000
0100
0000
0101
0000
0000
0000
0001
0000
1000
0000
,
0002
0000
0013
0100
1000
0010
1000
0100
,
0110
0000
0000
0100
0000
0000
0010
0000
1001
0000
0000
0000
0000
0000
0000
0000
,
1001
0001
1000
0010
0100
0010
0100
0001
,
0011
0000
0000
0101
0000
0000
1001
0000
0101
0000
0000
0000
0000
0000
0000
0000
,
1001
0000
0000
0000
1010
1000
1000
0000
,
0100
0000
0000
0010
0000
0000
0001
0000
0100
0000
0001
0000
0010
0001
0010
0001
,
0010
0000
0011
0000
0001
0010
0101
0000
,
0100
0000
0110
0000
0010
0000
1010
0010
,
1001
0000
1001
0000
1000
0100
0010
0001
,
0011
0011
0000
1001
0000
1010
0000
1100
,
1100
0000
0110
0000
0011
0001
0101
0000
,
0101
0100
0110
0000
0100
0000
0101
0000
,
1001
0010
1001
0010
1001
0010
1001
0000
,
1010
1000
0110
0100
0101
0001
0011
0001
,
0101
0100
0101
0001
0100
0100
0110
0100
,
0010
0010
1010
0000
1000
0000
1100
1100
,
1100
0000
0100
0010
0001
0010
0100
1000
,
0100
0000
0000
0000
1100
0000
0000
0000
0100
0000
0000
0000
0110
0000
0010
0100
,
1010
0000
1100
0000
1001
1001
0000
0110
,
0110
0000
0110
0000
0000
0000
1010
0000
0000
0000
1100
0000
0010
0001
0010
0100
,
1000
1000
2000
0000
0000
0000
3100
0100
,
0200
0000
0300
0000
,
1002
0203
0320
2030
,
3200
0000
0000
0320
,
0032
2003
3020
0230
,
0302
0000
0000
2003
,
3200
0320
0032
0023
,
0230
0010
0010
0320
,
0032
0203
0302
0023
,
0032
0100
0100
0203
,
0320
1000
1000
2030
,
3002
0100
0100
0203
,
0320
2030
3002
0023
,
0230
0000
0000
0000
,
0000
0000
0320
0000
,
0030
0000
0000
0000
0000
0001
1000
0001
,
1000
0100
0010
0001
0010
0100
1000
0100
0010
0001
0010
0001
0100
0001
0100
0010
,
1000
0010
1000
0100
1000
0100
1000
0010
0100
0010
0100
1000
0001
1000
0001
0100
,
0001
0100
0001
0100
0001
0010
0100
1000
0100
0010
0001
0010
0100
1000
0100
1000
,
0100
0010
0001
0010
0100
0010
0100
0010
0100
1000
0100
1000
0100
0010
0001
0010
,
0001
0100
0001
0100
0001
0010
0100
1000
0100
1000
0010
1000
0010
0100
0010
0100
,
0001
0010
0100
1000
0100
0010
0001
0010
0100
0010
0100
0010
0001
0010
0100
1000
,
0100
0010
0001
0010
0100
1000
0001
1000
0001
1000
0001
1000
0010
0100
0010
0100
,
1001
0101
1001
0101
,
1001
0010
0100
1000
0100
0010
0001
0010
0001
0100
0001
0100
0010
1000
0100
0010
,
0001
1000
0001
1000
0010
0100
0001
0010
0100
1000
0100
0010
0001
1000
0001
1000
,
0001
0010
0100
0010
0100
0010
0100
1000
0100
1000
0100
1000
0100
0010
0001
0010
,
0100
1000
0010
0100
0001
0010
0001
0100
0001
0010
0100
1000
0100
0010
0001
0010
,
0100
0010
0100
0010
0100
1000
0100
1000
0100
0010
0001
0010
0001
0100
0001
0100
,
0001
0010
0100
1000
0100
0010
0100
0010
0001
1000
0100
0010
0001
0010
0100
0010
,
0001
0010
0100
1000
0001
0010
0100
1000
0001
0010
0100
1000
0001
0010
0100
1000
,
0001
0010
0100
1000
0001
0010
0100
1000
0001
0010
0100
1000
0001
0010
0100
1000
,
0002
1000
2003
0010
,
3020
0000
0100
0000
0230
0000
0001
0001
,
0302
1000
1000
0100
,
0100
0000
0010
0000
0023
0000
0100
0100
,
0230
1000
2300
0001
,
3002
0100
0203
0010
,
0320
1000
1030
0001
,
1001
1010
1100
1010
,
2000
0001
3002
0100
,
0203
0010
0320
1000
,
2030
0001
0001
0001
,
0001
0000
0001
0000
3002
0000
0100
0100
,
0103
0000
0100
0000
0101
0110
0000
1001
,
0101
0000
0101
0000
0000
0000
0110
0000
0000
0000
1010
0000
0000
0000
1000
0001
,
1000
1001
1002
0000
0000
0000
0103
0110
,
0020
0000
1030
1100
,
1001
0101
0012
0000
,
0000
0000
0000
0000
,
2003
0000
3020
0000
,
0000
0000
0000
0000
,
0230
0000
0302
0000
,
2003
0000
3020
0000
,
0230
0000
0302
0000
,
0000
0000
0000
0000
,
0000
0000
0000
0000
,
0000
0000
0000
0000
,
0000
0000
0003
0000
;
