#TITLE:My Land;
#SUBTITLE:Ecliptica;
#ARTIST:Sonata Arctica;
#TITLETRANSLIT:;
#SUBTITLETRANSLIT:;
#ARTISTTRANSLIT:;
#CREDIT:;
#BANNER:My Land-bn.png;
#BACKGROUND:My Land-bg.png;
#LYRICSPATH:;
#CDTITLE:!ShiroTitle.png;
#MUSIC:02 - My Land.mp3;
#OFFSET:-0.260;
#SAMPLESTART:75.780;
#SAMPLELENGTH:15.140;
#SELECTABLE:YES;
#BPMS:0.000=149.999,12.000=144.999,20.000=149.999,28.000=169.999,32.000=177.999,96.000=188.399,128.000=179.999,144.000=187.999,152.000=181.999,160.000=188.999,192.000=184.998,256.000=187.998,280.000=183.999,328.000=182.999,332.000=184.999,336.000=183.999,384.000=179.999,412.000=173.999,420.000=183.999,480.000=187.999,508.000=183.999,532.000=185.999,540.000=185.999,556.000=189.999,564.000=184.999,572.000=189.998,592.000=179.998,596.000=174.998,597.000=163.998,660.000=149.998,664.000=187.998,696.000=181.998,720.000=187.998,728.000=194.998,768.000=189.998,784.000=194.998,804.000=189.998,812.000=194.998;
#STOPS:;
#BGCHANGES:;
// cache tags:
#FIRSTBEAT:0.000;
#LASTBEAT:827.000;
#SONGFILENAME:Songs/toune 4/My Land/My Land.dwi.sm;
#HASMUSIC:1;
#HASBANNER:1;
#MUSICLENGTH:277.062;
// end cache tags

//---------------dance-single - ----------------
#NOTES:
     dance-single:
     :
     Hard:
     13:
     1.000,1.000,1.000,0.794,0.579,1500.000,441.000,220.000,0.000,0.000:
1100
1000
0010
1010
0000
0010
0201
0000
,
0000
0000
0300
1010
,
1001
0100
0010
0011
0000
0010
0210
1000
,
0000
0000
0000
0300
,
1100
0010
0001
1100
0000
0010
0102
0000
,
0000
0000
0003
1100
,
0110
0010
0001
0110
0000
0100
0210
0010
,
1000
0000
1000
0000
1300
0100
0101
0000
,
0110
0010
0100
1001
0010
0010
0101
0000
,
0010
1010
0001
1000
1001
0010
0101
0010
,
1001
0010
0100
1100
0010
0001
0110
1000
,
0001
0001
0010
0100
0100
0100
0010
0001
,
0011
0100
1000
0101
0010
0010
1001
0000
,
0100
0011
0100
1000
1010
0100
0101
0010
,
1001
0100
0010
0011
0100
0100
1001
0100
,
0010
0010
1000
0010
0100
0101
1100
0000
,
2100
0000
3100
0210
0000
0310
0120
0000
,
0031
0012
0000
0103
2002
3003
2002
3003
,
0120
0100
1030
1002
0100
0003
0201
0001
,
0000
1000
0000
0310
1000
0001
1000
0001
,
1200
0000
1300
2100
0000
3100
1200
0000
,
1300
2001
0000
3010
2020
3030
2020
3030
,
0201
0301
0010
0210
1000
0300
2100
0001
,
0000
0000
0001
0000
3000
0000
0001
0000
1000
0000
0100
0000
0010
0000
0001
0010
,
1100
0010
0000
0110
1000
0000
0101
0010
,
0000
0010
1001
0000
0110
0000
0110
0000
,
0011
0100
0000
1100
0001
0000
0110
0001
,
0000
0010
0100
0000
1100
0000
0011
0000
,
0101
1000
0000
1100
0010
0000
0011
0100
,
0000
0110
0001
1100
1001
0000
0110
0000
,
0110
0001
0000
0101
0010
0000
1010
0100
,
0000
0001
1001
0000
1100
0110
1100
0000
,
2001
0000
3100
0000
1100
0010
1001
1010
,
0100
0000
0110
1010
0100
0010
0011
0110
,
2100
0000
3010
0000
0010
1000
0010
0000
,
0110
0000
0100
0000
0100
0001
0100
0000
,
1200
0000
1300
0000
0011
0100
1001
0101
,
0010
0000
1010
1001
0100
0101
0110
0000
,
1002
0000
1003
0000
1000
0100
1000
0000
,
0101
0000
0000
0000
0001
0000
0000
0001
0010
0100
1000
0100
0010
0001
0010
0100
,
1100
0100
0000
0110
0001
0000
1010
0100
,
0000
0110
0001
0000
0011
0000
0011
0000
,
1100
0010
0000
0011
0100
0000
0110
1000
,
0000
0100
0010
0000
0011
0000
1100
0000
,
0110
0001
0000
0011
0100
0000
1100
0010
,
0000
0010
0101
0010
1001
0000
0110
0000
,
0110
1000
0000
1010
0100
0000
0101
0010
,
0000
1000
0001
0000
0011
0110
0011
0000
,
1002
0000
0013
0000
0011
0100
1001
0101
,
0010
0000
0110
0101
0010
0100
1100
0110
,
0012
0000
0103
0000
0101
0001
0100
0000
,
0110
0000
0010
0000
1010
1000
0010
0000
,
1200
0000
1300
0000
0011
0100
1001
0101
,
0010
0000
1010
1001
0010
1100
1001
0000
,
1020
0000
1030
0000
1000
0100
1000
0000
,
0101
0000
0000
0000
0001
0000
0000
0000
1000
0000
0100
0010
0001
1000
0100
0010
,
2001
0000
3010
0201
0000
0301
1200
0000
,
1300
0201
0000
0310
1002
0003
0210
0300
,
1002
0000
0103
0210
0000
0310
2001
0000
,
3001
1000
0100
0000
0110
0000
0011
0000
,
1200
0000
0310
2100
0000
3010
0201
0000
,
0301
0210
0000
0310
1200
0300
2001
3000
,
2010
0000
3010
2001
0000
3001
1200
0000
,
1300
0000
0010
0000
0100
0000
0001
0000
0100
0001
0010
0001
1000
0001
0010
0001
,
1002
0000
0013
0110
0011
0100
1001
0000
,
1010
0000
0101
0000
1001
0010
0101
0000
,
0210
0000
0310
0000
2100
0010
3001
1001
,
0021
0000
0130
0000
0100
0010
0001
0000
,
1002
0000
0013
0000
0011
0100
1100
0000
,
1001
0000
0010
0000
0101
0010
1000
0000
,
1001
0100
1000
0001
1000
0010
1000
0001
,
0200
0000
0000
0320
1000
1000
1000
0000
,
1030
0100
0010
0100
1000
0000
0002
0000
0100
0000
0100
0000
0100
0000
0000
0000
,
1003
0100
0000
0010
0001
0001
0100
0010
,
1100
0110
1100
0110
0011
1001
0101
0110
,
0010
1000
0100
0010
0001
0010
0100
1000
0020
0000
0100
0000
0100
0000
0000
0000
,
0130
0001
0100
0010
1000
0001
0100
0010
2000
0000
0100
0000
0100
0000
0000
0000
,
3100
0010
0001
1000
0100
1000
0001
0100
0001
0010
0100
1000
0100
0010
0001
1000
,
0010
1000
0100
0010
0100
1000
0001
1000
0001
0010
0100
1000
0010
0100
0001
0100
,
0010
1000
0100
0010
0001
1000
0100
0010
0001
1000
0100
0010
0001
1000
0100
0010
,
0002
0000
0100
0000
0010
0010
0010
0000
,
1000
0000
1003
0000
1010
0110
0001
0010
,
0200
0000
0000
0000
0000
0000
2300
0000
0000
0000
3010
0100
0002
0000
0000
0000
,
0203
0010
0010
0010
0010
0010
0010
0010
,
0310
1000
0100
1000
0001
0100
0001
0010
0100
1000
0001
0010
0100
0010
0001
0100
,
0010
1000
0001
1000
0100
1000
0001
0100
0010
1000
0001
0010
0100
1000
0001
0010
,
0200
1000
1000
1000
1000
1000
1000
1000
,
1300
0100
0010
0001
0010
0100
1000
0100
0010
0001
0100
0001
0010
0100
1000
0001
,
1002
1003
0010
1000
0010
1000
1010
0100
0001
0100
0001
0100
1001
0100
1000
0100
,
1000
0100
1000
0100
1100
0010
0001
0010
0021
0130
1000
0001
0201
0310
0100
0010
,
1020
1030
0010
1000
0010
0100
1001
0001
0010
0100
0010
0100
0110
0010
0002
0013
,
0002
0013
0001
0010
0001
0010
0001
0010
0001
0010
0001
0010
0001
0010
0001
0010
,
0021
0031
0100
0001
0100
0001
1001
1000
0001
1000
0001
1000
1010
0010
1000
0010
,
2000
3010
1000
0010
1001
0001
0020
0031
1001
1000
0001
1000
2100
3100
1000
0100
,
1200
0310
0100
0010
0100
0010
0011
0001
1000
0001
1000
0001
0101
0100
0010
0100
,
0010
0000
0000
0100
0000
0000
0010
0000
0000
0100
0000
0000
0010
0000
0000
0100
0000
0000
0010
0000
0000
0100
0000
0000
0010
0000
0000
0000
1000
0000
0000
0000
0010
0000
0000
0000
0100
0000
0000
0000
0001
0000
0000
0000
1000
0000
0000
0000
,
1100
0000
0011
0100
1000
0001
0011
0000
,
0100
1100
0010
0000
1001
0100
0110
0000
,
0011
0100
1000
1010
0100
0010
0101
0010
,
1000
0100
0001
0100
0010
1000
0010
0100
,
1100
0000
0010
0011
0001
0000
0101
0000
,
0010
1100
0010
0000
0011
0000
0110
0000
,
1100
0100
0010
0001
0100
0000
0101
0010
1000
0100
0000
0000
1100
0010
0001
0010
,
0100
0000
0100
1000
0010
1000
0000
0000
1000
0010
0000
0000
0010
0100
0000
0000
,
0201
0000
0310
0000
1001
0100
1100
0110
,
0001
0000
0101
1001
0100
0010
0011
1001
,
0201
0000
0310
0000
1000
0010
0100
0001
,
1000
0001
0010
0100
0001
0100
1000
0100
,
0012
0000
0103
0000
1010
0100
1001
1100
,
0010
0000
0110
1100
0010
1001
0010
0101
,
1002
0000
0013
0000
0010
0100
1000
0000
,
1100
0000
0100
0010
0001
0100
1000
0100
0010
1000
0100
0010
0001
0010
0001
0100
,
0102
0000
0103
0201
0000
0310
0120
0000
,
1030
1020
0000
0130
0102
0003
0021
0030
,
0210
0000
1300
2100
0000
3100
1002
0000
,
1003
0001
0010
0000
1100
0000
0110
0000
,
0021
0000
0130
0012
0000
0103
1020
0000
,
1030
0120
0000
0130
0012
0003
1002
0003
,
0102
0000
0103
1002
0000
1003
0021
0000
,
0031
0000
0100
0000
0010
0000
1000
0000
0010
1000
0100
1000
0001
1000
0100
1000
,
2001
0000
3010
0110
1100
0010
1001
0000
,
0101
0000
1010
0000
1001
0100
1010
0000
,
0120
0000
0130
0000
0021
0001
0130
1100
,
1002
0000
1003
0000
1000
0010
0100
0000
,
1002
0000
0103
0000
1100
0010
0011
0000
,
1001
0000
0100
0000
1010
0100
0001
0000
,
1001
0100
0010
1001
0010
0100
1001
0100
,
2001
0010
0000
3010
1001
0000
0000
1000
,
0000
0000
0000
1000
0000
0000
0000
0000
0000
1000
0100
0010
0001
0000
0000
0010
0000
0000
0000
0000
0000
0010
0000
0000
,
0012
0010
0000
0013
0101
0000
0000
0100
,
0000
0000
0000
0100
0000
0000
0000
0000
0000
0100
0010
1000
0001
0000
0000
1000
0000
0000
0000
0000
0000
1000
0000
0000
,
1200
1000
0000
1300
1010
0000
0000
0010
,
0000
0000
0000
0010
0000
0000
0000
0000
0000
0010
1000
0001
0100
0000
0000
0001
0000
0000
0000
0000
0000
0001
0000
0000
,
0201
0000
0000
0001
0000
0000
0000
0000
0000
0301
0000
0000
1001
0000
0000
0000
0000
0000
0000
0000
0000
1000
0100
0010
,
0001
0000
0000
1000
0000
0000
1100
0000
0000
1000
0100
0010
0001
0000
0000
1000
0000
0000
1100
0000
0000
0000
0000
0000
,
2001
3000
1010
1001
0101
0010
1100
0000
,
1001
0000
0101
0000
0110
1000
0100
0000
,
0120
0030
0011
0000
1001
0100
1000
0000
,
1000
0000
1001
0000
0101
0010
1001
0000
,
1100
0010
0001
1000
0100
0010
0001
1000
0100
1000
0010
0100
0001
1000
0010
0100
,
0001
0010
0100
1000
0001
0010
0100
1000
0001
0100
0010
1000
0001
0100
0010
1000
,
0102
0003
0101
0110
1010
1000
0001
0000
,
0010
0000
0110
0000
1100
0010
0101
0000
,
0101
0100
1000
0100
0001
0100
1000
0100
0010
1000
0010
0001
0010
1000
0010
0001
,
0010
1000
0100
0001
0100
1000
0100
0001
0100
1000
0010
0001
0010
1000
0010
0001
,
0010
1000
0010
0100
0001
0010
0100
1000
0100
0010
0001
0100
0120
0000
0000
0000
,
1030
0100
0010
0001
0100
0001
0010
0100
1000
0010
0100
0001
0012
0000
0000
0000
,
0013
0100
1000
0001
1000
0100
1000
0001
0100
0010
1000
0010
0201
0000
0000
0000
,
0310
1000
0100
0000
1200
0000
0000
0000
1300
0100
0010
0000
0022
0000
0033
0000
,
2002
0000
0000
0000
3003
0000
0000
0000
0202
0000
0000
0000
0303
0000
0000
0000
0210
0000
0000
0000
0000
0000
0000
0000
0000
0000
0000
0000
0000
0320
0000
0000
,
0000
0000
0000
0000
0000
2030
0000
0000
0000
0000
0000
0000
0000
0000
3200
0000
,
0000
0000
0000
0320
0000
0000
0000
0000
0000
0000
0032
0000
0000
0000
0000
0000
0000
0000
2003
0000
0000
0000
0000
0000
0000
0000
0000
0000
0000
0000
3002
0000
,
0000
0000
0000
0000
0000
2003
0000
0000
0000
0000
3000
0000
0000
0000
0200
0000
,
0000
0320
0000
0032
0000
2003
0000
0000
,
0000
3020
0000
0000
0000
0000
0000
0230
0000
0000
0000
0000
0300
0000
0000
0002
,
0000
0000
0000
0000
0000
0000
0023
0000
0000
0000
0000
0000
0000
0000
0230
0000
0000
0000
0000
0000
0000
0000
0000
2300
0000
0000
0000
0000
0000
0000
0000
0000
,
0000
0000
0000
3020
0000
0000
0000
0000
0000
0000
0000
0000
0000
0000
0000
0230
0000
0000
0000
0000
0000
0000
0000
0000
0000
0000
0300
0000
0000
0000
0000
0000
,
0002
0000
0000
0000
0203
0000
0000
0000
0320
0000
0000
0030
0220
0000
0000
0000
,
0000
0000
0330
2002
0000
0000
0000
0000
3003
2200
0000
0000
0000
0000
0000
0000
,
0000
3300
0220
0000
0000
0330
0022
0000
0000
0033
2002
0000
0000
3003
2200
0000
,
0000
0000
0000
3300
2002
0000
0000
0000
0000
3003
0202
0000
0000
0000
0000
0000
,
0000
0000
0303
0022
0000
0000
0033
2200
0000
0000
3300
0022
0000
0000
0033
0220
,
0000
0000
0000
0000
0330
2200
0000
0000
0000
0000
3300
0202
0000
0000
0000
0000
,
0303
0000
0000
0000
0220
0000
0000
0330
2020
0000
0000
3030
0220
0000
0000
0330
,
0202
0000
0303
0000
,
0000
0020
0000
2000
0030
0000
0000
3200
0000
0000
0000
0000
0320
0000
0000
0000
,
0031
0010
0100
1000
0001
0100
0001
0010
0100
1000
0010
0100
0001
1000
0001
0100
,
0010
1000
0100
1000
0100
0010
0001
0010
0001
1000
0100
0010
0001
1000
0010
1000
,
0001
0100
0010
0100
0001
0010
0100
1000
0100
0010
0100
1000
0001
0010
0001
1000
,
0010
1000
0010
0100
0001
0010
0100
1000
0010
0100
0010
1000
0100
0010
0001
0010
,
1100
0010
0100
0001
0100
0010
1000
0100
1000
0001
0100
0001
0010
0100
1000
0001
,
0010
0100
0010
0100
1000
0001
0100
0010
1000
0001
0100
0001
0010
0100
1000
0001
,
1000
0001
0010
0100
1000
0100
0010
0001
1000
0100
1000
0010
1000
0100
0010
0001
,
0010
1000
0010
0001
0100
1000
0100
0001
0010
0100
1000
0100
,
0011
0000
0010
0000
0011
0100
1100
0101
,
0010
0000
1010
1001
0001
0010
0011
1001
,
1100
0010
1100
0010
1100
0010
1100
0010
,
0101
0010
0101
0010
0101
0010
0101
0010
,
2001
0000
3100
0000
0011
0010
0110
0000
,
1100
0000
1001
0000
0101
0010
0110
0000
,
2010
0000
3010
1000
0100
0000
0011
0000
,
0011
0000
1001
0010
0100
1000
0010
0100
0001
0100
0010
1000
0100
0010
0001
0100
,
2001
0000
3001
2100
0000
3010
0102
0000
,
0013
1200
0000
1300
0102
0003
0210
0300
,
1020
0000
0130
0201
0000
0310
0210
0000
,
0310
1000
0100
0000
1100
0000
1100
0000
,
1002
0000
0013
2100
0000
3100
0021
0000
,
0031
0120
0000
1030
0210
0300
0102
0003
,
1200
0000
0310
0021
0000
0130
1200
0000
,
1300
0000
0100
0000
0010
0000
0001
0000
0010
0100
1000
0100
0010
0001
0100
0010
,
2001
0000
3100
0110
1100
0010
1001
0000
,
0101
0000
1010
0000
1001
0100
1010
0000
,
0210
0000
0301
0000
0021
0001
0130
0110
,
1200
0000
1300
0000
0010
1000
0001
0000
,
2100
0000
3100
0000
1100
0010
0011
0000
,
1001
0000
0100
0000
1010
0100
0001
0000
,
1001
0001
1000
1001
1000
0001
1001
1000
,
2010
0000
3001
0011
0110
0100
1100
0000
,
0101
0000
1010
0000
0110
0001
1100
0000
,
0021
0000
0130
0000
1200
1000
0310
0011
,
2001
0000
3010
0000
0010
0100
0001
0000
,
2001
0000
3100
0000
1100
0010
0011
0000
,
0110
0000
0100
0000
0101
1000
0100
0000
,
0011
0010
0100
1100
0010
0001
0101
0010
,
1010
0100
0010
0011
0100
1000
0101
0010
,
0101
0010
0100
1100
0010
0001
0110
1000
,
0101
0000
0001
0000
1000
0000
0010
1000
0200
0000
0000
0000
0300
0000
0000
0000
;
