#TITLE:Royal Palace's Gavotte;
#SUBTITLE:~The Majesty of the Castle~;
#ARTIST:Koichi Sugiyama;
#TITLETRANSLIT:;
#SUBTITLETRANSLIT:;
#ARTISTTRANSLIT:;
#CREDIT:Darkmage;
#BANNER:royalpalcesgavotte-bn.png;
#BACKGROUND:royalpalacesgavotte-bg.png;
#LYRICSPATH:;
#CDTITLE:!darkmagetitle2.png;
#MUSIC:The Majesty of the Castle.ogg;
#OFFSET:2.151;
#SAMPLESTART:33.330;
#SAMPLELENGTH:25.000;
#SELECTABLE:YES;
#BPMS:0.000=88.000;
#STOPS:;
#BGCHANGES:0.000=royalpalacesgavotte-bg.png=1.000=0=0=1,
99999=-nosongbg-=1.000=0=0=0 // don't automatically add -songbackground-
;
// cache tags:
#FIRSTBEAT:4.000;
#LASTBEAT:221.000;
#SONGFILENAME:Songs/Archmage and Dark0wl Hammer of Thor UltraHyperMegaPack/Royal Palace's Gavotte ~The Majesty of the Castle~/The Majesty of the Castle.sm;
#HASMUSIC:1;
#HASBANNER:1;
#MUSICLENGTH:105.000;
// end cache tags

//---------------dance-single - Darkmage----------------
#NOTES:
     dance-single:
     Darkmage:
     Challenge:
     11:
     1.000,1.000,1.000,0.381,0.929,567.000,164.000,40.000,0.000,1.000:
0000
0000
0000
0000
,
1001
0101
1001
1010
,
1100
0000
0110
0000
0011
0000
0000
0000
1001
0000
0101
0101
0101
0000
1010
0000
,
1001
0000
0000
0000
1100
0000
0000
0000
1000
0010
1000
0010
1000
0010
1000
0001
0100
0000
0000
0000
0000
0000
0000
0000
0000
0000
0000
0000
0000
0000
0000
0000
,
1001
0101
1001
1100
1010
0101
1001
0101
,
1001
1100
1010
0101
1001
1100
1010
0110
,
0101
0000
0011
0000
1100
1100
0011
0011
0101
0101
1010
1010
1100
1100
0011
0011
,
1001
0101
1001
1100
,
1010
0000
1001
0000
0101
0000
0000
0000
1001
0000
1100
1100
1100
0000
0011
0000
,
1001
0000
0000
0000
0101
0000
0000
0000
0010
0001
0010
0001
0010
0001
0010
0100
1000
0000
0000
0000
0000
0000
0000
0000
0000
0000
0000
0000
0000
0000
0000
0000
,
1100
0000
0011
0011
0011
0000
0101
0000
1010
0000
0000
0000
0101
0000
1010
1010
,
1010
1100
0011
0000
0011
0110
1100
0000
,
1010
0000
0000
0000
0000
0000
0000
0000
1000
0010
1000
0010
1000
0010
1000
0010
1000
0001
0100
0000
0000
0000
0000
0000
0000
0000
0000
0000
0000
0000
0000
0000
,
0001
0010
0100
0000
1000
0000
0010
0000
1000
0100
0010
0000
0001
0000
1000
0000
,
0001
0010
0100
1000
0001
0000
1000
0000
0001
0010
0100
0010
0001
0000
0000
0000
,
1000
0010
1000
0001
1000
0100
0010
0001
1000
0010
1000
0001
1000
0100
0010
0001
,
1000
0010
0100
0001
0010
0000
0001
0000
0011
0000
0100
1000
0001
0000
1000
0000
,
0101
0101
0101
0101
0011
0110
0011
0110
,
1100
1100
1100
1100
1010
0110
1010
0110
,
0011
0000
0011
0000
0011
0000
0011
0000
0110
0000
0000
0000
1000
0100
0010
0000
,
0001
0010
0100
0000
1000
0010
0100
0000
0001
0010
0100
0000
1000
0010
0001
0000
,
1100
0000
0000
0000
0000
0000
0010
0000
0001
0000
1000
0000
0010
0000
0000
1000
0000
0000
0001
0000
0000
0010
0000
0000
0011
0000
0000
0000
0000
0000
0110
0000
0000
0000
0000
0000
0011
0000
0000
0000
0000
0000
0110
0000
0000
0000
0000
0000
,
1010
0000
0000
0000
0000
0000
1000
0000
0100
0000
1000
0000
0001
0000
0000
0100
0000
0000
0001
0000
0000
1000
0000
0000
1100
0000
0000
0000
0000
0000
0110
0000
0000
0000
0000
0000
1100
0000
0000
0000
0000
0000
0110
0000
0000
0000
0000
0000
,
0011
0000
0000
0000
0000
0000
0000
0000
0000
0000
0000
0000
0000
0000
0000
0000
0000
0000
0000
0000
0000
0000
0000
0000
0001
0000
0000
0000
0000
0000
0000
0000
0010
0000
0000
0000
0000
0000
0000
0000
0001
0000
0000
0000
0000
0000
0000
0000
1000
0000
0000
0000
0000
0000
0000
0000
0000
0000
0000
0000
0100
0000
0000
0000
0000
0000
0000
0000
0000
0000
0000
0000
1000
0000
0000
0000
0000
0000
0000
0000
0000
0000
0000
0000
0001
0000
0000
0000
0000
0000
0000
0000
0000
0000
0000
0000
0100
0000
0000
0000
0000
0000
0010
0000
0000
0000
0000
0000
0100
0000
0000
0000
0000
0000
0010
0000
0000
0000
0000
0000
0100
0000
0000
0000
0000
0000
0010
0000
0000
0000
0000
0000
0100
0000
0000
0000
0000
0000
0010
0000
0000
0000
0000
0000
0100
0000
0000
0000
0000
0000
0010
0000
0000
0000
0000
0000
0100
0000
0000
0000
0000
0000
0010
0000
0000
0000
0000
0000
0100
0000
0000
0000
0000
0000
0000
0000
0000
0000
0000
0000
0001
0000
0000
0000
0000
0000
0000
0000
0000
0000
0000
0000
,
2000
3200
0320
0032
,
2203
3300
2020
3030
0220
0330
0022
0000
,
0033
0000
0000
0000
0020
0000
0000
0000
0030
0000
0000
0000
0200
0000
0000
0000
0300
0000
0000
0000
2000
0000
0000
0000
3000
0000
0000
0000
0200
0000
0000
0300
,
0220
0330
0022
0033
2200
3300
2002
3003
,
0000
0200
0300
0020
0030
2000
3000
0002
,
1003
0000
0100
0000
0010
0000
0001
0000
1000
0010
0100
0001
0100
0010
1000
0001
,
1000
0000
0100
0000
0010
0000
0001
0000
1000
0010
0100
0001
0100
0010
1000
0001
,
1000
0100
0010
0000
0001
0000
1000
0000
0010
0000
1000
0000
0001
0000
1000
0000
,
0101
0000
0010
0000
0001
0000
0010
0000
0001
0010
0100
1000
0001
0000
1000
0100
,
0010
0001
0010
1000
0010
0001
0010
1000
0010
0001
0010
1000
0010
0001
0010
1000
,
0010
0100
0001
0100
1000
0100
0001
0100
1000
0100
0001
0100
1000
0100
0001
0100
,
1000
0010
0001
0010
1000
0010
0001
0010
1000
0010
0001
0010
1000
0010
0001
0010
,
0001
1000
0100
0001
0100
1000
0100
0001
0100
1000
0100
0001
0100
1000
0100
0001
,
0101
0101
0101
0101
0202
0000
0303
0000
,
1010
1010
1010
1010
2020
0000
3030
0000
,
2100
3001
0102
1003
2010
3001
0012
1003
,
2002
0000
0000
0000
0000
0000
0000
0000
3003
0000
0000
0000
1000
0000
0001
0000
1000
0100
1000
0100
1000
0100
1000
0100
1000
0100
1000
0100
1000
0100
1000
0100
,
1000
0100
0010
0000
0001
0000
1000
0000
0001
0010
0100
0000
1000
0000
0001
0000
,
1000
0100
0010
0001
0010
0000
0100
0000
1000
0100
0010
0100
1000
0000
0000
0000
,
0001
0100
0010
1000
0001
0010
0100
1000
0001
0100
0010
1000
0001
0010
0100
1000
,
0100
0010
0001
0010
0100
0000
0001
0000
0100
0000
0010
0100
1000
0000
0001
0000
,
0101
0101
0101
0101
0011
0110
0011
0110
,
1100
1100
1100
1100
1010
0110
1010
0110
,
0011
0000
0011
0000
0011
0000
0011
0000
1001
0000
0000
0000
1000
0010
0001
0000
,
1000
0100
0010
0000
1000
0001
0010
0000
0001
0100
0010
0000
0001
1000
0010
0000
,
1010
0000
0000
0000
0000
0000
1000
0000
0100
0000
1000
0000
0001
0000
0000
0100
0000
0000
0001
0000
0000
1000
0000
0000
1100
0000
0000
0000
0000
0000
1100
0000
0000
0000
0000
0000
1010
0000
0000
0000
0000
0000
0101
0000
0000
0000
0000
0000
,
0011
0000
0000
0000
0000
0000
0001
0000
0010
0000
0001
0000
1000
0000
0000
0001
0000
0000
0010
0000
0000
0001
0000
0000
0101
0000
0000
0000
0000
0000
0101
0000
0000
0000
0000
0000
0011
0000
0000
0000
0000
0000
0110
0000
0000
0000
0000
0000
,
1010
0000
0000
0000
0100
0000
0001
0000
1000
0000
0100
0000
0010
0000
0001
0000
1000
0010
1000
0010
1000
0010
1000
0010
1000
0010
1000
0010
1000
0000
0100
0000
,
0010
0000
0001
0010
0100
0000
1000
0010
0100
0000
0001
0100
0010
1000
0001
0010
,
1100
0000
0000
0000
0010
0000
0001
0000
1000
0000
0010
0000
0100
0000
0001
0000
0010
0001
0010
0001
0010
0001
0010
0001
0010
0001
0010
0001
0010
0001
0010
0001
,
0010
0100
2000
0000
0000
0000
0000
0000
0000
0000
0000
0000
3002
0000
0000
0000
,
0000
0003
0000
0000
;
