#TITLE:My Sweet Darlin';
#SUBTITLE:;
#ARTIST:WILDSIDE;
#TITLETRANSLIT:;
#SUBTITLETRANSLIT:;
#ARTISTTRANSLIT:;
#CREDIT:;
#BANNER:MY SWEET DARLIN'.PNG;
#BACKGROUND:MY SWEET DARLIN'-bg.PNG;
#LYRICSPATH:;
#CDTITLE:;
#MUSIC:03_-_my_sweet_darlin'.mp3;
#OFFSET:-0.960;
#SAMPLESTART:103.310;
#SAMPLELENGTH:12.000;
#SELECTABLE:YES;
#BPMS:0.000=158.000,426.000=157.680;
#STOPS:;
#BGCHANGES:;
// cache tags:
#FIRSTBEAT:8.000;
#LASTBEAT:403.000;
#SONGFILENAME:Songs/longs versions/sweeet/ss.sm;
#HASMUSIC:1;
#HASBANNER:1;
#MUSICLENGTH:154.228;
// end cache tags

//---------------dance-single - ----------------
#NOTES:
     dance-single:
     :
     Hard:
     9:
     0.714,0.686,0.441,0.000,0.023,703.000,68.000,0.000,0.000,0.000:  // measure 1
0000
0000
0000
0000
,  // measure 2
0000
0000
0000
0000
,  // measure 3
1000
0100
0010
0001
0000
0001
1000
0001
,  // measure 4
0000
0010
1000
0001
1100
0100
0010
0100
,  // measure 5
1000
0100
0010
0100
0000
0001
0100
0010
,  // measure 6
0000
0010
1000
0000
0100
0001
0100
0000
,  // measure 7
0010
1000
0100
0001
0000
0010
0100
1000
,  // measure 8
0000
0010
0100
0000
0001
0100
0001
0000
,  // measure 9
0010
1000
0100
0001
0000
0001
0100
0000
,  // measure 10
1000
0010
0100
0001
0010
0100
1000
0010
,  // measure 11
0000
0001
0010
0001
0010
0000
0100
0010
,  // measure 12
0100
1000
0100
0010
0000
1000
0100
0001
,  // measure 13
0110
0000
0011
0000
1100
0000
1010
0101
,  // measure 14
0000
1001
0010
0100
0010
0100
1001
0000
,  // measure 15
0001
0010
0100
1001
0010
0100
0010
0101
,  // measure 16
0001
0010
0100
1001
1000
0000
0010
0100
,  // measure 17
1001
0000
0011
0000
1100
0000
0101
1100
,  // measure 18
0000
1100
0101
0000
0010
0100
0010
0100
,  // measure 19
1000
0100
0010
0001
0000
0010
0100
0010
,  // measure 20
1000
0100
0001
0000
0001
0100
1000
0010
,  // measure 21
0101
0000
1100
0000
0101
0000
0110
0011
,  // measure 22
0100
0000
0010
1000
0100
0001
0010
0100
,  // measure 23
1000
0010
0100
0001
0010
0100
0010
0100
,  // measure 24
1000
0000
0010
0000
0100
0000
0001
0000
1000
0001
1000
0001
1000
0001
1000
0001
,  // measure 25
0010
0010
0100
0100
1000
1000
0101
0000
,  // measure 26
0011
0000
0100
0000
0010
0000
1000
0100
0001
0000
0110
0000
0011
0000
0000
0000
,  // measure 27
1000
0100
0010
0001
0010
0100
1000
0010
,  // measure 28
0101
0101
0101
0000
0001
0010
0100
1000
,  // measure 29
0110
0010
1000
0001
0100
1000
0110
0000
,  // measure 30
0001
1000
0001
1000
0010
1000
0100
0001
,  // measure 31
1000
0100
0010
1000
0100
0010
1000
0000
,  // measure 32
0001
0010
0001
1000
0100
0010
0001
0100
,  // measure 33
0010
0100
0001
0010
0100
1000
0001
0100
,  // measure 34
1000
0000
0011
0100
0110
0000
1100
0000
,  // measure 35
1010
0100
0001
0100
1000
0010
0001
0100
,  // measure 36
1000
1000
0001
0001
1000
1000
0001
0001
,  // measure 37
1000
0100
0001
0010
1000
0100
0001
0010
,  // measure 38
1001
1001
1010
0011
,  // measure 39
1000
0010
0100
0010
0100
0001
0010
0100
,  // measure 40
1000
0000
0010
0000
0100
0000
0001
0000
1000
0000
0010
0000
0001
1000
0001
1000
,  // measure 41
0001
0100
0010
1000
0000
0100
0001
0100
,  // measure 42
0000
1000
0100
0000
0010
1000
0001
0000
,  // measure 43
1000
0001
0100
1000
0000
0100
0001
0100
,  // measure 44
0000
0010
0100
0000
1000
0100
0010
0001
,  // measure 45
0100
1000
0001
0100
0000
0001
0100
0010
,  // measure 46
1000
0100
0010
1000
0100
0010
0001
0100
,  // measure 47
0010
0001
0100
0010
1000
0100
0010
1000
,  // measure 48
0100
0010
0001
0100
0010
0001
0100
0010
,  // measure 49
1000
0100
0010
1001
0010
0100
0010
0100
,  // measure 50
0010
1000
0100
0001
0100
1000
0010
0100
,  // measure 51
0011
1100
1010
0101
,  // measure 52
0001
0010
0100
1000
0010
0100
0001
0010
,  // measure 53
0100
0010
0100
1000
0100
0010
0100
0001
,  // measure 54
0010
0100
1000
0010
0100
0001
0010
0000
,  // measure 55
0100
1000
0100
0001
0100
0010
1000
0100
,  // measure 56
0010
0001
0010
0100
0010
0000
0110
0000
,  // measure 57
1000
0001
0100
0000
0001
0100
0010
0000
,  // measure 58
0110
0000
1100
0100
0011
0010
1100
0000
,  // measure 59
1000
0001
1000
0010
0100
0001
0010
0100
,  // measure 60
1000
0010
0100
1000
0100
0010
0001
0010
,  // measure 61
0100
0000
0010
0000
0001
0010
1000
0100
,  // measure 62
0010
0100
0010
0001
0010
0000
0100
0010
,  // measure 63
0100
1000
0100
0010
0100
0001
0010
0100
,  // measure 64
0001
1000
0001
0010
1000
0100
0001
0010
,  // measure 65
0100
0010
1000
0100
1000
0100
0010
0000
,  // measure 66
0001
0100
1000
0010
0001
0100
0010
1000
,  // measure 67
0100
1100
0001
0110
,  // measure 68
0001
0010
0100
1000
0010
0100
0001
0010
,  // measure 69
1001
0100
0010
0100
0001
0010
0100
1000
,  // measure 70
0010
0100
0001
0010
0100
1000
0010
0100
,  // measure 71
0001
1000
0001
0100
0010
0001
0010
0100
,  // measure 72
1000
0010
0100
0001
0010
0100
1000
0010
,  // measure 73
0001
1000
0001
0000
0010
1000
0010
0100
,  // measure 74
0010
0001
0010
0000
0100
0010
0100
0000
,  // measure 75
1000
0100
0001
0010
0100
1000
0010
0000
,  // measure 76
0100
1000
0100
0000
0110
0100
0110
0100
,  // measure 77
0011
1000
0100
0001
0100
1000
0010
0100
,  // measure 78
0010
1000
0100
0010
0001
0010
0100
1000
,  // measure 79
0010
0100
0001
1000
0001
0010
0100
1000
,  // measure 80
0100
0010
0100
0001
0010
0100
1000
0000
,  // measure 81
1001
1001
1001
1001
,  // measure 82
1000
0100
0001
0100
1000
0100
0001
0010
,  // measure 83
1000
0100
0010
0100
0001
0010
0100
0010
,  // measure 84
1000
0100
0010
0100
0001
1000
0001
0010
,  // measure 85
0100
0010
1000
0100
0001
0010
0100
1000
,  // measure 86
0010
0100
0010
0100
0010
0100
0010
0100
,  // measure 87
1000
0100
0010
0100
0001
0010
0100
1000
,  // measure 88
0010
0100
0001
0010
0100
0010
0100
0001
,  // measure 89
0010
0100
1000
0010
0100
0001
1000
0001
,  // measure 90
1000
0010
0100
0001
1010
0000
0101
0000
,  // measure 91
1000
0100
0001
0100
1000
0100
0001
0100
,  // measure 92
1000
0010
0001
0010
1000
0100
0001
0000
,  // measure 93
1000
0100
0001
0000
1000
0100
0001
0000
,  // measure 94
0010
0100
0110
0000
0010
0100
0110
0000
,  // measure 95
0001
0010
0100
1000
0010
0100
0001
0010
,  // measure 96
1000
0010
0100
0010
1001
0000
0100
0000
,  // measure 97
0010
0100
0010
1000
0100
0010
0100
0001
,  // measure 98
0010
0100
1000
0010
0100
0001
1001
0000
,  // measure 99
0001
0100
0001
0000
1000
0010
1000
0000
,  // measure 100
0001
0010
0100
1000
0010
0100
0001
0000
,  // measure 101
1001
0010
0100
0000
0100
0010
1001
0000
;

//---------------dance-single - ----------------
#NOTES:
     dance-single:
     :
     Medium:
     7:
     0.487,0.457,0.953,0.000,0.000,379.000,147.000,0.000,0.000,0.000:  // measure 1
0000
0000
0000
0000
,  // measure 2
0000
0000
0000
0000
,  // measure 3
0011
0010
0000
0100
,  // measure 4
0000
0010
0011
0100
,  // measure 5
0011
1000
0000
0001
,  // measure 6
0000
0010
0110
0001
,  // measure 7
0011
0100
0000
0001
,  // measure 8
0000
0010
1100
0001
,  // measure 9
0110
0001
0000
0010
,  // measure 10
0011
0100
0011
1000
,  // measure 11
0000
0100
0011
1000
,  // measure 12
0011
1000
0000
1000
,  // measure 13
0011
0010
0101
0010
,  // measure 14
0000
0001
0011
0001
,  // measure 15
1100
0001
0011
0100
,  // measure 16
0101
0001
0011
0010
,  // measure 17
0011
0001
0011
0001
,  // measure 18
0000
0100
1100
1000
,  // measure 19
0110
0100
0000
0010
,  // measure 20
1100
0010
0011
0100
,  // measure 21
1100
0001
0011
0010
,  // measure 22
0011
1000
1100
0100
,  // measure 23
0011
0010
1010
0100
,  // measure 24
0011
0010
0011
0010
,  // measure 25
0110
0010
0110
0010
,  // measure 26
0101
0100
0011
0001
,  // measure 27
0011
0010
1100
1000
,  // measure 28
0011
0010
1010
1000
,  // measure 29
0011
0010
0011
0010
,  // measure 30
1100
0100
0110
1000
,  // measure 31
1100
0100
0110
0010
,  // measure 32
0011
0010
1100
0010
,  // measure 33
0011
0001
1100
0010
,  // measure 34
0011
0010
0011
0001
,  // measure 35
0110
1000
0011
0010
,  // measure 36
0101
0100
0110
0100
,  // measure 37
0011
1000
1100
0001
,  // measure 38
0011
0100
0101
0100
,  // measure 39
0011
0100
0011
1000
,  // measure 40
0110
0010
0011
1000
,  // measure 41
1100
0010
0000
0001
,  // measure 42
0000
0010
1100
1000
,  // measure 43
0110
0001
0000
0010
,  // measure 44
0000
0100
0011
0010
,  // measure 45
1100
0001
0000
0010
,  // measure 46
1010
0001
0011
0010
,  // measure 47
0011
0100
0011
0100
,  // measure 48
0011
0010
1010
0010
,  // measure 49
0110
0001
0011
1000
,  // measure 50
1100
0100
0011
0010
,  // measure 51
1010
0001
0011
0010
,  // measure 52
0011
0100
1100
0010
,  // measure 53
0011
0001
1100
0100
,  // measure 54
0011
0010
0011
0100
,  // measure 55
0011
0010
0011
0001
,  // measure 56
1100
0010
0011
0001
,  // measure 57
0011
0010
0110
0010
,  // measure 58
0011
0001
0101
0001
,  // measure 59
0011
1000
0011
0001
,  // measure 60
0011
1000
0110
0100
,  // measure 61
1100
0010
0011
0010
,  // measure 62
0011
0001
0011
0010
,  // measure 63
0110
1000
1100
1000
,  // measure 64
0110
0001
0011
0010
,  // measure 65
0011
0100
0011
1000
,  // measure 66
1010
0100
0011
0100
,  // measure 67
0011
0100
0011
0010
,  // measure 68
0011
0001
1100
1000
,  // measure 69
0011
0100
0011
1000
,  // measure 70
0011
0010
0011
0001
,  // measure 71
1100
0001
0011
1000
,  // measure 72
0011
0100
0110
0010
,  // measure 73
0011
0010
1100
0100
,  // measure 74
0110
0100
0011
0010
,  // measure 75
0011
0100
0011
0010
,  // measure 76
1100
0010
0011
0001
,  // measure 77
0011
0010
1100
0010
,  // measure 78
0011
0100
0101
0100
,  // measure 79
0011
0001
0011
1000
,  // measure 80
0011
0001
0110
1000
,  // measure 81
1010
0001
0011
0010
,  // measure 82
0011
0001
0011
0010
,  // measure 83
0110
0010
1100
1000
,  // measure 84
0011
0001
0011
1000
,  // measure 85
0010
0100
0001
0100
,  // measure 86
0010
0100
0100
0001
,  // measure 87
0001
1000
0100
0100
,  // measure 88
0001
1000
0100
1000
,  // measure 89
0001
0001
0001
0010
,  // measure 90
0100
0001
0010
0010
,  // measure 91
0100
0100
0010
1000
,  // measure 92
0001
0100
0001
0100
,  // measure 93
0001
0001
0010
0100
,  // measure 94
0001
0100
0001
0001
,  // measure 95
0100
0001
0001
0010
,  // measure 96
0100
1000
0001
0100
,  // measure 97
0001
0100
0001
0001
,  // measure 98
0001
0100
0001
0010
,  // measure 99
0001
0100
0001
1000
,  // measure 100
0001
0100
0100
0010
,  // measure 101
0001
0100
0010
0010
;

//---------------dance-single - ----------------
#NOTES:
     dance-single:
     :
     Easy:
     5:
     0.404,0.425,0.370,0.000,0.000,379.000,57.000,0.000,0.000,0.000:  // measure 1
0000
0000
0000
0000
,  // measure 2
0000
0000
0000
0000
,  // measure 3
1000
0010
0000
1000
,  // measure 4
0000
1000
1100
0010
,  // measure 5
1000
0010
0000
0100
,  // measure 6
0000
1000
0100
0100
,  // measure 7
0010
0100
0000
0100
,  // measure 8
0000
0100
0001
0001
,  // measure 9
0010
0100
0000
0100
,  // measure 10
1000
0100
0010
1000
,  // measure 11
0000
0010
0010
0100
,  // measure 12
0100
0100
0000
0100
,  // measure 13
0110
0011
1100
1010
,  // measure 14
0000
0010
0010
1001
,  // measure 15
0001
0100
0010
0010
,  // measure 16
0001
0100
1000
0010
,  // measure 17
1001
0011
1100
0101
,  // measure 18
0000
0101
0010
0010
,  // measure 19
1000
0010
0000
0100
,  // measure 20
1000
0001
0001
1000
,  // measure 21
0101
1100
0101
0110
,  // measure 22
0100
0010
0100
0010
,  // measure 23
1000
0100
0010
0010
,  // measure 24
1000
0100
1000
1000
,  // measure 25
0010
0100
1000
0101
,  // measure 26
0011
0010
0001
0011
,  // measure 27
1000
0010
0010
1000
,  // measure 28
0101
0101
0001
0100
,  // measure 29
0110
1000
0100
0110
,  // measure 30
0001
0001
0010
0100
,  // measure 31
1000
0010
0100
1000
,  // measure 32
0001
0001
0100
0001
,  // measure 33
0010
0001
0100
0001
,  // measure 34
1000
0011
0110
1100
,  // measure 35
1010
0001
1000
0001
,  // measure 36
1000
0001
1000
0001
,  // measure 37
1000
0001
1000
0001
,  // measure 38
1001
1001
1010
0011
,  // measure 39
1000
0100
0100
0010
,  // measure 40
1000
0100
1000
0001
,  // measure 41
0001
0010
0000
0001
,  // measure 42
0000
0100
0010
0001
,  // measure 43
1000
0100
0000
0001
,  // measure 44
0000
0100
1000
0010
,  // measure 45
0100
0001
0000
0100
,  // measure 46
1000
0010
0100
0001
,  // measure 47
0010
0100
1000
0010
,  // measure 48
0100
0001
0010
0100
,  // measure 49
1000
0010
0010
0010
,  // measure 50
0010
0100
0100
0010
,  // measure 51
0011
1100
1010
0101
,  // measure 52
0001
0100
0010
0001
,  // measure 53
0100
0100
0100
0100
,  // measure 54
0010
1000
0100
0010
,  // measure 55
0100
0100
0100
1000
,  // measure 56
0010
0010
0010
0110
,  // measure 57
1000
0100
0001
0010
,  // measure 58
0110
1100
0011
1100
,  // measure 59
1000
1000
0100
0010
,  // measure 60
1000
0100
0100
0001
,  // measure 61
0100
0010
0001
1000
,  // measure 62
0010
0010
0010
0100
,  // measure 63
0100
0100
0100
0010
,  // measure 64
0001
0001
1000
0001
,  // measure 65
0100
1000
1000
0010
,  // measure 66
0001
1000
0001
0010
,  // measure 67
0100
1100
0001
0110
,  // measure 68
0001
0100
0010
0001
,  // measure 69
1001
0010
0001
0100
,  // measure 70
0010
0001
0100
0010
,  // measure 71
0001
0001
0010
0010
,  // measure 72
1000
0100
0010
1000
,  // measure 73
0001
0001
0010
0010
,  // measure 74
0010
0010
0100
0100
,  // measure 75
1000
0001
0100
0010
,  // measure 76
0100
0100
0110
0110
,  // measure 77
0011
0100
0100
0010
,  // measure 78
0010
0100
0001
0100
,  // measure 79
0010
0001
0001
0100
,  // measure 80
0100
0100
0010
1000
,  // measure 81
1001
1001
1001
1001
,  // measure 82
1000
0001
1000
0001
,  // measure 83
1000
0010
0001
0100
,  // measure 84
1000
0010
0001
0001
,  // measure 85
0100
1000
0001
0100
,  // measure 86
0010
0010
0010
0010
,  // measure 87
1000
0010
0001
0100
,  // measure 88
0010
0001
0100
0100
,  // measure 89
0010
1000
0100
1000
,  // measure 90
1000
0100
1010
0101
,  // measure 91
1000
0001
1000
0001
,  // measure 92
1000
0001
1000
0001
,  // measure 93
1000
0001
1000
0001
,  // measure 94
0010
0110
0010
0110
,  // measure 95
0001
0100
0010
0001
,  // measure 96
1000
0100
1001
0100
,  // measure 97
0010
0010
0100
0100
,  // measure 98
0010
1000
0100
1001
,  // measure 99
0001
0001
1000
1000
,  // measure 100
0001
0100
0010
0001
,  // measure 101
1001
0100
0100
1001
;
