#TITLE:Release Me;
#SUBTITLE:;
#ARTIST:Datsik;
#TITLETRANSLIT:;
#SUBTITLETRANSLIT:;
#ARTISTTRANSLIT:;
#CREDIT:;
#BANNER:../Wubstream - ban.png;
#BACKGROUND:../Wubstream - bg.png;
#LYRICSPATH:;
#CDTITLE:;
#MUSIC:Datsik - Release Me.ogg;
#OFFSET:-0.181;
#SAMPLESTART:35.276;
#SAMPLELENGTH:12.000;
#SELECTABLE:YES;
#BPMS:0.000=140.000;
#STOPS:;
#BGCHANGES:;
// cache tags:
#FIRSTBEAT:11.000;
#LASTBEAT:327.000;
#SONGFILENAME:Songs/Wubstream/Release Me - [Rynker]/release me.sm;
#HASMUSIC:1;
#HASBANNER:1;
#MUSICLENGTH:141.157;
// end cache tags

//---------------dance-single - Rynker----------------
#NOTES:
     dance-single:
     Rynker:
     Challenge:
     15:
     1.000,1.000,0.000,0.092,1.000,1096.000,0.000,13.000,0.000,0.000:



0000
0000
0000
0000
,
0000
0000
0000
0000
,
0000
0000
0000
0000
0000
0000
1000
1000
,
0001
0010
0100
0000
1000
0010
0100
0000
,
0001
0000
0000
0010
0000
0000
0200
0000
0000
0000
0000
0000
1300
0000
0001
0000
0100
0000
0010
0000
0000
1000
0000
0000
,
0001
0100
0010
0000
1000
0100
0010
0000
,
0001
0000
0100
0000
0010
0000
1000
0000
0001
0100
0010
1000
0001
0000
1000
0000
,
0100
0000
0000
1000
0000
0000
0010
0000
0000
0000
0000
0000
0100
0000
0000
0001
0000
0000
0010
0000
0000
0000
0100
0000
,
0000
0000
1000
0000
0000
0000
0001
0000
0100
0000
0010
0000
0100
0000
0001
0000
0010
0000
0001
0000
0000
0010
0000
0000
,
0100
1000
0010
0000
0100
0001
0010
0000
,
0100
0000
1000
0000
0010
0000
0100
0000
0001
0100
0010
1000
0100
0000
0010
0000
,
0001
1000
0010
0000
1000
0001
0010
0000
,
0001
0000
0000
1000
0000
0000
0010
0000
0000
0000
0100
0000
0001
0000
1000
0000
0100
0000
0010
0000
0000
0001
0000
0000
,
1000
0001
0100
0000
0001
1000
0100
0000
,
1000
0000
0001
0000
0100
0000
0010
0000
1000
0001
0010
0100
1000
0000
0001
0000
,
0100
0010
1000
0000
0100
0010
0002
0000
,
0023
0000
0000
0000
0000
0000
0230
0000
0000
0000
0000
0000
0000
0000
0300
0000
0000
0000
1000
0001
0100
0010
0100
0001
,
1000
0001
0100
0010
0100
0001
1000
0010
0100
0001
1000
0010
0100
0010
1000
0001
0100
0001
1000
0100
0010
0001
0010
0100
,
1000
0001
1000
0100
0010
0001
1000
0001
0010
0100
1000
0100
0010
0100
1000
0001
1000
0001
0100
0010
0100
0001
1000
0010
,
0100
0010
1000
0001
0100
0010
0100
0001
1000
0010
0100
0001
1000
0100
0010
0001
1000
0010
1000
0001
0010
0100
1000
0001
,
0100
0010
1000
0010
0100
0001
1000
0010
0100
0001
0100
0010
1000
0001
0100
0010
1000
0001
0010
0100
1000
0100
0010
0001
,
1000
0100
0010
0100
1000
0001
0010
0100
1000
0001
1000
0001
0010
0001
0010
0100
1000
0001
0100
0010
0100
0001
1000
0010
,
1000
0010
0100
0001
1000
0010
0100
0010
1000
0001
0100
0010
1000
0010
0100
0001
1000
0001
0010
0100
1000
0100
0010
0001
,
1000
0100
0010
0100
1000
0001
0010
0100
0010
0001
1000
0001
0100
0010
1000
0001
0010
0100
1000
0001
0100
0010
0100
0001
,
1000
0010
0100
0010
1000
0001
1000
0001
0100
0010
0100
0001
1000
0010
0100
0010
1000
0001
0010
0100
1000
0100
0010
0001
,
1000
0010
0100
0010
1000
0001
0010
0100
1000
0100
0010
0001
1000
0010
0100
0001
0010
0001
0100
0010
1000
0010
0100
0001
,
1000
0001
0100
0010
1000
0001
0010
0100
1000
0100
0010
0001
1000
0001
1000
0100
0010
0001
0100
0010
1000
0010
0100
0001
,
1000
0100
0010
0100
1000
0001
1000
0010
1000
0010
0100
0001
0010
0100
1000
0010
1000
0100
0010
0001
0010
0100
1000
0001
,
1000
0010
0100
0010
1000
0001
0010
0100
1000
0100
0010
0001
1000
0010
0100
0010
1000
0100
0010
0001
0100
0010
1000
0100
,
0010
0100
1000
0001
1000
0010
0100
0010
1000
0001
0010
0100
1000
0001
1000
0010
1000
0010
1000
0100
0010
0001
0010
0100
,
1000
0001
1000
0010
0100
0010
1000
0001
0010
0100
1000
0001
1000
0010
1000
0010
0100
0001
0010
0100
1000
0001
1000
0010
,
0100
0010
1000
0001
0010
0100
1000
0100
0010
0001
1000
0010
1000
0100
0010
0001
0100
0010
1000
0001
0010
0100
1000
0100
,
0010
0000
0001
0000
1000
0000
0010
0000
0100
0000
0010
0000
1000
0000
0001
0000
0010
0000
0100
0000
1000
0000
0100
0000
0010
0000
0001
0000
1000
0000
0010
0000
0100
0000
0010
0000
1000
0000
0000
0001
0000
0000
1000
0000
0000
0000
0000
0000
,
0001
0100
0001
0000
1000
0100
1000
0000
0001
0010
0001
0000
1000
0010
1000
0000
,
0001
0000
0100
0000
0001
1000
0000
0001
0010
0000
0000
0000
0001
0010
0001
0000
,
1000
0100
1000
0000
0001
0100
0001
0000
1000
0010
1000
0000
0001
0010
0100
0000
,
1000
0000
0100
0000
0010
0001
0000
1000
0010
0000
0000
0000
0100
0001
0100
0000
,
0010
1000
0010
0000
1000
0100
1000
0000
0001
0010
0001
0000
1000
0010
1000
0000
,
0001
0000
0100
0000
0010
1000
0000
0001
0010
0000
0000
0000
0100
1000
0100
0000
,
0010
0001
0010
0000
0001
1000
0001
0000
1000
0010
1000
0000
0001
0100
0001
0000
,
1000
0000
0010
0000
0100
0001
0000
1000
0100
0000
0000
0000
2000
0000
0000
0000
,
0000
0000
0000
3002
,
0000
0000
0000
0203
,
0000
0000
0000
0320
,
0000
0000
0000
1030
,
0100
1000
0010
0100
,
0001
0000
0010
0000
0100
0000
1000
0010
,
0100
0001
0010
0100
1000
0001
0200
0000
,
0000
0000
0000
0000
0000
0300
0001
0001
,
0010
0100
1000
0000
0010
0100
0001
0000
,
0010
0000
0100
0000
1000
0000
0001
0000
0100
0010
1000
0001
1000
0000
0001
0000
,
1000
0100
0010
0000
0001
0100
0010
0000
,
1000
0000
0000
0100
0000
0000
0020
0000
0000
0000
0000
0000
0031
0000
1000
0000
0010
0000
0100
0000
0000
0001
0000
0000
,
1000
0010
0100
0000
0001
0010
0100
0000
,
1000
0000
0010
0000
0100
0000
0001
0000
1000
0010
0100
0001
1000
0000
0001
0000
,
0010
0000
0000
0001
0000
0000
0100
0000
0000
0000
0000
0000
0010
0000
0000
1000
0000
0000
0100
0000
0000
0000
0010
0000
,
0000
0000
0001
0000
0000
0000
1000
0000
0010
0000
0100
0000
0010
0000
1000
0000
0100
0000
1000
0000
0000
0100
0000
0000
,
0010
0001
0100
0000
0010
1000
0100
0000
,
0010
0000
0001
0000
0100
0000
0010
0000
1000
0010
0100
0001
0010
0000
0100
0000
,
1000
0001
0100
0000
0001
1000
0100
0000
,
1000
0000
0000
0001
0000
0000
0100
0000
0000
0000
0010
0000
1000
0000
0001
0000
0010
0000
0100
0000
0000
1000
0000
0000
,
0001
1000
0010
0000
1000
0001
0010
0000
,
0001
0000
1000
0000
0010
0000
0100
0000
0001
1000
0100
0010
0001
0000
1000
0000
,
0010
0100
0001
0000
0010
0100
2000
0000
,
3200
0000
0000
0000
0000
0000
0320
0000
0000
0000
0000
0000
0000
0000
0030
0000
0000
0000
0001
1000
0010
0100
0010
1000
,
0001
1000
0010
0100
0010
1000
0001
0100
0010
1000
0001
0100
0010
0100
0001
1000
0010
1000
0001
0010
0100
1000
0100
0010
,
0001
1000
0001
0010
0100
1000
0001
1000
0100
0010
0001
0010
0100
0010
0001
1000
0001
1000
0010
0100
0010
1000
0001
0100
,
0010
0100
0001
1000
0010
0100
0010
1000
0001
0100
0010
1000
0001
0010
0100
1000
0001
0100
0001
1000
0100
0010
0001
1000
,
0010
0100
0001
0100
0010
1000
0001
0100
0010
1000
0010
0100
0001
1000
0010
0100
0001
1000
0100
0010
0001
0010
0100
1000
,
0001
0010
0100
0010
0001
1000
0100
0010
0001
1000
0001
1000
0100
1000
0100
0010
0001
1000
0010
0100
0010
1000
0001
0100
,
0001
0100
0010
1000
0001
0100
0010
0100
0001
1000
0010
0100
0001
0100
0010
1000
0001
1000
0100
0010
0001
0010
0100
1000
,
0001
0010
0100
0010
0001
1000
0100
0010
0100
1000
0001
1000
0010
0100
0001
1000
0100
0010
0001
1000
0010
0100
0010
1000
,
0001
0100
0010
0100
0001
1000
0001
1000
0010
0100
0010
1000
0001
0100
0010
0100
0001
1000
0100
0010
0001
0010
0100
1000
,
0001
0100
0010
0100
0001
1000
0100
0010
0001
0010
0100
1000
0001
0100
0001
1000
0100
1000
0010
0100
0001
0100
0010
1000
,
0001
1000
0010
0100
0001
1000
0100
0010
0001
0010
0100
1000
0001
1000
0001
0010
0100
1000
0010
0100
0001
0100
0010
1000
,
0001
0010
0100
0010
0001
1000
0001
0100
0001
0100
0010
1000
0100
0010
0001
0100
0001
0010
0100
1000
0100
0010
0001
1000
,
0001
0100
0010
0100
0001
1000
0100
0010
0001
0010
0100
1000
0001
0100
0010
0100
0001
0010
0100
1000
0010
0100
0001
0010
,
0100
0010
0001
1000
0001
0100
0010
0100
0001
1000
0100
0010
0001
1000
0001
0100
0010
0100
0001
0010
0100
1000
0100
0010
,
0001
1000
0001
0100
0010
0100
0001
1000
0100
0010
0001
1000
0001
0100
0001
0100
0010
1000
0100
0010
0001
1000
0001
0100
,
0010
0100
0001
1000
0100
0010
0001
0010
0100
1000
0001
0100
0001
0010
0100
1000
0010
0100
0001
1000
0100
0010
0001
0010
,
0100
1000
0001
0100
0010
0100
0001
1000
0100
0010
0001
0010
0100
1000
0001
0100
0010
0100
0001
0000
0000
0000
0000
0000
;

//---------------dance-single - Rynker----------------
#NOTES:
     dance-single:
     Rynker:
     Hard:
     11:
     0.863,0.956,0.000,0.092,1.000,840.000,0.000,13.000,1.000,0.000:

0000
0000
0000
0000
,
0000
0000
0000
0000
,
0000
0000
0000
0000
0000
0000
1000
1000
,
0001
0010
0100
0000
1000
0010
0100
0000
,
0001
0000
0000
0010
0000
0000
0200
0000
0000
0000
0000
0000
1300
0000
0001
0000
0100
0000
0010
0000
0000
1000
0000
0000
,
0001
0100
0010
0000
1000
0100
0010
0000
,
0001
0000
0100
0000
0010
0000
1000
0000
0001
0100
0010
1000
0001
0000
1000
0000
,
0100
0000
0000
1000
0000
0000
0010
0000
0000
0000
0000
0000
0100
0000
0000
0001
0000
0000
0010
0000
0000
0000
0100
0000
,
0000
0000
1000
0000
0000
0000
0001
0000
0100
0000
0010
0000
0100
0000
0001
0000
0010
0000
0001
0000
0000
0010
0000
0000
,
0100
1000
0010
0000
0100
0001
0010
0000
,
0100
0000
1000
0000
0010
0000
0100
0000
0001
0100
0010
1000
0100
0000
0010
0000
,
0001
1000
0010
0000
1000
0001
0010
0000
,
0001
0000
0000
1000
0000
0000
0010
0000
0000
0000
0100
0000
0001
0000
1000
0000
0100
0000
0010
0000
0000
0001
0000
0000
,
1000
0001
0100
0000
0001
1000
0100
0000
,
1000
0000
0001
0000
0100
0000
0010
0000
1000
0001
0010
0100
1000
0000
0001
0000
,
0100
0010
1000
0000
0100
0010
0002
0000
,
0023
0000
0000
0000
0000
0000
0000
0000
0000
0000
0000
0000
0230
0000
0000
0000
0000
0000
0000
0000
0000
0000
0000
0000
0000
0000
0000
0000
0300
0000
0000
0000
0000
0000
0000
0000
1000
0000
0000
0001
0000
0000
0100
0000
0000
0010
0000
0000
,
1000
0010
0100
0001
1000
0100
0010
0100
1000
0001
0010
0100
1000
0010
0100
0001
,
0010
0001
0100
0001
1000
0001
0100
0010
1000
0010
0100
0001
0010
0100
1000
0010
,
0100
0010
1000
0001
0010
0001
1000
0010
1000
0100
0010
0001
0100
0010
1000
0100
,
0010
0001
1000
0001
0100
0010
1000
0001
0100
0001
1000
0010
0100
0001
0010
0100
,
1000
0100
1000
0010
0100
0001
0010
0100
0010
0001
0100
0010
1000
0100
1000
0010
,
0100
0001
0010
0001
1000
0010
1000
0100
1000
0001
0010
0001
0100
0010
1000
0100
,
1000
0010
0100
0001
1000
0010
1000
0010
1000
0100
0010
0001
0100
0010
1000
0100
,
0010
0001
1000
0010
1000
0100
0010
0001
1000
0001
1000
0010
0100
0001
0010
0100
,
1000
0001
1000
0010
0100
0001
0100
0010
1000
0100
0010
0001
0100
0010
1000
0100
,
1000
0010
0100
0001
1000
0010
0100
0001
1000
0100
0010
0001
0100
0010
1000
0100
,
1000
0001
0100
0001
0010
0100
1000
0001
0100
0001
0010
0100
1000
0010
0100
0001
,
0100
0010
1000
0001
0100
0001
0010
0100
0010
0001
0100
0010
1000
0100
1000
0010
,
0100
0001
1000
0010
1000
0001
0010
0100
0010
0001
1000
0010
0100
0001
0010
0001
,
0100
0010
1000
0100
0010
0100
1000
0001
0100
0010
1000
0100
0010
0001
0100
0010
,
1000
0001
1000
0001
0010
0001
1000
0001
0100
0010
1000
0001
0010
0100
1000
0100
,
0010
0001
0100
0010
1000
0001
0010
0100
1000
0100
0010
0001
1000
0001
1000
0000
,
0001
0100
0001
0000
1000
0100
1000
0000
0001
0010
0001
0000
1000
0010
1000
0000
,
0001
0000
0100
0000
0001
1000
0000
0001
0010
0000
0000
0000
0001
0010
0001
0000
,
1000
0100
1000
0000
0001
0100
0001
0000
1000
0010
1000
0000
0001
0010
0100
0000
,
1000
0000
0100
0000
0010
0001
0000
1000
0010
0000
0000
0000
0100
0001
0100
0000
,
0010
1000
0010
0000
1000
0100
1000
0000
0001
0010
0001
0000
1000
0010
1000
0000
,
0001
0000
0100
0000
0010
1000
0000
0001
0010
0000
0000
0000
0100
1000
0100
0000
,
0010
0001
0010
0000
0001
1000
0001
0000
1000
0010
1000
0000
0001
0100
0001
0000
,
1000
0000
0010
0000
0100
0001
0000
1000
0100
0000
0000
0000
2000
0000
0000
0000
,
0000
0000
0000
3002
,
0000
0000
0000
0203
,
0000
0000
0000
0320
,
0000
0000
0000
1030
,
0100
1000
0010
0100
,
0001
0000
0010
0000
0100
0000
1000
0010
,
0100
0001
0010
0100
1000
0001
0200
0000
,
0000
0000
0000
0000
0000
0300
0001
0001
,
0010
0100
1000
0000
0010
0100
0001
0000
,
0010
0000
0100
0000
1000
0000
0001
0000
0100
0010
1000
0001
1000
0000
0001
0000
,
1000
0100
0010
0000
0001
0100
0010
0000
,
1000
0000
0000
0100
0000
0000
0020
0000
0000
0000
0000
0000
0031
0000
1000
0000
0010
0000
0100
0000
0000
0001
0000
0000
,
1000
0010
0100
0000
0001
0010
0100
0000
,
1000
0000
0010
0000
0100
0000
0001
0000
1000
0010
0100
0001
1000
0000
0001
0000
,
0010
0000
0000
0001
0000
0000
0100
0000
0000
0000
0000
0000
0010
0000
0000
1000
0000
0000
0100
0000
0000
0000
0010
0000
,
0000
0000
0001
0000
0000
0000
1000
0000
0010
0000
0100
0000
0010
0000
1000
0000
0100
0000
1000
0000
0000
0100
0000
0000
,
0010
0001
0100
0000
0010
1000
0100
0000
,
0010
0000
0001
0000
0100
0000
0010
0000
1000
0010
0100
0001
0010
0000
0100
0000
,
1000
0001
0100
0000
0001
1000
0100
0000
,
1000
0000
0000
0001
0000
0000
0100
0000
0000
0000
0010
0000
1000
0000
0001
0000
0010
0000
0100
0000
0000
1000
0000
0000
,
0001
1000
0010
0000
1000
0001
0010
0000
,
0001
0000
1000
0000
0010
0000
0100
0000
0001
1000
0100
0010
0001
0000
1000
0000
,
0010
0100
0001
0000
0010
0100
2000
0000
,
3200
0000
0000
0000
0000
0000
0000
0000
0000
0000
0000
0000
0320
0000
0000
0000
0000
0000
0000
0000
0000
0000
0000
0000
0000
0000
0000
0000
0030
0000
0000
0000
0000
0000
0000
0000
0001
0000
0000
1000
0000
0000
0010
0000
0000
0100
0000
0000
,
0001
0100
0010
1000
0001
0010
0100
0010
0001
1000
0100
0010
0001
0100
0010
1000
,
0100
1000
0010
1000
0001
1000
0010
0100
0001
0100
0010
1000
0100
0010
0001
0100
,
0010
0100
0001
1000
0100
1000
0001
0100
0001
0010
0100
1000
0010
0100
0001
0010
,
0100
1000
0001
1000
0010
0100
0001
1000
0010
1000
0001
0100
0010
1000
0100
0010
,
0001
0010
0001
0100
0010
1000
0100
0010
0100
1000
0010
0100
0001
0010
0001
0100
,
0010
1000
0100
1000
0001
0100
0001
0010
0001
1000
0100
1000
0010
0100
0001
0010
,
0001
0100
0010
1000
0001
0100
0001
0100
0001
0010
0100
1000
0010
0100
0001
0010
,
0100
1000
0001
0100
0001
0010
0100
1000
0001
1000
0001
0100
0010
1000
0100
0010
,
0001
1000
0001
0100
0010
1000
0010
0100
0001
0010
0100
1000
0010
0100
0001
0010
,
0001
0100
0010
1000
0001
0100
0010
1000
0001
0010
0100
1000
0010
0100
0001
0010
,
0001
1000
0010
1000
0100
0010
0001
1000
0010
1000
0100
0010
0001
0100
0010
1000
,
0010
0100
0001
1000
0010
1000
0100
0010
0100
1000
0010
0100
0001
0010
0001
0100
,
0010
1000
0001
0100
0001
1000
0100
0010
0100
1000
0001
0100
0010
1000
0100
1000
,
0010
0100
0001
0010
0100
0010
0001
1000
0010
0100
0001
0010
0100
1000
0010
0100
,
0001
1000
0001
1000
0100
1000
0001
1000
0010
0100
0001
1000
0100
0010
0001
0010
,
0100
1000
0010
0100
0001
1000
0100
0010
0001
0010
0100
1000
0001
0000
0000
0000
,
0000
0000
0000
M000
;
