#TITLE:Ice Cap Zone Act 2;
#SUBTITLE:;
#ARTIST:Paul Stetich;
#TITLETRANSLIT:;
#SUBTITLETRANSLIT:;
#ARTISTTRANSLIT:;
#CREDIT:;
#BANNER:BN.PNG;
#BACKGROUND:BG.PNG;
#LYRICSPATH:;
#CDTITLE:ov1_title.png;
#MUSIC:Ice Cap Zone Act 2.mp3;
#OFFSET:-11.340;
#SAMPLESTART:44.800;
#SAMPLELENGTH:29.999;
#SELECTABLE:YES;
#BPMS:0.000=170.400;
#STOPS:;
#BGCHANGES:;
// cache tags:
#FIRSTBEAT:0.000;
#LASTBEAT:738.000;
#SONGFILENAME:Songs/Owenviau1 Simfiles 4/Ice Cap Zone Act 2 - Paul Stetich [owenviau1]/Ice Cap Zone Act 2.sm;
#HASMUSIC:1;
#HASBANNER:1;
#MUSICLENGTH:278.920;
// end cache tags

//---------------dance-single - ----------------
#NOTES:
     dance-single:
     :
     Challenge:
     12:
     1.000,1.000,1.000,0.079,0.506,1732.000,501.000,22.000,0.000,0.000:
0101
0010
1010
0001
0110
1000
1001
0010
,
0101
1000
0110
0001
1100
0010
1001
0010
,
0101
1000
0011
1000
0110
0001
1001
0100
,
1100
0010
1001
1000
0110
0001
0011
1000
,
0110
0001
1100
0010
1001
0100
1010
0001
,
0101
0010
0011
1000
1100
0010
1001
0001
,
0110
1000
1001
0010
0101
1000
0011
0001
,
0110
0000
1000
0000
1001
0000
0010
0000
1000
0100
0010
0001
1000
0000
0010
0100
,
1001
0010
1010
0001
0110
1000
1001
0010
,
0101
1000
0110
0001
1100
0010
1001
0010
,
0101
1000
0011
1000
0110
0001
1001
0100
,
1100
0010
1001
1000
0110
0001
0011
1000
,
0110
0001
1100
0010
1001
0100
1010
0001
,
0101
0010
0011
1000
1100
0010
1001
0001
,
0110
1000
1001
0010
0101
1000
0011
0001
,
0110
1000
1001
0100
0110
1000
0101
0010
,
1001
0100
0110
1000
1001
0010
0101
0010
,
0011
1000
0110
0001
1100
0010
1001
0100
,
1010
0001
0110
0010
0101
1000
0011
0100
,
1001
1000
0110
0001
1010
0100
1001
0100
,
1010
0001
0110
1000
1001
0010
1100
0001
,
0011
1000
0110
0001
1100
0001
0011
1000
,
1100
0001
0110
1000
0101
0010
1001
0010
,
0110
0000
1000
0000
1001
0000
0010
0000
0101
0000
1000
0000
0010
1000
0001
0100
,
1001
0010
1010
0001
0110
1000
1001
0010
,
0101
1000
0110
0001
1100
0010
1001
0010
,
0101
1000
0011
1000
0110
0001
1001
0100
,
1100
0010
1001
1000
0110
0001
0011
1000
,
0110
0001
1100
0010
1001
0100
1010
0001
,
0101
0010
0011
1000
1100
0010
1001
0001
,
0110
1000
1001
0010
0101
1000
0011
0100
,
1001
0010
1010
0001
0110
1000
1001
0010
,
0101
1000
0110
0001
1100
0010
1001
0010
,
0101
1000
0011
1000
0110
0001
1001
0100
,
1100
0010
1001
1000
0110
0001
0011
1000
,
0110
0001
1100
0010
1001
0100
1010
0001
,
0101
0010
0011
1000
1100
0010
1001
0001
,
0110
1000
1001
0010
0101
1000
1001
0001
,
0110
1000
1001
0010
1100
0001
0110
1000
,
1001
0000
0010
0000
0101
0000
0010
0000
1000
0100
0010
0001
1000
0001
0100
0010
,
1001
0100
1010
0001
0110
1000
1001
0010
,
0101
1000
0110
0001
1100
0010
1001
0010
,
0101
1000
0011
1000
0110
0001
1001
0100
,
1100
0010
1001
1000
0110
0001
0011
1000
,
0110
0001
1100
0010
1001
0100
1010
0001
,
0101
0010
0011
1000
1100
0010
1001
0001
,
0110
1000
1001
0010
0101
1000
0011
0001
,
0110
1000
1001
0100
0110
1000
0101
0010
,
1001
0100
0110
1000
1001
0010
0101
0010
,
0011
1000
0110
0001
1100
0010
1001
0100
,
1010
0001
0110
0010
0101
1000
0011
0100
,
1001
1000
0110
0001
1010
0100
1001
0100
,
1010
0001
0110
1000
1001
0010
1100
0001
,
0011
1000
0110
0001
1100
0001
0011
1000
,
1100
0001
0110
1000
0101
0010
1001
0010
,
0110
1000
1001
0010
0101
1000
0110
0001
,
1000
0100
0010
0001
1000
0010
0100
0001
0010
0001
0100
0010
1000
0100
0010
0001
,
0010
0100
1000
0010
1000
0001
0100
0001
1000
0010
1000
0100
0010
0001
0100
0001
,
0010
0100
0001
0010
0100
1000
0010
0100
0010
1000
0001
0100
0010
1000
0001
1000
,
0100
1000
0010
0100
0001
0010
0001
0100
0010
1000
0100
0010
0001
1000
0100
0010
,
0001
1000
0010
0100
0001
1000
0010
0100
0001
1000
0010
0100
1000
0100
0010
0001
,
0010
0100
1000
0010
1000
0001
0100
0001
1000
0010
1000
0100
0010
0001
0100
0001
,
0010
0100
0001
0010
0100
1000
0010
0100
0010
1000
0001
0100
0010
1000
0001
1000
,
0100
1000
0010
0100
0001
0010
0001
0100
0010
1000
0100
0010
0001
1000
0100
0010
,
0001
1000
0010
0100
1000
0100
0010
0001
0010
0100
1000
0010
1000
0001
0100
0001
,
1000
0010
1000
0100
0010
0001
0100
0001
0010
0100
0001
0010
0100
1000
0010
0100
,
0010
1000
0001
0100
0010
1000
0001
1000
0100
1000
0010
0100
0001
0010
0001
0100
,
0010
1000
0100
0010
0001
1000
0100
0010
0001
1000
0010
0100
1000
0100
0010
0001
,
0010
0100
1000
0010
1000
0001
0100
0001
1000
0010
1000
0100
0010
0001
0100
0001
,
0010
0100
0001
0010
0100
1000
0010
0100
0010
1000
0001
0100
0010
1000
0001
1000
,
0100
1000
0010
0100
0001
0010
0001
0100
0010
1000
0100
0010
0001
1000
0100
0010
,
0001
1000
0001
0010
0100
1000
0001
0100
0001
1000
0100
0010
0001
1000
0010
0100
,
1001
0010
1010
0001
0110
1000
1001
0010
,
0101
1000
0110
0001
1100
0010
1001
0010
,
0101
1000
0011
1000
0110
0001
1001
0100
,
1100
0010
1001
1000
0110
0001
0011
1000
,
0110
0001
1100
0010
1001
0100
1010
0001
,
0101
0010
0011
1000
1100
0010
1001
0001
,
0110
1000
1001
0010
0101
1000
0011
0001
,
0110
1000
0101
0010
1100
0001
1001
0110
,
1001
0010
1010
0001
0110
1000
1001
0010
,
0101
1000
0110
0001
1100
0010
1001
0010
,
0101
1000
0011
1000
0110
0001
1001
0100
,
1100
0010
1001
1000
0110
0001
0011
1000
,
0110
0001
1100
0010
1001
0100
1010
0001
,
0101
0010
0011
1000
1100
0010
1001
0001
,
0110
1000
1001
0010
0101
1000
0011
1000
,
0010
0100
0001
1000
0100
0010
0001
1000
0001
0100
0010
1000
0010
0100
0001
0100
,
0010
1000
0010
0000
0100
0001
0100
0000
1000
0100
0010
0000
0001
0100
0010
0000
,
1000
0001
0100
0000
0010
1000
0001
0000
0100
0001
1000
0000
0010
1000
0100
0000
,
0001
0100
0010
0000
1000
0100
0010
0000
0001
0010
0100
0000
1000
0100
0010
0000
,
0001
0010
0100
0000
1000
0001
1000
0000
0010
0100
0010
0000
1000
0100
1000
0000
,
0001
0010
0001
0000
0100
0001
0100
0000
0010
1000
0010
0000
1000
0001
1000
0000
,
0001
0010
0100
0000
1000
0100
0010
0000
1000
0001
0100
0000
0010
1000
0001
0000
,
0100
0001
1000
0000
1000
0100
0010
0000
0001
1000
0010
0000
0100
0001
0100
0000
,
1000
0100
0010
0000
0001
0100
0010
0000
1000
0001
0100
0000
0010
1000
0001
0000
,
0100
0001
1000
0000
0010
1000
0100
0000
0001
0100
0010
0000
1000
0100
0010
0000
,
0001
0010
0100
0000
1000
0100
0010
0000
0001
0010
0100
0000
1000
0001
1000
0000
,
0010
0100
0010
0000
1000
0100
1000
0000
0001
0010
0001
0000
0100
0001
0100
0000
,
0010
1000
0010
0000
1000
0001
1000
0000
0001
0010
0100
0000
1000
0100
0010
0000
,
1000
0001
0100
0000
0010
1000
0001
0000
0100
0001
1000
0000
0001
0100
0010
0000
,
1000
0001
0010
0000
1000
0001
0100
0000
1000
0100
0010
0000
0001
0100
0010
0000
,
1000
0001
0100
0000
0010
1000
0001
0000
0100
0001
1000
0000
0010
1000
0100
0000
,
0001
0010
0100
1000
0010
1000
0001
0100
0001
1000
0100
0010
0001
1000
0001
0100
,
0010
1000
0001
0100
0010
1000
0010
0100
,
0001
0010
0100
1000
0001
0100
0010
1000
,
0001
1000
0100
0001
0010
0100
0001
1000
,
0010
1000
0001
0100
0010
1000
0001
0100
,
1001
0010
1000
0100
0010
1000
0001
0100
,
0010
0100
1000
0001
0100
0010
1000
0100
,
0010
0001
1000
0100
0001
1000
0010
0001
,
0100
1000
0001
0100
0010
1000
0001
0100
,
1001
0100
1000
0001
0010
1000
0010
0001
,
0010
0100
1000
0100
0001
0100
1000
0010
,
0100
0001
1000
0100
0010
0001
0100
0001
,
0010
0100
1000
0010
0100
0001
1000
0010
,
1001
0100
0001
1000
0001
0100
0010
1000
,
0010
0100
0001
0010
0001
0100
0010
1000
,
0100
0001
0100
1000
0100
0010
0001
0100
,
0010
1000
0010
0100
0001
1000
0001
0100
,
1010
0100
1001
0010
0101
1000
1010
0100
,
0011
0010
1100
1000
0011
0100
1001
0010
,
0110
0001
1001
0100
1010
0001
0110
1000
,
0101
0010
1001
0001
0110
1000
0011
0010
,
0101
0100
1010
0001
1100
0001
0110
1000
,
0101
0010
1001
0100
0110
0001
1010
1000
,
0110
1000
0011
0010
0101
0010
1001
1000
,
0110
0010
0101
1000
1010
0001
0110
0100
,
1001
0100
0010
0001
1000
0010
1000
0100
0010
0001
0010
0100
1000
0010
0100
0001
,
0100
0010
1000
0010
0100
0001
0010
0100
1000
0010
1000
0100
0010
0100
1000
0001
,
0100
0010
0100
0001
1000
0100
0010
0001
0100
0010
1000
0001
0010
0100
1000
0010
,
0100
0001
1000
0001
1000
0010
1000
0100
0010
0001
0010
0100
1000
0010
0100
0001
,
0100
0010
1000
0010
0100
0001
0010
0100
1000
0010
1000
0100
0010
0100
1000
0001
,
0100
0010
0100
0001
1000
0100
0010
0001
0100
0010
1000
0001
0010
0100
1000
0010
,
0100
0001
1000
0010
0100
0001
0010
0100
1000
0010
1000
0100
0010
0100
1000
0001
,
0100
0010
0100
0001
1000
0100
0010
0001
0100
0010
1000
0001
0010
0100
1000
0010
,
1001
0010
1010
0001
0110
1000
1001
0010
,
0101
1000
0110
0001
1100
0010
1001
0010
,
0101
1000
0011
1000
0110
0001
1001
0100
,
1100
0010
1001
1000
0110
0001
0011
1000
,
0110
0001
1100
0010
1001
0100
1010
0001
,
0101
0010
0011
1000
1100
0010
1001
0001
,
0110
1000
1001
0010
0101
1000
0011
1000
,
0101
0010
1010
0001
0110
1000
1001
0010
,
0101
1000
0110
0001
1100
0010
1001
0010
,
0101
1000
0011
1000
0110
0001
1001
0100
,
1100
0010
1001
1000
0110
0001
0011
1000
,
0110
0001
1100
0010
1001
0100
1010
0001
,
0101
0010
0011
1000
1100
0010
1001
0001
,
0110
1000
1001
0010
0101
1000
0011
0100
,
1010
0001
1100
0001
0110
1000
1001
0010
,
0101
0000
1000
0000
0110
0000
0001
0000
1000
0001
0100
0010
1000
0100
0010
0001
,
1010
0001
1100
0010
1001
0100
1010
0001
,
0101
0010
0011
1000
1100
0010
1001
0001
,
0110
1000
1001
0010
0101
1000
0011
0100
,
1010
0001
1100
0001
0110
1000
1001
0010
,
1001
0001
1100
0010
1001
0100
1010
0001
,
0101
0010
0011
1000
1100
0010
1001
0001
,
0110
1000
1001
0010
0101
1000
0011
0100
,
1010
0001
1100
0001
0110
1000
1001
0100
,
1010
0001
1100
0010
1001
0100
1010
0001
,
0101
0010
0011
1000
1100
0010
1001
0001
,
0110
1000
1001
0010
0101
1000
0011
0100
,
1010
0001
1100
0001
0110
1000
1001
0010
,
0110
0001
1100
0010
1001
0100
1010
0001
,
0101
0010
0011
1000
1100
0010
1001
0001
,
0110
1000
1001
0010
0101
1000
0011
0100
,
1010
0001
1100
0001
0110
1000
1001
0010
,
0101
0010
1010
0001
0110
1000
1001
0010
,
0101
1000
0110
0001
1100
0010
1001
0010
,
0101
1000
0011
1000
0110
0001
1001
0100
,
1100
0010
1001
1000
0110
0001
0011
1000
,
0110
0001
1100
0010
1001
0100
1010
0001
,
0101
0010
0011
1000
1100
0010
1001
0001
,
0110
1000
1001
0010
0101
1000
0011
0100
,
1001
0100
1010
0001
0110
1000
1001
0010
,
0101
1000
0110
0001
1100
0010
1001
0010
,
0101
1000
0011
1000
0110
0001
1001
0100
,
1100
0010
1001
1000
0110
0001
0011
1000
,
0110
0001
1100
0010
1001
0100
1010
0001
,
2002
0000
0000
3003
2020
0000
0000
3030
0220
0000
0000
0000
0000
0000
0000
0330
,
2002
0000
3003
0220
0000
0330
2002
3003
0202
0000
0000
0000
0000
0000
0000
0303
,
0220
0000
0000
0330
2200
0000
0000
3300
2002
0000
0000
0000
0000
0000
0000
3003
,
0220
0000
0000
0000
,
0000
0000
0330
0000
;

//---------------dance-single - ----------------
#NOTES:
     dance-single:
     :
     Hard:
     9:
     0.468,0.463,0.011,0.082,0.000,887.000,3.000,23.000,0.000,0.000:

1000
0001
0100
0010
,
1000
0001
0010
0100
,
1000
1000
0001
0001
,
0100
0010
1000
0001
,
1000
0001
1000
0000
0010
0100
0010
0000
,
1000
0001
0010
0000
0010
0001
0100
0000
,
0100
0001
1000
0000
1000
0010
0100
0000
,
0100
0001
0010
0000
1000
0001
1000
0001
,
0010
0100
1000
0001
,
0001
0100
0001
0100
0001
0000
0010
0000
,
0100
1000
0010
0100
,
0002
0010
0010
0010
,
0013
0100
1000
0001
,
0001
1000
0001
0010
0100
0000
1000
0000
,
0010
0100
0001
0010
,
0200
1000
1000
1000
,
1300
0001
0100
0010
,
1000
0001
1000
0010
0100
0000
0001
0000
,
0010
0100
1000
0001
,
2000
0010
0010
0010
,
3010
0100
0001
0010
,
0100
1000
0001
0100
0001
0000
0010
0000
,
0100
1000
0001
0100
,
0020
1000
0100
1000
,
0130
0001
0010
0100
,
1000
0001
1000
0010
0100
0000
0001
0000
,
1000
0000
0010
1000
0010
0000
0100
0001
,
0100
0010
1000
0100
,
1000
0000
0001
0010
0001
0000
0100
0010
,
1000
0000
0001
1000
0001
0000
0010
0000
,
0100
0000
1000
0001
0100
0000
0100
0000
,
0010
1000
0001
0000
0001
0000
1000
0100
,
0010
0000
0001
0100
0001
0000
0010
0000
,
0100
0000
1000
0010
1000
0010
0100
0000
,
0001
0000
1000
0001
0010
0000
0100
0000
,
1000
0000
0001
1000
0001
0010
0100
0000
,
1000
0000
0010
1000
0010
0000
0100
0000
,
0001
0000
1000
0001
0100
0000
0010
0000
,
1000
0000
0001
0010
0001
0000
0100
0000
,
0010
0000
1000
0000
0001
1000
0001
0100
,
0010
1000
0001
0010
,
0100
1000
0001
0100
0010
0000
1000
0000
,
0001
0100
0010
1000
,
0002
0010
1000
0100
,
1003
0010
0100
0001
,
1000
0001
0100
0001
0010
0000
0100
0000
,
1000
0010
0100
0001
,
2000
0100
0001
0010
,
0100
3000
0001
0000
0010
0000
0100
0000
,
1000
0001
0100
0001
0010
0000
0100
0000
,
1000
0001
0100
0010
,
2000
0100
0001
0010
,
3001
0100
0010
1000
,
0001
1000
0001
0010
0100
0000
1000
0000
,
0010
0100
0001
1000
,
0020
0001
0100
1000
,
0130
0000
0001
1000
0001
0000
0100
0000
,
0010
0000
1000
0001
0100
0001
0010
0100
,
1000
0000
0001
0100
0001
0000
0010
0000
,
0100
0000
1000
0000
0001
0000
1000
0010
,
1000
0000
0001
0010
0001
1000
0010
0000
,
0100
0000
0001
0000
1000
0000
0010
1000
,
0001
0000
0010
0100
1000
0000
0001
0000
,
0100
0000
0010
0000
1000
0001
1000
0001
,
0010
0000
0100
1000
0001
0000
0100
0000
,
0010
0000
1000
0010
0100
0000
0001
0000
,
1000
0000
0001
1000
0001
1000
0001
0000
,
0010
0000
0100
0000
1000
0001
0100
0001
,
0010
0000
0100
1000
0001
0000
0100
0000
,
0010
0000
1000
0010
0100
0001
0010
0100
,
1000
0000
0001
1000
0001
0000
0100
0000
,
0010
0000
1000
0000
0001
1000
0001
0010
,
0001
0000
0100
0010
1000
0000
0010
0000
,
0100
0000
0001
1000
0001
0000
0010
0000
,
0100
0000
1000
0010
1000
0000
0100
0000
,
0010
0000
0001
0000
0100
0001
1000
0001
,
0100
0000
0010
1000
0010
0000
0100
0000
,
0001
0000
1000
0100
1000
0000
0010
0000
,
0100
0001
0010
0100
,
1000
0000
0001
0000
1000
0001
1000
0001
,
1000
0000
0010
0100
0001
0000
0010
0000
,
0100
0000
1000
0001
1000
0000
0010
0000
,
1000
0000
0100
1000
0100
0000
0100
0000
,
0001
0100
0010
1000
,
0001
0000
1000
0001
1000
0000
0010
0000
,
0100
0000
0001
1000
0001
0010
0001
0000
,
0100
0000
0010
1000
0001
0000
0100
0000
,
0010
1000
0100
1000
,
1001
0010
0100
0001
,
0010
0100
1000
0100
0010
0000
0001
0000
,
0100
0001
1000
0001
0100
0000
0010
0000
,
2000
0001
0001
0001
,
3001
0100
0010
1000
,
0100
1000
0001
0010
0100
0000
1000
0000
,
0001
0100
0010
1000
,
0002
0010
0010
0010
,
0013
0100
1000
0001
,
0100
0010
1000
0010
0100
0000
0001
0000
,
0010
0100
1000
0001
,
2000
0010
0010
0010
,
3010
0100
0001
1000
,
0100
1000
0001
0100
0010
1000
0001
0000
,
0100
0000
0010
1000
0001
0000
0010
0000
,
0200
1000
1000
1000
,
1300
0001
0100
0010
,
1000
0001
0100
0001
,
0010
0010
0100
1000
,
0001
0001
0100
0010
,
1001
0100
0010
0001
,
1000
0010
0100
0010
,
1000
0100
0010
0100
,
0001
1000
0010
0100
,
1001
0000
0100
1000
0001
0000
0100
0000
,
0010
0000
1000
0001
0010
0000
0100
0000
,
1000
0000
0010
1000
0010
0000
0100
0000
,
0001
0000
0010
0000
1000
0001
1000
0000
,
0010
0000
0100
0001
0010
0000
0100
0000
,
1000
0000
0001
1000
0001
0000
0100
0000
,
0010
0000
1000
0100
1000
0000
0001
0000
,
0010
0000
0001
0000
0100
0010
0100
0000
,
0001
0000
0010
0100
1000
0000
0001
0000
,
0100
0010
1000
0001
,
0100
0000
0010
1000
0001
0000
0010
0000
,
0100
0000
1000
0000
0001
0010
0100
0000
,
0001
0000
1000
0010
0100
0000
0001
0000
,
1000
0010
0100
0001
1000
0000
0001
0000
,
0010
0000
0100
1000
0001
0100
0010
0000
,
1000
0000
0001
0000
1000
0100
1000
0100
,
0010
0000
0001
0100
0001
0000
0010
0000
,
0100
0000
1000
0010
1000
0000
0010
0000
,
0100
0000
0001
0010
0001
0000
0100
0000
,
0010
0000
1000
0000
0100
1000
0100
0010
,
0001
0000
0100
0010
1000
0000
0010
0000
,
0100
0000
0001
1000
0001
0000
0010
0000
,
0100
1000
0001
0100
,
0010
1000
0010
0100
0010
1000
0010
0100
,
0001
0010
0100
1000
,
0001
1000
0001
0100
0001
0010
0100
0000
,
1000
0000
0001
0100
0001
0000
0010
0000
,
0200
1000
0010
0001
,
1300
0010
1000
0001
,
1000
0001
0100
0001
0010
0000
0100
0000
,
1000
0010
0100
0010
1000
0000
0001
0000
,
0020
0100
0100
0100
,
0130
1000
0001
0100
,
0010
1000
0010
0100
0010
0000
1000
0000
,
0001
0010
0100
1000
,
0002
0010
0010
0010
,
0013
0100
1000
0001
,
1000
0010
0100
0001
0010
0000
0100
0000
,
1000
0001
0100
0010
,
2000
0000
0100
0000
0001
0000
0100
0100
,
0100
3000
0010
0100
0001
0000
0010
0000
,
0100
0000
1000
0001
0100
0000
0010
0000
,
1000
0001
0010
0000
0100
0000
1000
0000
,
0001
0100
0001
0000
0010
0000
0100
0000
,
1000
0010
0100
0010
1000
0000
0001
0000
,
1000
0001
0100
0001
0010
0000
0100
0000
,
1000
0010
0100
0010
1000
0000
0001
0000
,
0020
0100
0100
0100
,
0130
1000
0001
0100
,
0010
1000
0001
0100
0010
0000
1000
0000
,
0100
0010
0001
0100
,
0020
1000
0100
1000
,
0130
0001
0010
0100
,
1000
0001
0100
0001
0010
0000
0100
0000
,
1000
0010
0100
0001
,
0020
0100
0100
0100
,
0130
1000
0001
0100
,
0010
1000
0010
0100
0001
0000
0010
0000
,
0100
1000
0001
0100
,
0020
1000
1000
1000
,
1030
0100
0010
0001
,
0100
0010
1000
0001
,
0010
0001
0100
0010
,
2000
0100
0100
0100
,
0100
3000
0010
0000
0001
0000
1000
0000
,
0010
0100
0001
0010
,
0001
1000
0010
0100
,
0002
1000
1000
1000
,
1003
0010
0100
0000
,
0001
0010
0100
0000
,
1000
0010
0100
0000
,
0002
0000
0000
0000
,
0000
0000
0000
0003
0000
0000
0000
0000
;
