#TITLE:Happy Angel;
#SUBTITLE:;
#ARTIST:jun feat. TAHIRIH;
#TITLETRANSLIT:;
#SUBTITLETRANSLIT:;
#ARTISTTRANSLIT:;
#CREDIT:;
#BANNER:happyangel-bn.png;
#BACKGROUND:happyangel-bg.png;
#LYRICSPATH:;
#CDTITLE:!cdtitle.png;
#MUSIC:Happy Angel.mp3;
#OFFSET:-0.040;
#SAMPLESTART:64.675;
#SAMPLELENGTH:15.687;
#SELECTABLE:YES;
#BPMS:0.000=180.000;
#STOPS:;
#BGCHANGES:;
// cache tags:
#FIRSTBEAT:0.000;
#LASTBEAT:263.000;
#SONGFILENAME:Songs/Keyboard Collaboration II/Gamepro - Happy Angel/angel.sm;
#HASMUSIC:1;
#HASBANNER:1;
#MUSICLENGTH:89.893;
// end cache tags

//---------------dance-single - ----------------
#NOTES:
     dance-single:
     :
     Hard:
     11:
     1.000,1.000,1.000,0.033,1.000,767.000,131.000,3.000,0.000,1.000:  // measure 1
0110
0000
1001
0100
0100
1100
0100
1010
,  // measure 2
1001
0101
0011
0001
0001
0110
1100
0000
,  // measure 3
1010
0000
0101
0001
0001
1100
0100
1100
,  // measure 4
1010
0110
1001
0000
0011
1100
0000
0100
,  // measure 5
0110
0000
1001
0000
0000
0101
0000
0001
,  // measure 6
0010
0100
1100
0000
0110
0000
0011
0000
,  // measure 7
1001
1010
0000
0011
,  // measure 8
0000
0000
1001
0000
0101
0000
0110
0100
,  // measure 9
1001
0100
0010
0100
1001
0100
0010
0100
1000
0010
1000
0100
0010
0001
1000
0100
,  // measure 10
0010
0001
0100
0010
1000
0010
0100
0010
1000
0100
0010
0001
1000
0001
0010
0001
,  // measure 11
0100
0010
1000
0100
0010
0100
1000
0001
0100
0010
1000
0100
0010
0001
0010
0100
,  // measure 12
1000
0001
0100
0010
1000
0100
0010
0001
1000
0010
0100
0010
1000
0001
1000
0100
,  // measure 13
0010
0001
0100
0010
1000
0010
0100
0001
0010
0100
1000
0010
0100
0001
1000
0100
,  // measure 14
1000
0010
0100
0001
0010
0100
1000
0001
0100
0010
0100
0001
1000
0100
0010
0001
,  // measure 15
0100
0001
0010
0100
1000
0001
0100
0010
1000
0001
0100
0001
1000
0100
0010
0001
,  // measure 16
0100
0010
1000
0100
0010
0001
0010
0100
1000
0001
0100
0010
0100
0001
1000
0100
,  // measure 17
0010
0100
1000
0010
0101
0000
0001
0000
1100
0000
0100
0000
1010
0000
0010
0000
,  // measure 18
0101
1100
1000
0110
1000
1001
1000
0001
,  // measure 19
0110
0000
1001
0100
0110
0100
1010
0100
,  // measure 20
0011
1100
0010
0101
1000
1100
0010
0000
,  // measure 21
0010
0000
1010
1000
1100
0100
0110
0010
,  // measure 22
0011
0101
0001
1100
1000
0101
0000
0000
,  // measure 23
0110
0010
1001
1000
1100
0101
0001
0110
,  // measure 24
0010
0000
1010
0000
1000
0000
1100
0000
0000
0000
1001
0000
0000
0000
0100
1000
,  // measure 25
0010
1000
0100
1000
0101
0000
1000
0000
1100
0000
0001
0000
0011
0000
0001
0000
,  // measure 26
0101
1010
0010
0101
1000
1100
0010
0100
,  // measure 27
0101
1000
0100
1000
0101
0000
1000
0000
1100
0000
0001
0000
0101
0000
1100
0000
,  // measure 28
1010
0101
1000
0110
1100
1000
1000
0010
,  // measure 29
1001
0100
0010
0100
1001
0000
0100
0000
0101
0000
0010
0000
1100
0000
0001
0000
,  // measure 30
0101
0101
0100
1010
1000
1001
0000
0100
,  // measure 31
1000
0100
0010
0001
1100
0000
0001
0000
0101
0000
0011
0000
0010
0000
0110
0000
,  // measure 32
0100
1100
0010
0101
1010
0102
0000
1000
,  // measure 33
0010
1000
0100
1000
0010
0000
0000
0000
0000
0000
1013
0000
0000
0000
0101
0000
,  // measure 34
1100
0000
0110
0000
1001
0100
0010
0100
1000
0001
0100
0010
1000
0100
0010
0001
,  // measure 35
0100
0010
1000
0001
0010
0001
0100
0010
1000
0100
0010
0001
0100
0010
1000
0001
,  // measure 36
0010
0100
1000
0010
1000
0001
0010
0100
0010
0001
0100
0010
1000
0100
0010
0001
,  // measure 37
1000
0010
0100
0010
1000
0001
0100
0010
1000
0100
0010
0001
0100
0001
0100
0010
,  // measure 38
1000
0010
0100
0001
0010
0100
1000
0010
1000
0100
0010
0001
0100
0010
0100
0001
,  // measure 39
1000
0001
0010
0100
0010
0001
0100
0010
1000
0100
0010
0001
1000
0010
1000
0100
,  // measure 40
0010
0100
1000
0001
0100
0010
0100
0001
0010
0100
1000
0010
0100
0001
1000
0001
,  // measure 41
0100
0001
1000
0100
0010
0001
0010
0100
1000
0010
1000
0100
1000
0001
0100
0010
,  // measure 42
1000
0100
0010
0001
1100
0001
0100
0010
0100
0010
1000
0100
0010
0100
1000
0001
,  // measure 43
0100
0010
1000
0100
0010
0001
0100
0010
0100
0001
1000
0100
0010
0001
0010
0100
,  // measure 44
1000
0001
1000
0100
0010
0100
1000
0010
0100
0001
1000
0100
0010
0001
0100
0010
,  // measure 45
1000
0100
0010
0001
0010
0100
0010
0001
0100
0010
1000
0100
1000
0001
0100
0001
,  // measure 46
0010
0100
1000
0001
0100
0010
1000
0100
0010
0001
0010
0100
1000
0001
0100
0010
,  // measure 47
0100
0001
1000
0100
0010
0100
1000
0010
0100
0001
1000
0100
0010
0001
0100
0001
,  // measure 48
0010
0100
1000
0001
0100
0010
1000
0100
1000
0010
0100
0001
1000
0010
0100
0001
,  // measure 49
0100
0010
1000
0100
0010
0001
0100
0010
1000
0010
0100
0001
1000
0010
0100
0001
,  // measure 50
1000
0100
0010
0100
1001
0100
0010
0001
1000
0010
0100
0001
1000
0100
1000
0001
,  // measure 51
0100
0010
1000
0100
0010
0001
0010
0100
1000
0001
0100
0010
0100
0001
1000
0100
,  // measure 52
0010
0001
0100
0010
1000
0100
0010
0100
1000
0001
0100
0010
1000
0001
0010
0001
,  // measure 53
1000
0100
0010
0001
0100
0010
0100
0001
1000
0100
0010
0001
1000
0100
1000
0001
,  // measure 54
0100
0001
0010
0100
1000
0001
0100
0010
1000
0100
0010
0001
0010
0100
1000
0001
,  // measure 55
0100
0010
0100
0001
1000
0100
0010
0100
1000
0010
0100
0001
1000
0100
0010
0001
,  // measure 56
0100
0010
1000
0100
0010
0001
1000
0010
1000
0100
0010
0100
1000
0001
0010
0100
,  // measure 57
1000
0001
0100
0010
1000
0100
0010
0001
1000
0100
1000
0001
0100
0010
1000
0100
,  // measure 58
0010
0001
0100
0010
1001
0000
0100
0000
1001
0000
0100
0000
1001
0000
0100
1000
,  // measure 59
0010
0000
0100
0000
0110
0000
0010
0000
0110
0000
0010
0000
0110
0000
0010
1000
,  // measure 60
0100
0000
1000
0000
0101
0000
0001
0000
0101
0000
0001
0000
0101
0000
0001
1000
,  // measure 61
0010
0100
0101
0001
1100
0100
0101
1001
,  // measure 62
1100
0000
0110
0000
1001
0000
1000
0000
1001
0000
0001
0000
0101
0000
0001
0100
,  // measure 63
0010
0000
1000
0000
1100
0000
0010
0000
1100
0000
0010
0000
1100
0000
0010
0100
,  // measure 64
0001
0000
1000
0000
0110
0000
0100
0000
0110
0000
0100
0000
0110
0000
0100
0010
,  // measure 65
1000
0100
1100
0100
0110
0010
0101
1010
,  // measure 66
1001
0100
0010
0100
2002
0000
0000
0000
0000
0000
0000
0000
3003
0000
0000
0000
;
