#TITLE:OMAEEE;
#SUBTITLE:You;
#ARTIST:DJOrochiKazuya;
#TITLETRANSLIT:;
#SUBTITLETRANSLIT:;
#ARTISTTRANSLIT:;
#CREDIT:;
#BANNER:../banner.png;
#BACKGROUND:../bg.png;
#LYRICSPATH:;
#CDTITLE:;
#MUSIC:OMAEEE (YOU).ogg;
#OFFSET:1.192;
#SAMPLESTART:138.100;
#SAMPLELENGTH:19.580;
#SELECTABLE:YES;
#BPMS:0.000=198.176;
#STOPS:;
#BGCHANGES:;
// cache tags:
#FIRSTBEAT:4.000;
#LASTBEAT:820.000;
#SONGFILENAME:Songs/Cirque du Lykan/OMAEEE (You) - [Zaia]/OMAEEE (You).sm;
#HASMUSIC:1;
#HASBANNER:1;
#MUSICLENGTH:249.521;
// end cache tags

//---------------dance-single - Zaia - 16(mid)----------------
#NOTES:
     dance-single:
     Zaia - 16(mid):
     Challenge:
     16:
     1.000,1.000,0.108,0.100,1.000,2402.000,27.000,25.000,0.000,2.000:
0000
0000
0000
0000
,
1000
0010
0100
0010
1000
0010
0100
0001
,
0001
0000
0010
0000
0100
0000
1000
0000
0001
0000
0000
0010
0001
0000
1000
0010
,
0100
0001
1000
0010
1000
1000
0001
0000
,
0010
0000
0010
0000
0100
0000
0000
0000
1000
0100
1000
0000
0001
0000
0100
0000
,
0010
1000
0100
1000
0001
0100
0001
0010
,
0010
0000
0100
0000
1000
0000
0010
0000
1000
0000
0000
0001
0100
0000
0010
1000
,
0001
0000
0010
0000
0100
0000
0010
0000
0001
0000
1000
0000
0001
0000
0100
0010
,
1000
0000
0001
0000
1000
0100
1000
0000
0001
0010
0001
0000
2000
0000
0000
0000
,
3001
0100
0010
0100
0001
1000
0100
0010
,
0010
0000
0001
0000
1000
0000
0010
0000
0100
0000
0010
1000
0001
0000
1000
0001
,
1000
0100
0010
0100
1000
1000
0001
0000
,
0100
0000
0010
0000
1000
0000
0000
0000
0001
0010
0001
0000
1000
0000
0100
0000
,
1000
0001
1000
0100
1000
0001
0100
0010
1000
0001
1000
0100
0010
0100
1000
0001
,
1000
0010
0100
0001
1000
0001
0010
0001
1000
0010
0100
0001
1000
0100
1000
0001
,
0010
0100
1000
0001
1000
0010
0100
0001
1000
0001
0100
0010
1000
0001
1000
0100
,
0010
0001
1000
0001
1000
0010
0100
0001
1000
0100
1000
0100
0020
0000
0000
0000
,
0031
1000
0100
0010
0001
1000
0001
1000
0100
0010
0001
0100
0001
1000
0001
1000
,
0100
0010
0001
0100
0001
1000
0001
1000
0100
0010
0001
1000
0010
0100
0001
1000
,
0100
1000
0001
0010
0001
1000
0001
1000
0010
0100
0001
0010
0001
1000
0001
1000
,
0010
0100
0001
0010
0001
1000
0001
1000
0010
0100
0001
0010
0100
1000
0001
0010
,
0001
1000
0010
0100
0001
1000
0100
1000
0001
1000
0100
0010
0001
1000
0100
1000
,
0001
1000
0010
0100
0001
1000
0100
1000
0001
1000
0100
0010
0001
0100
0010
1000
,
0001
1000
0100
0010
0001
1000
0010
1000
0001
1000
0010
0100
0001
1000
0010
1000
,
0001
0000
1000
0000
0001
0100
0001
0000
1000
0010
1000
0000
0002
0000
0000
0000
,
1003
0100
0010
0100
1000
0010
1000
0010
0100
0001
1000
0100
0010
0001
0010
0001
,
1000
0010
0100
0001
1000
0100
1000
0100
0010
0001
1000
0010
0100
0001
0100
0001
,
1000
0100
0010
0100
1000
0010
1000
0010
0100
0001
1000
0100
0010
0001
0010
0001
,
1000
0010
0100
0001
1000
0100
1000
0100
0010
0001
1000
0010
0100
0001
0100
0010
,
1000
0010
0100
0001
1000
0100
1000
0100
0010
0001
1000
0010
0100
0001
0100
0001
,
1000
0100
0010
0001
1000
0010
1000
0010
0100
0001
1000
0100
0010
0001
0010
0001
,
1000
0010
0100
0001
1000
0100
1000
0100
0010
0001
1000
0010
0100
0001
1000
0100
,
1000
0000
0001
0000
0010
0100
0010
0000
0100
1000
0001
0000
2001
0000
0000
0000
,
3001
0100
0010
1000
0001
0010
0001
0010
0100
1000
0001
0100
0010
1000
0010
1000
,
0001
0010
0100
1000
0001
0100
0001
0100
0010
1000
0001
0010
0100
1000
0100
1000
,
0001
1000
0100
0010
0001
0100
0001
0100
0010
1000
0001
0010
0100
1000
0100
1000
,
0001
0100
0010
1000
0001
0010
0001
0010
0100
1000
0001
0100
0010
1000
0010
1000
,
0100
0010
0001
1000
0010
1000
0010
0100
0001
1000
0100
0010
0001
0010
0001
1000
,
0010
0100
0001
1000
0100
1000
0100
0010
0001
1000
0010
0100
0001
0100
0001
1000
,
0001
0100
0010
1000
0100
1000
0100
0010
0001
1000
0010
0100
0001
0100
0001
1000
,
0100
0000
0010
0000
0001
0010
0001
0000
0010
0100
1000
0000
1200
0000
0000
0000
,
0310
0001
0100
0001
0100
0001
1000
0100
1000
0001
1000
0010
1000
0010
0100
0001
,
1000
0000
0010
0000
0100
0001
0100
0000
0001
1000
0010
0000
2010
0000
0000
3000
,
0010
1000
0100
1000
0100
1000
0001
0100
0001
1000
0001
0010
0001
0010
0100
1000
,
0001
0000
0010
0000
0100
1000
0100
0000
1000
0001
0010
0000
0012
0000
0000
0003
,
1000
0001
0010
0001
0010
0001
1000
0010
1000
0001
1000
0100
1000
0100
0010
0001
,
1000
0001
0100
0001
0010
0001
0010
0100
1000
0001
0100
0010
1000
0001
1000
0010
,
0100
0001
0010
0001
0010
0001
1000
0010
1000
0001
1000
0100
1000
0100
0010
0001
,
1000
0001
0100
0010
1000
0001
1000
0100
0010
0001
1000
0010
0200
0000
0000
0000
,
1301
0000
0000
0000
,
0000
0000
0000
0000
,
0001
0100
0010
0000
,
1000
0100
0010
0000
,
0100
1000
0001
0000
,
0100
0001
0010
0000
,
0001
0010
0100
0000
,
1000
0010
0100
0000
,
0001
1000
0100
0000
,
0010
0001
0100
0000
,
1010
0010
1000
0001
0100
0010
1000
0100
,
0010
0001
0010
0100
1000
0010
0100
0001
,
0010
0001
1000
0001
0100
0010
1000
0100
,
2000
3020
0130
0000
,
0001
0010
0001
1000
0100
0010
0001
0100
,
0010
1000
0010
0100
0001
0010
0100
1000
,
0010
1000
0001
1000
0100
0010
0001
0100
,
0001
1000
0100
1000
0010
0100
0001
0010
,
0100
1000
0100
0010
0001
0100
0001
1000
,
0010
0100
0010
1000
0010
0100
0001
0010
,
0100
0010
0001
0010
0100
1000
0010
0100
,
0002
0023
0130
0000
,
0010
0001
0010
0100
1000
0010
1000
0001
,
0100
0010
0100
0001
0100
0010
1000
0100
,
0010
0100
1000
0100
0010
0001
0100
0010
,
2000
0000
0000
0000
,
3101
0000
1010
0000
1001
0000
0011
0010
,
0100
0000
0000
0000
1100
0000
0000
0000
1001
0000
0000
0001
0100
0000
0010
1000
,
0001
0000
0011
0000
1100
1000
0001
0000
,
1010
0000
1000
0000
0100
0000
0000
0000
0010
0100
1000
0000
0001
0000
0100
0000
,
0110
0000
1010
0000
1001
0000
0101
0001
,
1000
0000
0000
0000
1100
0000
0000
0000
0110
0000
0000
0010
0001
0000
1000
0010
,
1000
0000
0000
0000
1001
0000
0000
0000
1100
0000
0000
0000
0011
0000
0010
0100
,
1000
0000
0001
0000
1000
0100
1000
0000
0001
0100
0001
0000
2001
0000
0000
0000
,
3001
0100
0010
0100
0001
1000
0001
0100
,
0100
0000
0010
0000
1000
0000
0001
0000
0100
0000
0000
0001
1000
0000
0100
0010
,
0001
1000
0100
0010
0100
0100
1000
0000
,
0001
0000
0100
0000
0010
0000
0000
0000
1000
0001
1000
0000
0100
0000
0010
0000
,
0001
1000
0001
0100
0001
1000
0100
0010
0001
1000
0001
0100
0010
0100
0001
1000
,
0001
0010
0100
1000
0001
1000
0010
1000
0001
0010
0100
1000
0001
0100
0001
1000
,
0010
0100
0001
1000
0001
0010
0100
1000
0001
1000
0100
0010
0001
1000
0001
0100
,
0010
1000
0001
1000
0001
0010
0100
1000
0001
0100
0001
0100
0010
0000
0000
0000
,
0010
0100
0000
0001
,
0001
0000
0100
0000
0000
0000
0010
1000
,
0001
0100
0010
0010
,
1000
0100
1000
0010
,
0110
0100
0000
0001
,
0001
1000
0000
0100
,
0010
0100
2000
0000
,
3002
0000
0000
0000
,
1003
0010
0100
0001
0010
0100
1000
0001
,
0100
0000
0010
0000
0100
0000
0001
0000
0010
0000
0100
1000
0100
0000
1000
0001
,
0100
0010
1000
0001
1000
0100
1000
0010
,
0100
0000
0100
0000
0001
0000
1000
0000
0100
0010
0100
0000
1000
0000
0010
0000
,
1000
0100
0010
0001
0100
0010
1000
0001
,
0010
0000
0100
0000
0010
0000
0001
0000
0100
0000
0010
1000
0010
0000
1000
0001
,
0010
0000
0100
0000
1000
0000
0001
0000
1000
0000
0010
0000
1000
0000
0100
0010
,
0100
0000
1000
0000
0010
0100
0010
0000
0100
0001
1000
0000
1002
0000
0000
0000
,
0013
0001
1000
0010
0100
0001
0010
0100
,
1000
0000
0001
0000
0100
0000
0010
0000
1000
0000
0001
0010
0001
0000
0010
0100
,
1000
0010
0100
0001
1000
0100
1000
0001
,
0100
0000
0100
0000
0010
0000
1000
0000
0001
1000
0001
0000
0100
0000
0010
0000
,
1000
0001
1000
0100
1000
0001
0100
0010
1000
0001
1000
0100
0010
0100
1000
0001
,
1000
0010
0100
0001
1000
0001
0010
0001
1000
0010
0100
0001
1000
0100
1000
0001
,
0010
0100
1000
0001
1000
0010
0100
0001
1000
0001
0100
0010
1000
0001
1000
0100
,
0010
0001
1000
0001
1000
0010
0100
0001
1000
0100
1000
0100
0010
0000
0000
0000
,
0001
0100
0010
1000
0001
1000
0010
0100
0001
0010
0100
0010
0001
1000
0010
1000
,
0001
0010
0100
1000
0001
1000
0010
0100
0001
0010
0100
1000
0001
0010
0001
1000
,
0010
0100
0010
1000
0001
1000
0100
0010
0001
1000
0001
0100
0010
1000
0010
0100
,
0010
1000
0001
0010
0100
0010
0001
1000
0001
0100
0010
1000
0001
1000
0001
0010
,
0001
0100
0010
1000
0001
1000
0010
0100
0001
0010
0100
0010
0001
1000
0010
1000
,
0001
0010
0100
1000
0001
1000
0010
0100
0001
0010
0100
1000
0001
0010
0001
1000
,
0010
0100
0010
1000
0001
1000
0100
0010
0001
1000
0001
0100
0010
1000
0010
0100
,
0010
1000
0001
0010
0001
1000
0100
1000
0001
0100
0010
1000
0001
1000
0001
0100
,
0001
0010
0100
1000
0001
1000
0100
0010
0001
0100
0010
0100
0001
1000
0100
1000
,
0001
0100
0010
1000
0001
1000
0100
0010
0001
0100
0010
1000
0001
0100
0001
1000
,
0100
0010
0100
1000
0001
1000
0010
0100
0001
1000
0001
0010
0100
1000
0100
0010
,
0100
1000
0001
0100
0010
0100
0001
1000
0001
0010
0100
1000
0001
1000
0001
0100
,
0001
0010
0100
1000
0001
1000
0100
0010
0001
0100
0010
0100
0001
1000
0100
1000
,
0001
0100
0010
1000
0001
1000
0100
0010
0001
0100
0010
1000
0001
0100
0001
1000
,
0100
0010
0100
1000
0001
0010
0100
1000
0001
1000
0010
0100
0001
1000
0100
1000
,
0001
0100
0010
0100
0001
1000
0001
0010
0100
1000
0100
1000
0001
0100
0010
1000
,
0001
0010
0100
1000
0100
0010
0001
1000
0010
0100
0001
0010
0100
1000
0001
1000
,
0001
0100
0010
0100
0001
1000
0001
0010
0001
1000
0010
0100
0001
0010
0100
1000
,
0001
0100
0001
0100
0010
1000
0001
0010
0100
0010
0001
1000
0010
1000
0001
1000
,
0100
0010
0100
1000
0010
0100
0001
0100
0010
1000
0001
1000
0100
0010
0001
1000
,
0010
0100
0001
0100
0010
1000
0001
0010
0100
1000
0010
0100
0001
1000
0001
1000
,
0100
0010
0100
1000
0001
1000
0010
1000
0001
0010
0100
1000
0010
0100
0001
1000
,
0100
1000
0100
0010
0001
1000
0010
0100
0010
1000
0001
0010
0001
1000
0001
0100
,
0010
0100
0001
0010
0001
1000
0100
1000
0001
1000
0001
0100
0010
1000
0001
1000
,
0100
0010
0001
0010
0100
1000
0001
0100
0010
1000
0100
0010
0001
1000
0001
1000
,
0010
0100
0010
1000
0001
1000
0100
1000
0001
0100
0010
1000
0100
0010
0001
1000
,
0010
1000
0010
0100
0001
1000
0100
0010
0100
1000
0001
0100
0001
1000
0001
0010
,
0100
0010
0001
0100
0010
1000
0010
0100
0001
1000
0001
0010
0001
1000
0010
1000
,
0001
0100
0010
1000
0010
0100
0001
1000
0100
0010
0001
0100
0010
1000
0001
1000
,
0001
0010
0100
0010
0001
1000
0001
0100
0001
1000
0100
0010
0001
0100
0010
1000
,
0001
0010
0001
0010
0100
1000
0001
0100
0010
0100
0001
1000
0100
1000
0001
1000
,
0010
0100
0010
1000
0001
0100
0001
1000
0100
1000
0001
1000
0001
0100
0010
1000
,
0001
0100
0001
0100
0001
1000
0001
0010
0001
1000
0100
1000
0100
1000
0001
1000
,
0010
0100
0001
1000
0001
0010
0100
1000
0001
1000
0010
0100
0001
1000
0100
1000
,
0001
0100
0001
1000
0010
0100
0001
1000
0100
0010
0001
1000
0001
0100
0010
1000
,
0010
0100
0001
1000
0100
1000
0001
0010
0100
1000
0001
1000
0010
0100
0010
1000
,
0001
0010
0001
0010
0001
1000
0001
0100
0001
1000
0010
1000
0010
1000
0001
1000
,
0100
0010
0001
1000
0001
0100
0010
1000
0001
1000
0100
0010
0001
1000
0010
1000
,
0001
0010
0001
1000
0100
0010
0001
1000
0010
0100
0001
1000
0001
0010
0100
1000
,
0100
0010
0001
1000
0010
1000
0001
0100
0010
1000
0001
1000
0100
1000
0001
0010
,
0001
1000
0010
1000
0010
1000
0001
1000
0100
1000
0001
0010
0001
0010
0001
1000
,
0001
0100
0010
1000
0001
1000
0100
0010
0001
1000
0001
0100
0010
1000
0001
0010
,
0001
1000
0010
1000
0001
0100
0010
1000
0001
0010
0100
1000
0001
1000
0010
0100
,
0001
0100
0010
1000
0001
0010
0001
1000
0100
0010
0001
1000
0001
0100
0010
0100
,
0001
1000
0100
1000
0100
1000
0001
1000
0010
1000
0001
0100
0001
0100
0001
1000
,
0001
0010
0100
1000
0001
1000
0010
0100
0001
1000
0001
0010
0100
1000
0001
0100
,
0001
1000
0100
1000
0001
0010
0100
1000
0001
0100
0010
1000
0001
1000
0100
0010
,
0001
0010
0100
1000
0001
0100
0001
1000
0010
0100
0001
1000
0001
0010
0001
1000
,
0100
0010
0100
1000
0100
0010
0001
1000
,
0001
0100
0001
1000
0001
0010
0001
1000
,
0010
0100
0001
1000
0100
0010
0001
1000
,
0010
0100
0001
1000
0100
1000
0010
0100
,
0002
2003
0000
3100
,
0020
0000
0032
0000
0000
0000
1003
0100
,
0010
0100
2000
0000
,
3001
0100
0010
1000
0001
1000
0010
1000
0010
0100
0001
1000
0001
0010
0001
1000
,
0001
1000
0100
0010
0001
1000
0001
1000
0100
0010
0001
0100
0001
1000
0001
1000
,
0100
0010
0001
0100
0001
1000
0001
1000
0100
0010
0001
1000
0010
0100
0001
1000
,
0100
1000
0001
0010
0001
1000
0001
1000
0010
0100
0001
0010
0001
1000
0001
1000
,
0010
0100
0001
0010
0001
1000
0001
1000
0010
0100
0001
0010
0100
1000
0001
0010
,
0001
1000
0010
0100
0001
1000
0100
1000
0001
1000
0100
0010
0001
1000
0100
1000
,
0001
1000
0010
0100
0001
1000
0100
1000
0001
1000
0100
0010
0001
0100
0010
1000
,
0001
1000
0100
0010
0001
1000
0010
1000
0001
1000
0010
0100
0001
1000
0010
1000
,
0001
0100
0010
1000
0010
1000
0001
0010
0001
1000
0100
0010
0100
1000
0001
1000
,
0001
0010
0100
0010
0001
0100
0001
0100
0010
1000
0001
0010
0100
1000
0100
1000
,
0001
0100
0010
1000
0001
0010
0001
0010
0100
1000
0001
0100
0010
1000
0010
1000
,
0001
0010
0100
0010
0001
0100
0001
0100
0010
1000
0001
0010
0100
1000
0100
1000
,
0001
0100
0010
1000
0001
0010
0001
0010
0100
1000
0001
0100
0010
1000
0010
0100
,
0001
0100
0010
1000
0001
0010
0001
0010
0100
1000
0001
0100
0010
1000
0010
1000
,
0001
0010
0100
1000
0001
0100
0001
0100
0010
1000
0001
0010
0100
1000
0100
1000
,
0001
0100
0010
1000
0001
0010
0001
0010
0100
1000
0001
0100
0010
1000
0001
0010
,
0001
1000
0001
0010
0100
0010
0001
1000
0001
0100
0010
1000
0001
0010
0001
1000
,
0001
0010
0100
1000
0001
0100
0001
0100
0010
1000
0001
0010
0100
1000
0100
1000
,
0001
0100
0010
1000
0001
0010
0001
0010
0100
1000
0001
0100
0010
1000
0010
1000
,
0001
1000
0010
0100
0001
0010
0001
0010
0100
1000
0001
0100
0010
1000
0010
1000
,
0001
0010
0100
1000
0001
0100
0001
0100
0010
1000
0001
0010
0100
1000
0100
1000
,
0010
0100
0001
1000
0100
1000
0100
0010
0001
1000
0010
0100
0001
0100
0001
1000
,
0100
0010
0001
1000
0010
1000
0010
0100
0001
1000
0100
0010
0001
0010
0001
1000
,
0001
0010
0100
1000
0010
1000
0010
0100
0001
1000
0100
0010
0001
0010
0001
1000
,
0010
0100
0001
1000
0001
0010
0100
1000
0001
0100
0010
0100
0002
0000
0000
0000
,
1003
0000
0100
0000
1000
0000
0010
0100
,
0001
0000
0000
0000
0010
0000
0000
0000
0001
0000
0000
0100
0010
0000
1000
0001
,
0010
0000
0100
0000
1000
0001
0100
0000
,
0010
0000
1000
0000
0001
0000
0000
0000
0010
0100
0010
0000
0100
0000
1000
0000
,
0001
1000
0001
0010
0001
1000
0010
0100
0001
1000
0001
0010
0100
0010
0001
1000
,
0001
0100
0010
1000
0001
1000
0100
1000
0001
0100
0010
1000
0001
0010
0001
1000
,
0100
0010
0001
1000
0001
0100
0010
1000
0001
1000
0010
0100
0001
1000
0001
0010
,
0100
1000
0001
1000
0001
0100
0010
1000
0001
0010
0001
0010
0200
0000
0000
0000
,
2300
0000
0000
0000
,
0000
0000
0000
0000
,
3000
0000
0000
0000
;
