#TITLE:Sunset Hill Zone Act 2;
#SUBTITLE:Sonic Advance 3;
#ARTIST:Hideaki Kobayashi & Kenichi Tokoi;
#TITLETRANSLIT:;
#SUBTITLETRANSLIT:;
#ARTISTTRANSLIT:;
#CREDIT:owenviau1;
#BANNER:../banner.png;
#BACKGROUND:../BG.PNG;
#LYRICSPATH:;
#CDTITLE:../CdTitleOV1.png;
#MUSIC:Sunset Hill Zone Act 2.ogg;
#OFFSET:-0.151;
#SAMPLESTART:65.858;
#SAMPLELENGTH:29.999;
#SELECTABLE:YES;
#BPMS:0.000=178.977;
#STOPS:;
#BGCHANGES:;
// cache tags:
#FIRSTBEAT:0.000;
#LASTBEAT:387.500;
#SONGFILENAME:Songs/Owem Extras -l/Sunset Hill Zone Act 2 - [Owem]/Sunset Hill Zone Act 2.sm;
#HASMUSIC:1;
#HASBANNER:0;
#MUSICLENGTH:131.239;
// end cache tags

//---------------dance-single - 15- (Owem)----------------
#NOTES:
     dance-single:
     15- (Owem):
     Challenge:
     15:
     1.000,1.000,0.000,0.114,1.000,1499.000,0.000,15.000,0.000,0.000:
1000
0100
0010
0001
1000
0100
0010
0001
0010
0100
1000
0001
0010
0100
1000
0001
,
0100
0010
0100
0001
1000
0010
1000
0100
0010
0001
1000
0010
0100
0001
0100
0010
,
1000
0001
1000
0100
0010
0000
0001
0000
1000
0010
1000
0100
0010
0001
0100
0001
,
1000
0010
0100
0001
1000
0100
1000
0001
0010
0100
1000
0001
0010
0001
0100
0010
,
0100
0001
1000
0010
1000
0001
0100
0010
0100
0001
1000
0100
0010
0001
0100
0001
,
1000
0010
0100
0010
1000
0001
0100
0001
1000
0100
0010
0001
0100
0010
0100
0001
,
1000
0010
0100
0001
0100
0010
1000
0001
1000
0000
0010
0000
0100
0001
1000
0100
,
0010
0100
1000
0001
0100
0010
0100
0001
1000
0010
1000
0001
0100
0010
0100
0001
,
1000
0100
0010
0001
0010
0100
1000
0100
0010
0001
1000
0100
0010
0001
1000
0010
,
2000
0000
3001
0000
0200
0000
0310
0000
1000
0001
1000
0100
0010
0001
1000
0010
,
1000
0001
0100
0010
0100
0001
1000
0100
1000
0001
0010
0001
0100
0010
1000
0010
,
0100
0001
1000
0001
0100
0010
0100
0001
1000
0100
0010
0001
1000
0100
1000
0001
,
0010
0001
0100
0010
1000
0010
0100
0001
1000
0001
0100
0010
0100
0001
1000
0010
,
1000
0001
0100
0010
1000
0010
0100
0001
1000
0100
1000
0001
0010
0001
0100
0010
,
0100
0001
1000
0010
1000
0100
0010
0001
1000
0001
0100
0010
1000
0010
0100
0001
,
1000
0001
0100
0010
0100
0001
1000
0100
1000
0001
0100
0010
1000
0001
0100
0001
,
0010
0100
1000
0001
0010
0001
0100
0010
1000
0010
0100
0001
0100
0010
1000
0001
,
2000
0000
3100
0000
0020
0000
0031
0000
0100
0010
1000
0010
0100
0001
1000
0001
,
0100
0010
0100
0001
1000
0100
0010
0001
1000
0100
1000
0001
0010
0001
0100
0010
,
1000
0001
0100
0001
0010
0100
1000
0001
0100
0010
0100
0001
1000
0010
1000
0001
,
0100
0010
0100
0001
1000
0100
0010
0001
1000
0100
1000
0001
0010
0001
0100
0010
,
2000
0000
3001
0000
0200
0000
0310
0000
1000
0001
0100
0010
1000
0001
0010
0001
,
0100
0010
1000
0010
0100
0001
1000
0001
0100
0010
0100
0001
1000
0100
0010
0001
,
1000
0010
0100
0001
1000
0001
0100
0010
0100
0001
1000
0010
1000
0100
0010
0001
,
1000
0100
1000
0001
0010
0001
0100
0010
1000
0001
0100
0010
0100
0001
1000
0100
,
1000
0001
0010
0001
0100
0010
1000
0001
0100
0010
0100
0001
1000
0010
1000
0001
,
0100
0010
0100
0001
1000
0100
0010
0001
0010
0100
1000
0001
0010
0001
0100
0010
,
1000
0010
0100
0001
1000
0100
1000
0001
0010
0001
0100
0010
1000
0010
0100
0001
,
1000
0001
0100
0010
0100
0001
1000
0100
0010
0001
0010
0100
1000
0001
0010
0001
,
0100
0010
1000
0001
0100
0010
0100
0001
1000
0100
1000
0001
0010
0001
0100
0010
,
0100
0001
1000
0100
1000
0001
0100
0010
1000
0001
0100
0001
0010
0100
1000
0001
,
0010
0001
1000
0100
1000
0001
0100
0010
0100
0001
1000
0010
0100
0001
0100
0010
,
1000
0001
1000
0100
0010
0001
1000
0100
1000
0001
0010
0100
1000
0001
0100
0001
,
1000
0010
0100
0001
1000
0010
1000
0100
0010
0001
1000
0010
0100
0001
0100
0010
,
1000
0001
1000
0100
0010
0000
0001
0000
1000
0010
1000
0100
0010
0001
0100
0001
,
1000
0010
0100
0001
1000
0100
1000
0001
0010
0100
1000
0001
0010
0001
0100
0010
,
0100
0001
1000
0010
1000
0001
0100
0010
0100
0001
1000
0100
0010
0001
0100
0001
,
1000
0010
0100
0010
1000
0001
0100
0001
1000
0100
0010
0001
0100
0010
0100
0001
,
1000
0010
0100
0001
0100
0010
1000
0001
1000
0000
0010
0000
0100
0001
1000
0100
,
0010
0100
1000
0001
0100
0010
0100
0001
1000
0010
1000
0001
0100
0010
0100
0001
,
1000
0100
0010
0001
0010
0100
1000
0100
0010
0001
1000
0100
0010
0001
1000
0010
,
0100
0001
0010
0001
1000
0010
1000
0100
0010
0001
1000
0010
0100
0001
0100
0010
,
1000
0001
1000
0010
0100
0000
0010
0000
1000
0001
0100
0010
0100
0001
1000
0010
,
0100
0010
1000
0001
0100
0010
1000
0001
0010
0100
1000
0001
0010
0001
0100
0010
,
0100
0001
1000
0010
1000
0001
0100
0010
0100
0001
1000
0100
0010
0001
0100
0001
,
1000
0010
0100
0010
1000
0001
0100
0001
1000
0100
0010
0001
0100
0010
0100
0001
,
1000
0010
0100
0001
0100
0010
1000
0001
1000
0000
0010
0000
0100
0001
1000
0100
,
0010
0100
1000
0001
0100
0010
0100
0001
1000
0010
1000
0001
0100
0010
0100
0001
,
1000
0100
0010
0001
0010
0100
1000
0100
0010
0001
1000
0100
0010
0001
1000
0010
,
2000
0000
3001
0000
0200
0000
0310
0000
1000
0001
1000
0100
0010
0001
1000
0010
,
1000
0001
0100
0010
0100
0001
1000
0100
1000
0001
0010
0001
0100
0010
1000
0010
,
0100
0001
1000
0001
0100
0010
0100
0001
1000
0100
0010
0001
1000
0100
1000
0001
,
0010
0001
0100
0010
1000
0010
0100
0001
1000
0001
0100
0010
0100
0001
1000
0010
,
1000
0001
0100
0010
1000
0010
0100
0001
1000
0100
1000
0001
0010
0001
0100
0010
,
0100
0001
1000
0010
1000
0100
0010
0001
1000
0001
0100
0010
1000
0010
0100
0001
,
1000
0001
0100
0010
0100
0001
1000
0100
1000
0001
0100
0010
1000
0001
0100
0001
,
0010
0100
1000
0001
0010
0001
0100
0010
1000
0010
0100
0001
0100
0010
1000
0001
,
0200
0000
0310
0000
2000
0000
3001
0000
0100
0010
1000
0010
0100
0001
1000
0001
,
0100
0010
0100
0001
1000
0100
0010
0001
1000
0100
1000
0001
0010
0001
0100
0010
,
1000
0001
0100
0001
0010
0100
1000
0001
0100
0010
0100
0001
1000
0010
1000
0001
,
0100
0010
0100
0001
1000
0100
0010
0001
1000
0100
1000
0001
0010
0001
0100
0010
,
2000
0000
3001
0000
0200
0000
0310
0000
1000
0001
0100
0010
1000
0001
0010
0001
,
0100
0010
1000
0010
0100
0001
1000
0001
0100
0010
0100
0001
1000
0100
0010
0001
,
1000
0010
0100
0001
1000
0001
0100
0010
0100
0001
1000
0010
1000
0100
0010
0001
,
1000
0100
1000
0001
0010
0001
0100
0010
1000
0001
0100
0010
0100
0001
1000
0100
,
1000
0001
0010
0001
0100
0010
1000
0001
0100
0010
0100
0001
1000
0010
1000
0001
,
0100
0010
0100
0001
1000
0100
0010
0001
0010
0100
1000
0001
0010
0001
0100
0010
,
1000
0010
0100
0001
1000
0100
1000
0001
0010
0001
0100
0010
1000
0010
0100
0001
,
1000
0001
0100
0010
0100
0001
1000
0100
0010
0001
0010
0100
1000
0001
0010
0001
,
0100
0010
1000
0001
0100
0010
0100
0001
1000
0100
1000
0001
0010
0001
0100
0010
,
0100
0001
1000
0100
1000
0001
0100
0010
1000
0001
0100
0001
0010
0100
1000
0001
,
0010
0001
1000
0100
1000
0001
0100
0010
0100
0001
1000
0010
0100
0001
0100
0010
,
1000
0001
1000
0100
0010
0001
1000
0100
1000
0001
0100
0010
0100
0001
1000
0001
,
0100
0010
0100
0001
1000
0010
1000
0100
0010
0001
1000
0010
0100
0001
0100
0010
,
1000
0001
1000
0100
0010
0000
0001
0000
1000
0010
1000
0100
0010
0001
0100
0001
,
1000
0010
0100
0001
1000
0100
1000
0001
0010
0100
1000
0001
0010
0001
0100
0010
,
0100
0001
1000
0010
1000
0001
0100
0010
0100
0001
1000
0100
0010
0001
0100
0001
,
1000
0010
0100
0010
1000
0001
0100
0001
1000
0100
0010
0001
0100
0010
0100
0001
,
1000
0010
0100
0001
0100
0010
1000
0001
1000
0000
0010
0000
0100
0001
1000
0100
,
0010
0100
1000
0001
0100
0010
0100
0001
1000
0010
1000
0001
0100
0010
0100
0001
,
1000
0100
0010
0001
0010
0100
1000
0100
0010
0001
1000
0100
0010
0001
1000
0100
,
0010
0001
0100
0001
1000
0010
1000
0100
0010
0001
1000
0010
0100
0001
0100
0010
,
1000
0001
1000
0100
0010
0000
0001
0000
1000
0010
1000
0100
0010
0001
0100
0001
,
1000
0010
0100
0001
1000
0100
1000
0001
0010
0100
1000
0001
0010
0001
0100
0010
,
0100
0001
1000
0010
1000
0001
0100
0010
0100
0001
1000
0100
0010
0001
0100
0001
,
1000
0010
0100
0010
1000
0001
0100
0001
1000
0100
0010
0001
0100
0010
0100
0001
,
1000
0010
0100
0001
0100
0010
1000
0001
1000
0000
0010
0000
0100
0001
1000
0100
,
0010
0100
1000
0001
0100
0010
0100
0001
1000
0010
1000
0001
0100
0010
0100
0001
,
1000
0100
0010
0001
0010
0100
1000
0100
0010
0001
1000
0100
0010
0001
1000
0010
,
2000
0000
3001
0000
0200
0000
0310
0000
1000
0001
1000
0100
0010
0001
1000
0010
,
1000
0001
0100
0010
0100
0001
1000
0100
1000
0001
0010
0001
0100
0010
1000
0010
,
0100
0001
1000
0001
0100
0010
0100
0001
1000
0100
0010
0001
1000
0100
1000
0001
,
0010
0001
0100
0010
1000
0010
0100
0001
1000
0001
0100
0010
0100
0001
1000
0010
,
1000
0001
0100
0010
1000
0010
0100
0001
1000
0100
1000
0001
0010
0001
0100
0010
,
0100
0001
1000
0010
1000
0100
0010
0001
1000
0001
0100
0010
1000
0010
0100
0001
,
1000
0001
0100
0010
0100
0001
1000
0100
1000
0001
0100
0010
1000
0001
0100
0001
,
0010
0100
1000
0001
0010
0001
0100
0010
1000
0010
0200
0000
0000
0000
0300
0000
;
