#TITLE:Pump Me Amadeus;
#SUBTITLE:;
#ARTIST:Banya;
#TITLETRANSLIT:;
#SUBTITLETRANSLIT:;
#ARTISTTRANSLIT:;
#CREDIT:;
#BANNER:pump me amadeus bn.png;
#BACKGROUND:pump me amadeus bg.png;
#LYRICSPATH:;
#CDTITLE:;
#MUSIC:amadeus.mp3;
#OFFSET:-1.720;
#SAMPLESTART:46.752;
#SAMPLELENGTH:12.000;
#SELECTABLE:YES;
#BPMS:0.000=169.896;
#STOPS:;
#BGCHANGES:;
// cache tags:
#FIRSTBEAT:0.000;
#LASTBEAT:265.000;
#SONGFILENAME:Songs/IzzySM Keyboard Mega Pack/Pump me Amadeus/AMADEUS.sm;
#HASMUSIC:1;
#HASBANNER:1;
#MUSICLENGTH:101.659;
// end cache tags

//---------------dance-single - ----------------
#NOTES:
     dance-single:
     :
     Hard:
     11:
     1.000,1.000,0.669,0.167,0.925,651.000,68.000,17.000,0.000,0.000:  // measure 1
1010
0000
1000
0100
0010
0000
0001
0010
0100
0000
1000
0010
1000
0000
0001
0100
,  // measure 2
0010
0000
1000
0001
0010
0000
0001
1000
0100
0000
1000
0100
0010
0000
1000
0001
,  // measure 3
0100
0000
0010
0100
0001
0000
0010
0100
0001
0000
0001
0010
0100
0000
1000
0100
,  // measure 4
0010
0001
0010
0100
1000
0010
1000
0001
0100
0010
1000
0001
0010
0100
1000
0010
,  // measure 5
0101
0000
0010
0000
1000
0000
0001
0000
0010
0001
0100
0010
0101
0000
0000
0000
,  // measure 6
1000
0000
0010
0000
0100
0000
1000
0000
0010
0100
0001
0100
1001
0000
0000
0000
,  // measure 7
0001
0000
1000
0000
0100
0000
0010
0000
0100
0001
0010
0001
1010
0000
0000
0000
,  // measure 8
1000
0000
0001
0000
0010
0000
0100
0000
0010
1000
0100
1000
0110
0000
0000
0000
,  // measure 9
0001
0000
0100
0000
0010
0000
0001
0000
0001
0010
0100
1000
0100
0000
0000
0000
,  // measure 10
1000
0100
0010
0001
0010
0000
0000
0000
1000
0100
1000
0010
1000
0001
0100
0010
,  // measure 11
1000
0000
0000
1000
0001
0000
0000
0001
0010
0000
0000
0010
0100
0000
0000
0100
,  // measure 12
1000
0000
0000
0000
0000
0000
1000
0000
0010
0000
0000
0000
0000
0000
0000
0000
2002
0000
0000
0000
0000
0000
0000
0000
0000
0000
0000
0000
0000
3003
0000
0000
,  // measure 13
1001
0000
1000
0100
1000
0000
0010
0100
0001
0000
0010
0100
0001
0000
1000
0100
,  // measure 14
0010
0000
0001
0010
0100
0000
1000
0010
1000
0000
0001
0100
0010
0000
0001
0100
,  // measure 15
0010
0000
1000
0001
1000
0000
1000
0100
1000
0000
0010
0100
0001
0000
0010
0100
,  // measure 16
0010
0000
1000
0001
1000
0000
0001
0010
0100
0000
0010
0100
1000
0000
0100
0000
,  // measure 17
0011
0000
1000
0100
1000
0000
0010
0100
0001
0000
0001
0010
0100
0000
1000
0100
,  // measure 18
0010
0000
1000
0100
0010
0000
0001
0010
0100
0000
0001
0010
0100
0000
1000
0010
,  // measure 19
1000
0000
0001
0100
0010
0000
0010
0100
0010
0000
1000
0100
1000
0000
1000
0001
,  // measure 20
0100
0000
0001
0010
0001
0000
0001
1000
0001
0000
1000
0100
1000
0000
0001
0000
,  // measure 21
1010
0001
0100
0010
1000
0001
0001
0010
,  // measure 22
0010
0100
0100
1000
1000
0010
0100
0001
,  // measure 23
1001
0010
0100
1000
1000
0010
0010
0100
,  // measure 24
0100
0001
0001
0010
1000
0100
1000
0010
,  // measure 25
0101
0000
1000
0100
0010
0000
0001
0000
1000
0100
1000
0000
0001
0000
0010
0000
,  // measure 26
0110
0000
0001
1000
0100
1000
0001
0010
0100
1000
0010
1000
0001
0000
0000
0000
,  // measure 27
0010
0000
0100
0001
0100
0010
1000
0100
1000
0001
0010
0100
1000
0010
1000
0001
,  // measure 28
0100
0100
0010
0010
1000
1000
0010
0010
,  // measure 29
2002
0000
0000
0000
0000
0000
0000
0000
0000
0000
0000
0000
0000
3003
0000
0000
0020
0000
0030
0000
0200
0000
0300
0000
0002
0000
0003
0000
0200
0000
0300
0000
,  // measure 30
0020
0000
0000
0030
1001
0000
1000
0000
0100
0010
0000
0000
0000
0000
0010
0000
,  // measure 31
1000
0001
0100
0010
1000
0001
0010
0100
1000
0001
0010
0100
1000
0100
1000
0100
,  // measure 32
0010
0001
0010
0001
1000
0100
1000
0100
1000
0010
1000
0010
1000
0001
0100
0010
,  // measure 33
1000
0000
0001
1000
0001
0000
1000
0000
1000
0000
0100
0000
0100
0000
0010
0000
,  // measure 34
0001
0000
1000
0001
0010
0000
0001
0000
0001
0000
1000
0000
0010
0000
1010
0000
,  // measure 35
0110
0000
0100
0001
0100
0000
0010
0000
1000
0010
1000
0100
0010
0000
0100
0000
,  // measure 36
0010
0001
0010
0001
1000
0100
1000
0100
0010
0001
0010
0001
1000
0100
1000
0100
,  // measure 37
1001
0000
1000
0000
0010
0000
0001
0000
0001
0000
1000
0100
1000
0000
0001
0000
,  // measure 38
0010
0000
0100
0001
0100
0000
0010
0000
1000
0000
0001
0010
0001
0000
0001
0000
,  // measure 39
0001
0010
0100
1000
0100
1000
0001
0010
0100
1000
0001
0010
0100
1000
0100
1000
,  // measure 40
0001
0010
0100
1000
0100
1000
0100
1000
0010
1000
0001
0100
0010
1000
0001
0010
,  // measure 41
1002
0000
0000
0000
0000
0000
0000
0000
0000
0000
0000
0000
1000
0000
0000
0003
,  // measure 42
1001
0000
0100
1000
0001
0000
1000
0000
0010
0000
1000
0001
0100
0000
0010
0000
,  // measure 43
0100
0000
0001
0010
0001
0000
1000
0000
0100
0000
1000
0010
0100
0000
0001
0000
,  // measure 44
0010
0000
1000
0100
0010
0000
0001
0000
0100
0000
1000
0001
0010
0000
0100
0000
,  // measure 45
0010
0000
1000
0010
0100
0000
0001
0100
0010
0000
0001
0100
0010
0000
1001
0000
,  // measure 46
0011
0000
1000
0100
1000
0000
0010
0000
0100
0000
0100
0001
1000
0000
0100
0000
,  // measure 47
0001
0000
0010
0100
1000
0000
0100
0000
1000
0000
0010
0100
1000
0000
0001
0000
,  // measure 48
0010
0000
0001
0100
0001
0000
0001
0000
0010
0000
1000
0100
1000
0000
0010
1000
,  // measure 49
0001
0100
0010
0100
0001
1000
0010
1000
0100
0010
0001
0010
0100
1000
0001
0100
,  // measure 50
1010
0000
1001
0000
0110
0000
1001
0000
0010
1000
0001
0010
0100
0000
0000
0000
,  // measure 51
1001
0000
0010
0100
0001
0000
0100
0010
1000
0000
1000
0001
1000
0000
0100
0010
,  // measure 52
0011
0000
1100
0000
1001
0000
1010
0000
0100
0001
0100
0010
1000
0000
0001
0000
,  // measure 53
0110
0011
1100
1010
1001
0110
1001
1000
,  // measure 54
1100
0000
1000
0100
0010
0000
0011
0000
0001
0010
0100
1000
0001
0000
1000
0000
,  // measure 55
1100
0000
1000
0100
0010
0000
0011
0000
0001
1000
0010
0100
0001
0000
0010
0000
,  // measure 56
0101
0000
0100
0010
0100
0000
1001
0000
0010
1000
0001
0100
0010
0000
1000
0000
,  // measure 57
0011
0000
0100
0010
0001
0000
1100
0000
0100
0010
0001
0010
0100
1000
0100
0010
,  // measure 58
0002
0000
0000
0000
,  // measure 59
0000
0023
2000
0000
0000
3030
2100
0000
,  // measure 60
3002
0000
0000
0000
,  // measure 61
2003
3000
2000
0000
0000
0000
0000
0000
0000
0000
0000
0000
0000
0000
0000
3000
,  // measure 62
1001
1001
0000
0110
0000
1100
0000
1001
,  // measure 63
0000
0000
1010
0000
0110
0000
0000
0000
1000
0100
0010
0001
0010
0100
1000
0001
,  // measure 64
0110
0101
0000
1001
0000
0011
0000
1001
,  // measure 65
0000
0000
1100
0000
0011
0000
0000
0000
0001
0010
0100
1000
0001
0010
0100
0010
,  // measure 66
1100
1001
0000
0110
0000
1001
0000
0110
,  // measure 67
0000
0101
1001
0000
0000
0000
0000
0000
;
